#TITLE:Beyond Abilities;
#SUBTITLE:;
#ARTIST:Warmen;
#TITLETRANSLIT:;
#SUBTITLETRANSLIT:;
#ARTISTTRANSLIT:;
#CREDIT:;
#BANNER:Beyond Abilities.png;
#BACKGROUND:Beyond Abilities-BG.png;
#LYRICSPATH:;
#CDTITLE:;
#MUSIC:Beyond Abilities.mp3;
#OFFSET:1.620;
#SAMPLESTART:8.641;
#SAMPLELENGTH:20.500;
#SELECTABLE:YES;
#BPMS:0.000=224.050;
#STOPS:;
#BGCHANGES:;
// cache tags:
#FIRSTBEAT:47.000;
#LASTBEAT:776.000;
#SONGFILENAME:Songs/IzzySM Keyboard Mega Pack/Beyond Abilities/Beyond Abilities.sm;
#HASMUSIC:1;
#HASBANNER:1;
#MUSICLENGTH:207.132;
// end cache tags

//---------------dance-single - ----------------
#NOTES:
     dance-single:
     :
     Hard:
     10:
     0.727,0.796,0.019,0.275,0.116,993.000,4.000,57.000,0.000,0.000:  // measure 1
0000
0000
0000
0000
,  // measure 2
0000
0000
0000
0000
,  // measure 3
0000
0000
0000
0000
,  // measure 4
0000
0000
0000
0000
,  // measure 5
0000
0000
0000
0000
,  // measure 6
0000
0000
0000
0000
,  // measure 7
0000
0000
0000
0000
,  // measure 8
0000
0000
0000
0000
,  // measure 9
0000
0000
0000
0000
,  // measure 10
0000
0000
0000
0000
,  // measure 11
0000
0000
0000
0000
,  // measure 12
0000
0000
0000
0000
0000
0000
1000
0100
,  // measure 13
1000
0000
0000
0000
0010
0000
0001
0000
0010
0000
0000
0000
0010
0100
1000
0100
,  // measure 14
0000
0000
0001
0000
1000
0000
0010
0001
,  // measure 15
1000
0000
0000
0000
0010
0000
0001
0000
1000
0000
0000
0000
0010
0001
0010
0001
,  // measure 16
0000
0000
0100
0000
0010
0000
1000
0010
,  // measure 17
1000
0000
0000
0000
1000
0000
0001
0000
1000
0000
0000
0000
1000
0010
0100
0001
,  // measure 18
0000
0000
1000
0000
0100
0000
0001
0010
,  // measure 19
0100
1000
0010
0100
0001
0010
0100
1000
,  // measure 20
0010
0100
0001
0010
0100
1000
0100
1000
,  // measure 21
0100
0000
0000
0000
0010
0000
0001
0000
0010
0000
0000
0000
1000
0100
1000
0001
,  // measure 22
0000
0000
1000
0000
0100
0000
1000
0010
,  // measure 23
1000
0000
0000
0000
0100
0000
1000
0000
0100
0000
0000
0000
1000
0001
1000
0001
,  // measure 24
0000
0000
1000
0000
0001
0000
0100
0010
,  // measure 25
0100
0000
0000
0000
0001
0000
0100
0000
0001
0000
0000
0000
1000
0100
0010
0001
,  // measure 26
0000
0000
1000
0000
0010
0000
1000
0100
,  // measure 27
0010
0001
1000
0010
0100
0001
1000
0100
,  // measure 28
1000
0001
0100
0001
0100
0001
2000
0000
,  // measure 29
0000
0000
0000
3000
0000
0000
0002
0000
,  // measure 30
0000
0000
0000
2000
,  // measure 31
0000
0000
0000
0000
0000
0000
0000
3003
,  // measure 32
1000
0100
1000
0100
0010
0100
1000
0100
,  // measure 33
0010
0001
0010
0100
1000
0100
0010
0001
,  // measure 34
0010
0100
1000
0010
0100
0010
0100
0001
,  // measure 35
0010
0100
1000
0100
1000
0100
0020
0000
,  // measure 36
0000
0000
0000
0000
0000
0030
1000
0000
,  // measure 37
0100
0000
0010
0001
0010
0100
0010
0001
,  // measure 38
1000
0001
1000
0100
0010
0001
2000
0000
,  // measure 39
0002
0000
0000
3003
1000
0100
0010
0001
,  // measure 40
0010
0002
0000
0003
1000
0100
2000
0000
,  // measure 41
0000
0002
0000
3003
1000
0100
1000
0010
,  // measure 42
0100
0002
0000
0003
1000
0100
1000
0100
,  // measure 43
0010
0001
0010
0001
0010
0100
1000
0001
,  // measure 44
1000
0001
1000
0010
1000
0100
2000
0000
,  // measure 45
0000
0000
0000
0000
0000
0002
0000
0000
,  // measure 46
0000
0000
0000
0000
0000
3003
1000
0100
,  // measure 47
1000
0010
1000
0001
1000
0010
1000
0100
,  // measure 48
0010
0001
0010
0001
0100
0001
1000
0001
,  // measure 49
0100
0001
0010
0001
1000
0100
0010
0001
,  // measure 50
1000
0100
0010
0001
1000
0001
0020
0000
,  // measure 51
0000
0030
1000
0100
1000
0100
1000
0100
,  // measure 52
0010
0001
0010
0100
1000
0001
2000
3000
,  // measure 53
0100
0010
0100
1000
0001
0010
0100
0010
,  // measure 54
0001
1000
0100
1000
0100
0010
0001
0010
,  // measure 55
0100
1000
0000
0000
0000
0100
1000
0000
,  // measure 56
0000
0000
0010
0001
0000
0000
1000
0100
,  // measure 57
0010
0001
1000
0100
0010
0001
1000
0001
,  // measure 58
0010
0100
1000
0001
0010
0100
2000
0000
,  // measure 59
0000
3200
0000
0320
0000
0032
0000
0003
,  // measure 60
1000
0100
0010
0100
0010
0001
0010
0100
,  // measure 61
1000
0001
0010
0100
1000
0100
0010
0001
,  // measure 62
0010
0100
1000
0100
0010
0100
1000
0100
,  // measure 63
1000
0000
0000
0000
0001
0000
0100
0000
0001
0000
0000
0000
1000
0100
1000
0010
,  // measure 64
0000
0000
1000
0000
0100
0000
0010
0001
,  // measure 65
0010
0000
0000
0000
0100
0000
1000
0000
0100
0000
0000
0000
1000
0010
1000
0010
,  // measure 66
0000
0000
1000
0000
0100
0000
1000
0100
,  // measure 67
0001
0000
0000
0000
0001
0000
0100
0000
1000
0000
0000
0000
0001
0100
0001
0100
,  // measure 68
0000
0000
0001
0000
0010
0000
1000
0100
,  // measure 69
0010
0001
1000
0100
0010
0001
1000
0001
,  // measure 70
0010
0100
1000
0001
0010
0100
1000
0100
,  // measure 71
1000
0000
0000
0000
0001
0000
0010
0000
0001
0000
0000
0000
1000
0100
0010
0001
,  // measure 72
0000
0000
1000
0000
0100
0000
0010
0100
,  // measure 73
1000
0000
0000
0000
0010
0000
0100
0000
0001
0000
0000
0000
0100
0010
0100
0010
,  // measure 74
0000
0000
0010
0000
0001
0000
1000
0001
,  // measure 75
0100
0000
0000
0000
1000
0000
0100
0000
0010
0000
0000
0000
0100
0001
0100
0001
,  // measure 76
0000
0000
0010
0000
0100
0000
1000
0100
,  // measure 77
1000
0100
0010
0100
0010
0001
0010
0100
,  // measure 78
1000
0100
0010
0001
0010
0100
2000
0000
,  // measure 79
0000
0000
0000
0000
,  // measure 80
0000
3000
0000
0000
,  // measure 81
0000
0000
0000
0000
,  // measure 82
0000
0000
0000
0000
0000
0000
0000
0000
0000
0000
0000
0000
0001
1000
0001
0000
,  // measure 83
0000
0000
0000
0000
0000
0000
0000
0000
1000
0001
1000
0000
0000
0000
0000
0000
,  // measure 84
0000
0000
0000
0000
0000
0000
0000
0000
1001
0000
0000
0000
0010
0100
0010
0000
,  // measure 85
0000
0000
0000
0000
,  // measure 86
0000
0000
0000
0000
0000
0000
1000
0100
,  // measure 87
1000
0100
0010
0001
0010
0001
0010
0100
,  // measure 88
1000
0100
0010
0001
0010
0100
1000
0010
,  // measure 89
1000
0010
0100
0001
0100
0001
0100
0001
,  // measure 90
0100
0010
1000
0010
1000
0100
1000
0100
,  // measure 91
1000
0100
0010
0001
0010
0100
0010
0100
,  // measure 92
0010
1000
0010
0100
0001
2000
3000
1000
,  // measure 93
0100
0000
0010
0000
0001
0000
1000
0000
0100
0000
0020
0000
0000
0030
1000
0000
,  // measure 94
0001
1000
0100
1000
0010
0200
0300
1000
,  // measure 95
0001
1000
0001
0100
0010
0001
0010
0100
,  // measure 96
1000
0100
0010
0001
1000
0100
1000
0100
,  // measure 97
0010
0001
0010
0001
0010
0100
1000
0010
,  // measure 98
0001
0010
1000
0100
0001
0100
1000
0100
,  // measure 99
1000
0100
0010
0001
0010
0001
0010
0100
,  // measure 100
0010
0000
0100
0000
1000
0000
0001
0000
1000
0000
0002
0000
0000
0003
0100
0000
,  // measure 101
0010
0000
0001
0000
1000
0000
0010
0000
0100
0000
0002
0000
0000
0003
0100
0000
,  // measure 102
0010
0100
2000
0000
0000
3000
0002
0000
,  // measure 103
0000
0000
2000
0000
0000
0000
0000
3003
,  // measure 104
1000
0100
0010
0001
1000
0010
0100
0001
,  // measure 105
0010
0100
0010
0001
0010
0200
0300
0001
,  // measure 106
0010
0100
2000
3000
0000
0000
0100
1000
,  // measure 107
0100
0010
0001
0100
0010
1000
0010
0100
,  // measure 108
0001
0010
0100
1000
0001
0010
2000
3000
,  // measure 109
0001
2000
3000
0001
2000
3000
0001
2000
,  // measure 110
0000
0000
0000
0002
3003
0000
0000
0000
0000
0000
0000
0000
1000
0000
0100
0000
,  // measure 111
0010
0001
1000
0001
1000
0010
0100
0001
,  // measure 112
1000
0001
0010
0100
1000
0001
1000
0001
,  // measure 113
0100
0010
1000
0100
0010
0001
0010
0100
,  // measure 114
0010
0001
0010
0100
1000
0100
0010
0100
,  // measure 115
1000
0100
1000
0010
1000
0001
1000
0001
,  // measure 116
0100
0001
0010
0001
1000
0001
2000
0000
,  // measure 117
0000
0000
0000
0002
0000
0000
0000
0000
,  // measure 118
0000
3003
0200
0000
0000
0000
0020
0000
,  // measure 119
0000
0000
0000
0000
,  // measure 120
0000
0000
0000
0000
,  // measure 121
0000
0330
0000
0000
1000
0100
1000
0010
,  // measure 122
1000
0001
0100
0001
0010
0001
2000
0000
,  // measure 123
0000
0000
0000
3000
0001
1000
0001
0100
,  // measure 124
0010
1000
0001
1000
0100
0010
0001
1000
,  // measure 125
0100
0010
0001
1000
0100
0010
0001
1000
,  // measure 126
0100
0010
0001
1000
0001
0100
0002
0000
,  // measure 127
0000
0000
0020
0000
,  // measure 128
0000
0000
0000
0000
0000
0033
0100
1000
,  // measure 129
0001
0010
2000
0000
0000
0002
0000
3003
,  // measure 130
1000
0100
0010
0001
1000
0001
2000
0000
,  // measure 131
0002
0000
3003
0010
0100
1000
0010
1000
,  // measure 132
0001
0100
0010
1000
0001
1000
0010
0100
,  // measure 133
0001
0010
0100
0001
0100
1000
0100
0010
,  // measure 134
0100
1000
0100
0010
0001
0000
1000
1000
,  // measure 135
0000
0000
0001
0001
0000
0000
1000
1000
,  // measure 136
0000
0000
0001
0001
0000
0000
1000
0010
,  // measure 137
0000
0000
0001
0100
0000
0000
1000
0001
,  // measure 138
0000
0000
0001
1000
0000
0000
1000
0010
,  // measure 139
0000
0000
0100
0001
0000
0000
0010
1000
,  // measure 140
0000
0000
0001
0100
0000
0000
0100
0100
,  // measure 141
0000
0000
0010
0010
0000
0000
0001
0001
,  // measure 142
0000
0000
0000
0000
1000
0000
1000
0000
0000
0000
0000
0000
1000
0100
0000
0000
,  // measure 143
0000
0000
0000
0000
0100
0001
0000
0000
0000
0000
0000
0000
0001
0010
0000
0000
,  // measure 144
0000
0000
0000
0000
0010
1000
0000
0000
0000
0000
0000
0000
1000
0100
0000
0000
,  // measure 145
0000
0000
0000
0000
0100
0001
0000
0000
0000
0000
0000
0000
0001
0010
0000
0000
,  // measure 146
0000
0000
0000
0000
0010
1000
0000
0000
0000
0000
0000
0000
1000
0000
0000
0000
,  // measure 147
0001
1000
0001
0010
,  // measure 148
0100
0010
0100
1000
,  // measure 149
0100
0010
0001
1000
,  // measure 150
0010
0100
0001
2002
,  // measure 151
0000
0000
0000
0000
,  // measure 152
0000
3003
0000
0000
0000
0000
0000
0000
,  // measure 153
0000
0000
0000
0000
1000
0100
0010
0001
,  // measure 154
1000
0100
0010
0001
1000
0001
2000
0000
,  // measure 155
3001
0200
0310
0020
,  // measure 156
0130
0000
0002
0000
1003
0000
1000
0100
,  // measure 157
0010
0001
1000
0100
0010
0001
1000
0001
,  // measure 158
1000
0001
0010
0100
1000
0001
2000
0000
,  // measure 159
3001
0020
0130
0200
,  // measure 160
0310
0000
0002
0000
1003
0000
1000
1000
,  // measure 161
0000
0000
0001
0001
0000
0000
0100
0100
,  // measure 162
0000
0000
0010
0010
0000
0000
1000
0010
,  // measure 163
0000
0000
0001
0100
0000
0000
1000
0010
,  // measure 164
0000
0000
0100
0001
0000
0000
0010
1000
,  // measure 165
0000
0000
0001
0100
0000
0000
1000
0010
,  // measure 166
0000
0000
0010
1000
0000
0000
1000
0100
,  // measure 167
1000
0000
0000
0000
0010
0000
0100
0000
0010
0000
0000
0000
1000
0001
1000
0001
,  // measure 168
0000
0000
1000
0000
0100
0000
0010
0001
,  // measure 169
0010
0000
0000
0000
0100
0000
1000
0000
0100
0000
0000
0000
0010
0100
0010
0001
,  // measure 170
0000
0000
0001
0000
0010
0000
1000
0100
,  // measure 171
0010
0000
0000
0000
0001
0000
0100
0000
0010
0000
0000
0000
0001
0100
0001
0100
,  // measure 172
0000
0000
0100
0000
0010
0000
1000
0001
,  // measure 173
1000
0001
0100
0010
0100
0010
1000
0100
,  // measure 174
0010
0001
1000
0010
0100
0001
1000
0100
,  // measure 175
0010
0001
0100
1001
,  // measure 176
0000
0000
1000
0100
0010
0000
0100
0000
,  // measure 177
0100
0000
1000
0000
1000
0000
1000
0100
,  // measure 178
0010
0001
1000
0100
0010
0001
1000
0100
,  // measure 179
1000
0000
0010
0000
0010
0000
0001
0100
,  // measure 180
0001
0000
0100
0000
0100
0000
1000
0001
,  // measure 181
1000
0001
0010
0100
0010
0100
1000
0001
,  // measure 182
1000
0001
0100
0010
0100
0010
1000
0100
,  // measure 183
0010
0000
0000
0000
0001
0000
0100
0000
0010
0000
0000
0000
1000
0010
1000
0010
,  // measure 184
0000
0000
0100
0000
0010
0000
0001
0010
,  // measure 185
1000
0000
0000
0000
1000
0000
0100
0000
0001
0000
0000
0000
0001
0010
0001
0010
,  // measure 186
0000
0000
1000
0000
0001
0000
0100
0010
,  // measure 187
0100
0000
0000
0000
0100
0000
0001
0000
0100
0000
0000
0000
0100
1000
0100
1000
,  // measure 188
0000
0000
1000
0000
0100
0000
1000
0100
,  // measure 189
0010
0001
1000
0100
0010
0001
0001
0010
,  // measure 190
0100
1000
0001
0010
0100
1000
2002
0000
,  // measure 191
0000
0000
0000
0000
,  // measure 192
0000
0000
0000
0000
,  // measure 193
0000
0000
0000
0000
,  // measure 194
0000
0000
0000
0000
0000
0000
0000
3003
;

//---------------dance-single - ----------------
#NOTES:
     dance-single:
     :
     Easy:
     6:
     0.408,0.421,0.034,0.053,0.000,574.000,7.000,11.000,0.000,0.000:  // measure 1
0000
0000
0000
0000
,  // measure 2
0000
0000
0000
0000
,  // measure 3
0000
0000
0000
0000
,  // measure 4
0000
0000
0000
0000
,  // measure 5
0000
0000
0000
0000
,  // measure 6
0000
0000
0000
0000
,  // measure 7
0000
0000
0000
0000
,  // measure 8
0000
0000
0000
0000
,  // measure 9
0000
0000
0000
0000
,  // measure 10
0000
0000
0000
0000
,  // measure 11
0000
0000
0000
0000
,  // measure 12
0000
0000
0000
1000
,  // measure 13
0100
0000
0100
0000
,  // measure 14
1000
0000
1000
0000
,  // measure 15
0001
0000
0001
0000
,  // measure 16
1000
0000
0100
0000
,  // measure 17
0010
0000
0001
0000
,  // measure 18
0010
0000
1000
0100
,  // measure 19
0000
0010
0000
0001
,  // measure 20
0000
0010
0000
0000
,  // measure 21
0010
0000
0001
0000
,  // measure 22
1000
0000
0100
0000
,  // measure 23
0001
0000
0010
0000
,  // measure 24
1000
0000
0100
0000
,  // measure 25
0001
0000
0010
0000
,  // measure 26
1000
0000
0100
0010
,  // measure 27
0000
0001
0000
0010
,  // measure 28
0000
0100
0000
2002
,  // measure 29
0000
0000
0000
3003
0000
0000
1000
0000
,  // measure 30
0100
1000
0000
0000
,  // measure 31
0001
0000
1000
0000
,  // measure 32
0001
0000
1000
0000
,  // measure 33
0100
0000
0010
0000
,  // measure 34
0100
0000
0010
0000
,  // measure 35
1000
0000
0001
0000
,  // measure 36
1000
0000
0001
0000
,  // measure 37
1000
0000
0100
0010
,  // measure 38
0000
0001
0000
0000
,  // measure 39
1000
0000
0100
0000
,  // measure 40
0010
0000
0001
0000
,  // measure 41
1000
0000
0100
0000
,  // measure 42
0010
0000
0001
0000
,  // measure 43
1000
0000
0001
0000
,  // measure 44
0010
0000
0100
0000
,  // measure 45
1000
0000
1000
0000
,  // measure 46
0100
0000
0010
0000
,  // measure 47
1000
0000
1000
0000
,  // measure 48
0100
0000
0100
0000
,  // measure 49
0010
0000
0010
0000
,  // measure 50
0001
0000
0001
0000
,  // measure 51
1000
0000
0001
0000
,  // measure 52
1000
0000
0000
0000
0001
0000
0000
0010
,  // measure 53
0000
0000
0001
0000
0000
0010
0000
0000
,  // measure 54
1000
0000
0010
0000
0000
0001
0000
0000
,  // measure 55
0100
0000
0001
0000
,  // measure 56
1000
0000
0100
0000
,  // measure 57
1000
0000
0100
0000
,  // measure 58
0001
0000
0010
0000
,  // measure 59
0001
0000
0010
0000
,  // measure 60
0100
0000
1000
1000
,  // measure 61
0100
0100
0001
0001
,  // measure 62
0100
0100
1000
1000
,  // measure 63
0100
0010
0001
1000
,  // measure 64
0100
0010
0001
0010
,  // measure 65
0100
1000
0100
0010
,  // measure 66
0001
1000
0100
0010
,  // measure 67
0001
1000
0100
0010
,  // measure 68
0100
0010
0100
1000
,  // measure 69
0100
0001
0010
1000
,  // measure 70
0100
0001
0010
1000
,  // measure 71
0001
1000
0001
1000
,  // measure 72
0001
1000
0100
0010
,  // measure 73
0001
1000
0100
0010
,  // measure 74
0001
0010
0100
1000
,  // measure 75
0001
0010
0100
1000
,  // measure 76
0001
1000
0001
1000
,  // measure 77
0100
0001
0010
1000
,  // measure 78
0100
0001
0010
2002
,  // measure 79
0000
0000
0000
0000
,  // measure 80
0000
3003
0000
0000
,  // measure 81
0000
0000
0000
0000
,  // measure 82
0000
0000
0000
1001
,  // measure 83
0000
0000
1001
0000
,  // measure 84
0000
0000
1000
1001
,  // measure 85
0000
0000
0000
0000
,  // measure 86
0000
0000
0000
1000
,  // measure 87
0100
0010
0001
1000
,  // measure 88
0100
0010
0001
1000
,  // measure 89
0001
1000
0001
0010
,  // measure 90
0100
1000
0001
0010
,  // measure 91
0100
1000
0001
1000
,  // measure 92
0001
1000
0100
0010
,  // measure 93
0001
1000
0100
0010
,  // measure 94
0001
1000
0001
1000
,  // measure 95
0001
0100
0010
1000
,  // measure 96
0100
0010
0001
1000
,  // measure 97
0100
0010
0001
1000
,  // measure 98
0001
1000
0001
1000
,  // measure 99
0010
0100
0010
0100
,  // measure 100
0001
0010
0100
1000
,  // measure 101
0001
1000
0001
0010
,  // measure 102
0100
0010
0100
2000
,  // measure 103
0000
0002
0000
3003
,  // measure 104
1000
0100
0010
0001
,  // measure 105
1000
0100
0010
0001
,  // measure 106
1000
0001
1000
0001
,  // measure 107
0100
0010
1000
0001
,  // measure 108
0100
0010
1000
0001
,  // measure 109
1000
0001
1000
0100
,  // measure 110
0010
0001
0000
1000
,  // measure 111
0100
0001
0100
1000
,  // measure 112
0100
0001
0100
1000
,  // measure 113
0010
0001
0010
1000
,  // measure 114
0010
0001
0010
1000
,  // measure 115
0100
0010
0001
1000
,  // measure 116
0100
0010
0001
1000
,  // measure 117
0001
1000
0001
0010
,  // measure 118
0100
1000
0001
2002
,  // measure 119
0000
0000
0000
0000
,  // measure 120
0000
0000
0000
0000
,  // measure 121
0000
3003
1000
0100
,  // measure 122
0010
0001
1000
0100
,  // measure 123
0010
0001
1000
0001
,  // measure 124
1000
0001
0010
0100
,  // measure 125
1000
0001
0010
0100
,  // measure 126
1000
0001
1000
0100
,  // measure 127
0010
0001
1000
0001
,  // measure 128
1000
0001
0100
0010
,  // measure 129
0100
0010
1000
0010
,  // measure 130
0100
0001
0010
0100
,  // measure 131
1000
0010
0100
0001
,  // measure 132
1000
0001
1000
0100
,  // measure 133
0010
0001
1000
0100
,  // measure 134
0001
0010
1000
0100
,  // measure 135
0001
0010
0001
0100
,  // measure 136
1000
0010
0001
0100
,  // measure 137
1000
0010
0001
1000
,  // measure 138
0100
1000
0100
1000
,  // measure 139
0010
0001
0010
0001
,  // measure 140
0010
0001
1000
0100
,  // measure 141
1000
0010
1000
0001
,  // measure 142
1000
0010
1000
0100
,  // measure 143
1000
0001
0010
0001
,  // measure 144
0100
0001
1000
0001
,  // measure 145
0100
0001
0010
0001
,  // measure 146
0100
1000
0100
0010
,  // measure 147
0100
0001
0100
0010
,  // measure 148
0100
1000
0010
1000
,  // measure 149
0001
1000
0010
1000
,  // measure 150
0001
0100
0001
2000
,  // measure 151
0001
0000
0001
3000
,  // measure 152
0001
0000
1000
0000
,  // measure 153
0001
0000
1000
0100
,  // measure 154
0010
0001
1000
0100
,  // measure 155
0010
0001
1000
0001
,  // measure 156
0100
0001
0010
0001
,  // measure 157
1000
0001
1000
0001
,  // measure 158
1000
0100
1000
0001
,  // measure 159
1000
0010
1000
0100
,  // measure 160
1000
0100
0010
0001
,  // measure 161
1000
0100
0010
0001
,  // measure 162
1000
0001
1000
0100
,  // measure 163
0010
0001
1000
0100
,  // measure 164
0010
0001
1000
0001
,  // measure 165
0100
0010
1000
0001
,  // measure 166
0100
0010
1000
0001
,  // measure 167
1000
0001
1000
0001
,  // measure 168
1000
0100
1000
0100
,  // measure 169
1000
0010
1000
0010
,  // measure 170
1000
0001
0010
0001
,  // measure 171
0010
0001
0100
0001
,  // measure 172
0100
0010
0001
1000
,  // measure 173
1000
0100
0100
0010
,  // measure 174
0010
0001
0001
1000
,  // measure 175
0100
0010
0001
0010
,  // measure 176
0100
0001
0010
0100
,  // measure 177
1000
0010
0100
0010
,  // measure 178
0100
0001
0001
1000
,  // measure 179
0001
1000
0100
0010
,  // measure 180
0001
1000
0100
1000
,  // measure 181
1000
0100
0100
0010
,  // measure 182
0010
0001
0001
1000
,  // measure 183
0001
0010
0100
1000
,  // measure 184
0100
0010
0100
0010
,  // measure 185
0001
0010
0100
0010
,  // measure 186
0001
0010
0001
1000
,  // measure 187
0001
0100
0010
1000
,  // measure 188
0010
0100
0001
1000
,  // measure 189
1000
0100
0100
0010
,  // measure 190
0010
0001
0001
2002
,  // measure 191
0000
0000
0000
0000
,  // measure 192
0000
0000
0000
0000
,  // measure 193
0000
0000
0000
0000
,  // measure 194
0000
0000
0000
0000
,  // measure 195
3003
0000
0000
0000
;

//---------------dance-single - ----------------
#NOTES:
     dance-single:
     :
     Medium:
     8:
     0.559,0.702,0.063,0.145,0.000,767.000,13.000,30.000,0.000,0.000:  // measure 1
0000
0000
0000
0000
,  // measure 2
0000
0000
0000
0000
,  // measure 3
0000
0000
0000
0000
,  // measure 4
0000
0000
0000
0000
,  // measure 5
0000
0000
0000
0000
,  // measure 6
0000
0000
0000
0000
,  // measure 7
0000
0000
0000
0000
,  // measure 8
0000
0000
0000
0000
,  // measure 9
0000
0000
0000
0000
,  // measure 10
0000
0000
0000
0000
,  // measure 11
0000
0000
0000
0000
,  // measure 12
0000
0000
0000
1001
,  // measure 13
1000
0000
0100
0000
1000
0000
0100
0010
,  // measure 14
0001
0100
1000
1000
,  // measure 15
0100
0000
0010
0000
0001
0000
1000
0100
,  // measure 16
1000
0001
0100
0010
,  // measure 17
1000
0000
0100
0000
0001
0000
0100
0001
,  // measure 18
1000
0000
0100
0000
0010
0000
0001
1000
,  // measure 19
0001
0000
0100
0010
0100
0000
1000
0100
,  // measure 20
0010
0000
1000
0100
0010
0000
1000
0000
,  // measure 21
0001
0000
1000
0000
0001
0000
0100
0010
,  // measure 22
0001
0100
0010
0001
,  // measure 23
1000
0000
0100
0000
0010
0000
0100
0010
,  // measure 24
1000
0001
0010
0001
,  // measure 25
1000
0000
0010
0000
1000
0000
0001
1000
,  // measure 26
0100
0000
0001
0000
1000
0000
0100
0001
,  // measure 27
0100
0000
0100
0010
0100
0000
0100
1000
,  // measure 28
0100
0000
0100
0010
0100
0000
2002
0000
,  // measure 29
0000
0000
0000
0000
3003
0200
0000
0000
,  // measure 30
0000
0000
0000
0000
0000
2000
0000
0000
,  // measure 31
0000
0000
0000
0000
0000
3300
0000
0000
,  // measure 32
1000
0100
1000
0000
0001
0010
0001
0000
,  // measure 33
1000
0100
0010
0000
0001
0010
0100
0000
,  // measure 34
1000
0100
0001
0000
0001
0100
1000
0000
,  // measure 35
0100
0010
0100
0000
0010
0100
0010
0000
,  // measure 36
0001
0100
0001
0000
1000
0010
1000
0000
,  // measure 37
0001
0010
0001
0000
1000
0100
1000
0100
,  // measure 38
0010
0001
0010
0001
0010
0100
1000
0000
,  // measure 39
1000
0000
0001
0000
0001
0000
1000
0100
,  // measure 40
1000
0000
0001
0100
0001
0000
0010
0100
,  // measure 41
0010
0000
1000
0010
1000
0000
0001
0010
,  // measure 42
0001
0000
1000
0100
0010
0000
0001
0010
,  // measure 43
0100
0000
1000
0010
0001
0000
0001
0100
,  // measure 44
1000
0000
1000
0100
0010
0000
0100
0010
,  // measure 45
0000
0100
1000
0000
0000
1000
0001
0010
,  // measure 46
0100
1000
0100
0010
0001
0000
1000
0000
,  // measure 47
0001
1000
0100
0010
,  // measure 48
0100
1000
0001
0010
,  // measure 49
0100
0010
0001
1000
,  // measure 50
0001
1000
0100
1000
,  // measure 51
0001
0010
0001
0100
,  // measure 52
1000
0000
0010
0000
0001
0000
0000
0010
,  // measure 53
0000
0000
0001
0000
0000
1000
0000
0000
,  // measure 54
0100
0000
0001
0000
0000
0100
0000
0000
,  // measure 55
1000
0000
0010
0000
,  // measure 56
0001
0000
0010
0000
,  // measure 57
1000
0000
0010
1000
,  // measure 58
0001
0100
0010
1000
,  // measure 59
0100
0010
0001
1000
,  // measure 60
0010
0000
0100
0000
0001
0000
1000
0100
,  // measure 61
0010
0001
1000
0010
0100
0001
1000
0100
,  // measure 62
0001
0100
1000
0100
0001
0000
1000
0000
,  // measure 63
1000
0000
0001
0000
0001
0000
1000
0010
,  // measure 64
1000
0001
0010
0100
,  // measure 65
1000
0000
0100
0000
0010
0000
0001
0010
,  // measure 66
0001
0001
0010
0100
,  // measure 67
0010
0000
0100
0000
1000
0000
0100
0010
,  // measure 68
0100
0000
0010
0000
0001
0000
1000
0100
,  // measure 69
1000
0000
1000
0010
1000
0000
1000
0001
,  // measure 70
1000
0000
1000
0010
1000
0000
1000
0000
,  // measure 71
0100
0000
0010
0000
0001
0000
0010
0100
,  // measure 72
1000
1000
0001
1000
,  // measure 73
0001
0000
0100
0000
0010
0000
0100
0010
,  // measure 74
0001
0001
1000
0100
,  // measure 75
1000
0000
0010
0000
1000
0000
0001
0010
,  // measure 76
0100
0000
1000
0000
0100
0000
0001
0010
,  // measure 77
0001
0000
0001
0100
0001
0000
0001
1000
,  // measure 78
0001
0000
0001
0100
0001
0000
2002
0000
,  // measure 79
0000
0000
0000
0000
,  // measure 80
0000
3003
0000
0000
,  // measure 81
0000
0000
0000
0000
,  // measure 82
0000
0000
0000
2001
,  // measure 83
0000
0000
0001
0000
,  // measure 84
0000
0000
0001
0001
,  // measure 85
0000
0000
0000
0000
,  // measure 86
0000
0000
0000
0000
3000
0000
1000
0100
,  // measure 87
1000
0000
0100
0000
0010
0000
0001
0100
,  // measure 88
0001
0000
0010
0000
0100
0000
1000
0001
,  // measure 89
1000
0000
0100
0000
0010
0000
0001
1000
,  // measure 90
0001
0000
0010
0000
0100
0000
1000
0010
,  // measure 91
1000
0000
0100
0000
0010
0000
0001
0010
,  // measure 92
0001
0000
0010
0000
0100
0000
1000
0100
,  // measure 93
1000
0000
0100
0000
0010
0000
0001
0010
,  // measure 94
0001
0000
1000
0000
0001
0000
0100
0010
,  // measure 95
0100
0000
0010
0000
0100
0000
0001
1000
,  // measure 96
0001
0000
1000
0000
0100
0000
1000
0001
,  // measure 97
1000
0000
0001
0000
0010
0000
0001
0100
,  // measure 98
0001
0000
1000
0000
0010
0000
0100
0010
,  // measure 99
0001
0000
1000
0000
0100
0000
0010
0100
,  // measure 100
1000
0000
0100
0000
0010
0000
0001
0010
,  // measure 101
0100
1000
0001
0100
0010
1000
0100
0010
,  // measure 102
0001
0100
0010
1000
0010
0100
0002
0000
,  // measure 103
0000
0000
2000
0000
0000
0000
0000
3003
,  // measure 104
1000
0100
1000
0000
0001
0010
0001
0000
,  // measure 105
1000
0010
0100
0000
1000
0001
0100
0000
,  // measure 106
0001
0010
0100
0000
1000
0100
0020
0000
,  // measure 107
0000
0030
1000
0000
1000
0001
0000
0001
,  // measure 108
1000
1001
0000
2000
,  // measure 109
0000
3000
0001
0000
1000
0100
0000
0100
,  // measure 110
1000
0110
0000
0200
,  // measure 111
0000
0300
0010
0000
0001
0010
0000
0100
,  // measure 112
1000
0011
0000
2000
,  // measure 113
0000
3000
0001
0000
0100
0010
0000
0001
,  // measure 114
1000
1010
0000
0020
,  // measure 115
0000
0030
1000
0000
0100
0010
0000
0001
,  // measure 116
0010
0000
1001
0000
0000
0000
1000
0100
,  // measure 117
0010
0001
1000
0100
0010
0001
0010
0100
,  // measure 118
1000
0001
1000
0001
1000
0100
2000
0000
,  // measure 119
0000
0000
0000
0000
,  // measure 120
0000
0000
0000
0000
,  // measure 121
0000
0000
0000
3000
1000
0100
0010
0001
,  // measure 122
1000
0100
0010
0001
1000
0001
2000
0000
,  // measure 123
0000
0000
0000
3000
0001
1000
0001
0000
,  // measure 124
0100
1000
0100
0000
0001
0010
0100
0000
,  // measure 125
0100
0010
0001
0000
0100
1000
0010
0000
,  // measure 126
0010
0100
0001
0000
0100
0010
0002
0000
,  // measure 127
0000
0003
1000
0000
0001
0010
0000
0100
,  // measure 128
1000
1001
0000
2000
,  // measure 129
0000
3000
0100
0000
0010
0001
0000
0010
,  // measure 130
0001
0101
0000
0200
,  // measure 131
0000
0300
0010
0000
0001
0100
0000
0010
,  // measure 132
0100
0000
1100
0000
0000
0000
1000
0100
,  // measure 133
0010
0000
1000
0100
0010
0000
1000
0001
,  // measure 134
0010
0000
1000
0001
0010
0000
1000
1000
,  // measure 135
0000
0000
0001
0001
0000
0000
1000
1000
,  // measure 136
0000
0000
0010
0010
0000
0000
0100
0100
,  // measure 137
0000
0000
0001
0001
0000
0000
0010
0010
,  // measure 138
0000
0000
0100
0100
0000
0000
1000
1000
,  // measure 139
0000
0000
0001
0001
0000
0000
1000
1000
,  // measure 140
0000
0000
0001
0001
0000
0000
1000
0100
,  // measure 141
0000
0000
0010
0001
0000
0000
0100
1000
,  // measure 142
0000
0000
0010
0001
0000
0000
1000
0000
,  // measure 143
0000
0100
0000
0010
,  // measure 144
0000
0001
0000
1000
,  // measure 145
0000
0100
0000
0010
,  // measure 146
0000
0001
0000
1000
,  // measure 147
0001
1000
0001
0010
,  // measure 148
0100
0000
0010
0000
0100
0000
1000
0100
,  // measure 149
0010
0000
1000
0100
0010
0000
0001
0010
,  // measure 150
0100
0000
0001
0010
0100
0000
0002
0000
,  // measure 151
0000
0000
0000
0000
,  // measure 152
0000
0003
0000
0000
0000
0000
0000
0000
,  // measure 153
0000
0000
0000
0000
1000
0100
0010
0001
,  // measure 154
1000
0100
0010
0001
1000
0001
2000
0000
,  // measure 155
0000
3000
0200
0000
0000
0300
0020
0000
,  // measure 156
0000
0030
0002
0000
0000
0003
1000
0000
,  // measure 157
0100
0010
0001
1000
,  // measure 158
0001
0010
0100
0200
,  // measure 159
0000
0300
2000
0000
0000
3000
0020
0000
,  // measure 160
0000
0030
0002
0000
0000
0003
1000
1000
,  // measure 161
0000
0000
0001
0001
0000
0000
0010
0010
,  // measure 162
0000
0000
0100
0100
0000
0000
1000
0100
,  // measure 163
0000
0000
0010
0001
0000
0000
0100
1000
,  // measure 164
0000
0000
0010
0001
0000
0000
0100
1000
,  // measure 165
0000
0000
0100
0010
0000
0000
1000
0010
,  // measure 166
0000
0000
0001
0100
0000
0000
1000
0000
,  // measure 167
1000
0000
0001
0000
0001
0000
0100
0010
,  // measure 168
0100
1000
0100
0010
,  // measure 169
0001
0000
1000
0000
0100
0000
0010
1000
,  // measure 170
0010
0100
0010
1000
,  // measure 171
0100
0000
0010
0000
0100
0000
1000
0010
,  // measure 172
1000
0000
0001
0000
0100
0000
0010
1000
,  // measure 173
0010
0000
0010
0001
0010
0000
0010
1000
,  // measure 174
0010
0000
0010
0100
0010
0000
1000
0000
,  // measure 175
0100
0000
0010
0000
0001
0000
1000
0100
,  // measure 176
1000
0100
0010
1000
,  // measure 177
0100
0000
1000
0000
0010
0000
1000
0100
,  // measure 178
1000
0000
0001
0100
0001
0000
1000
0000
,  // measure 179
0100
0000
0010
0000
0100
0000
1000
0100
,  // measure 180
0010
0000
1000
0000
0100
0000
1000
0100
,  // measure 181
1000
0000
0001
0100
0001
0000
1000
0010
,  // measure 182
1000
0000
0001
0010
0001
0000
0010
0000
,  // measure 183
0100
0000
0001
0000
1000
0000
0100
0010
,  // measure 184
1000
1000
0001
0010
,  // measure 185
0100
0000
0010
0000
0100
0000
1000
0100
,  // measure 186
1000
1000
0100
0001
,  // measure 187
1000
0000
0001
0000
1000
0000
0100
0010
,  // measure 188
0001
0000
1000
0000
0100
0000
0010
0001
,  // measure 189
0010
0000
0100
1000
0100
0000
0010
1000
,  // measure 190
0010
0000
0100
0001
0100
0000
2002
0000
,  // measure 191
0000
0000
0000
0000
,  // measure 192
0000
0000
0000
0000
,  // measure 193
0000
0000
0000
0000
,  // measure 194
0000
0000
0000
0000
0000
0000
0000
3003
;
