#TITLE:Jest of Six;
#SUBTITLE:;
#ARTIST:Myriad;
#TITLETRANSLIT:;
#SUBTITLETRANSLIT:;
#ARTISTTRANSLIT:;
#CREDIT:M.L-INS;
#BANNER:../Tachyon DIVA.png;
#BACKGROUND:../Tachyon DIVA-bg.png;
#LYRICSPATH:;
#CDTITLE:;
#MUSIC:Jest of Six.ogg;
#OFFSET:-1.060;
#SAMPLESTART:46.172;
#SAMPLELENGTH:12.000;
#SELECTABLE:YES;
#BPMS:0.000=133.002;
#STOPS:;
#BGCHANGES:;
// cache tags:
#FIRSTBEAT:10.000;
#LASTBEAT:243.000;
#SONGFILENAME:Songs/Tachyon DIVA/Jest of Six[M.L-INS]/Jest of Six.sm;
#HASMUSIC:1;
#HASBANNER:1;
#MUSICLENGTH:110.596;
// end cache tags

//---------------dance-single - ----------------
#NOTES:
     dance-single:
     :
     Challenge:
     12:
     1.000,1.000,0.226,0.316,1.000,760.000,25.000,35.000,25.000,3.000:
0000
0000
0000
0000
,
0000
0000
0000
0000
,
0000
0000
0000
0000
0000
0000
0000
0000
0000
0000
0000
0000
1000
0100
0010
0001
0100
0010
2000
0000
0000
3000
0000
0000
,
0010
0000
0010
0000
0000
0000
0100
0000
0000
0000
0101
0000
0000
0000
0210
0000
0000
0000
0000
0000
0000
0000
0300
0001
0010
0100
1000
0100
0010
0001
0000
0000
,
1000
0000
0000
0000
0100
0000
0010
0000
0100
0000
0000
0000
1000
0000
0100
0000
0010
0000
0001
0100
0001
0000
0010
0000
0100
0000
0000
0000
1000
0000
0100
0000
,
0010
0000
0000
0000
0000
0000
0001
0000
0000
0100
0000
0000
0010
0000
0000
0000
0000
0000
1000
0000
0000
0010
0000
0000
0100
0000
0000
0001
0000
0000
0010
0000
0000
0100
0000
0000
1100
0000
0000
0000
0000
0000
1000
0000
0001
0000
0100
0000
,
0001
0000
1000
0010
0100
0000
0001
0010
0100
0010
0001
1000
0100
0000
0100
1000
,
0010
0000
0000
0000
0000
0000
0010
0000
0000
0100
0000
0000
0001
0000
0000
0000
0000
0000
1000
0000
0000
0100
0000
0000
1000
0000
0001
0000
0010
0000
0001
0000
0000
0100
0000
0000
0001
0000
0000
1000
0000
0000
0010
0000
0000
0100
0000
0000
,
0101
0000
0001
0010
0100
0000
1000
0010
0100
0001
0010
0100
0010
0000
0001
0010
,
0100
0000
0100
1000
0001
0000
0001
0100
0010
1000
0010
0100
0110
0000
1000
0010
,
0100
0000
0001
0100
0010
0000
1000
0100
0010
0001
0010
0100
2001
0000
3000
0000
,
1020
0000
0000
0000
0000
0000
0000
0000
0000
0100
0030
0000
0001
0000
1000
0000
0100
0000
0010
0000
0000
0000
0000
0000
0001
0000
0010
0000
0100
0000
1000
0000
0000
0001
0000
0000
1000
0000
0000
0000
0000
0000
0010
0000
0000
1000
0000
0000
,
0010
1000
0001
0100
0010
1000
0001
0100
0001
0010
0001
1000
0010
0100
0010
1000
,
0100
0010
0001
0010
0100
1000
0001
0100
0001
0010
0001
0100
0010
0100
0002
0000
,
1003
0010
0100
0001
0100
0010
1000
0100
1000
0001
0100
0001
1000
0010
0100
0010
,
1000
0000
0000
0001
0000
0000
0010
0000
0000
0001
0000
0000
0100
0000
0000
0010
0000
0000
1000
0000
0000
0100
0000
0000
0010
0000
0001
0000
0010
0000
0001
0000
0000
0100
0000
0000
0010
0000
0000
0100
0000
0000
0020
0000
0000
0000
0000
0000
,
1030
0001
0100
0001
1000
0100
0010
0001
0100
0010
0100
0001
1000
0010
0100
0001
,
0010
0000
0100
0000
1000
0000
0001
0000
0100
0000
0010
0000
1000
0000
0010
0000
0100
0000
0001
0000
0010
0000
0100
0000
1000
0100
0010
0000
0001
0000
0100
0000
,
0010
1000
0010
1000
0001
0100
0001
0100
0010
0100
0010
0100
0001
1000
0001
1000
,
0002
0000
0023
0000
0230
0000
2300
0000
3000
0000
0110
0000
0000
0000
0011
0000
0000
0000
0100
0010
0100
0000
0001
0000
1000
0000
0010
0000
0100
0000
0001
0000
,
1000
0000
0010
0000
1000
0000
0001
0010
0100
0000
1000
0000
0010
0000
0100
0000
0010
0000
1000
0000
0001
0000
1000
0000
0200
0000
0000
0000
0000
0000
0000
0000
,
1300
0000
0000
0100
1M00
0000
0000
0000
0100
0000
0000
0000
0100
0000
0000
0000
,
0010
0000
0000
0100
0M10
0000
0000
0000
0001
0000
0000
0000
0001
0000
0000
0000
,
1000
0000
0000
0001
100M
0000
0000
0000
0001
0000
0000
0000
0001
0000
0000
0000
,
0010
0000
0000
0001
001M
0000
0000
0000
0100
0000
0000
0000
0100
0000
0000
0000
,
1000
0000
0000
0001
100M
0000
0000
0000
0010
0000
0000
0000
0010
0000
0000
0000
,
0100
0000
0000
0001
010M
0000
0000
0000
0001
0000
0000
0000
0001
0000
0000
0000
,
0100
0000
0000
0010
01M0
0000
0000
0000
2000
0000
0000
0000
3020
0000
0000
0000
,
0130
0001
0100
0001
0100
0001
0200
0000
0000
0000
0000
0000
0000
0000
0000
0000
0310
1000
0010
0000
0100
0000
0002
0000
1000
0000
0000
0000
0000
0003
1100
0000
,
0000
0000
1010
0000
0001
0100
0010
1000
0100
0010
0001
0000
0001
0100
0000
0100
,
0020
0000
1030
0000
0100
0010
0000
0010
0001
1000
0200
0000
1000
0000
0300
1010
,
0000
0000
0101
0000
1000
0010
0100
0001
0100
0010
2000
0000
3001
0010
0000
0010
,
0100
0000
1000
0000
0100
1000
0000
1000
0001
0100
0020
0000
0100
0000
0030
0101
,
0000
0000
0000
0000
0000
0000
1001
0000
0000
0000
0000
0000
0010
0000
0000
0100
0000
0000
1000
0000
0000
0001
0000
0000
1000
0000
0000
0010
0000
0000
0100
0000
0001
0000
0020
0000
0000
0000
0000
0000
0000
0000
0M00
0000
0000
0000
0000
0000
,
0000
0000
0030
0000
0000
0000
0200
0000
0000
0000
0000
0000
1300
0000
0000
0001
0000
0000
0010
0000
0000
0100
0000
0000
0010
0000
0000
0001
0000
0000
2000
0000
0000
0000
0000
0000
0001
0000
0000
0000
0000
0000
3000
0000
0000
0101
0000
0000
,
00M0
0000
1001
0000
10M0
0100
1000
0001
01M0
0001
0100
0010
1000
0010
0100
0001
,
0010
0000
M00M
0000
0010
0000
1000
0000
0001
0000
0100
0000
0001
0000
0010
0000
0100
0001
1000
0002
0000
0000
0000
0000
M023
0000
0000
0000
0130
0000
1000
0000
,
0010
0000
0010
0000
0100
0000
0001
0000
1000
0000
0010
0000
0100
0000
0100
0000
0001
0010
0001
0000
2000
0000
0000
0000
3001
0000
0100
0000
0010
0000
1000
0000
,
0100
0000
0000
0000
0010
0000
0000
0000
0001
0000
0000
0000
1000
0000
0000
0010
0000
0000
0100
0000
0000
0000
0001
0000
0000
0000
1000
0000
0000
0000
0010
0000
0000
0100
0000
0000
0001
0000
0000
1000
0000
0000
0010
0000
0000
M00M
0000
0000
,
0010
0000
0001
0000
0100
0000
0100
0000
0001
0000
1000
0000
0100
0000
1000
0001
1000
0000
0200
0000
0000
0300
0010
0000
0001
0000
0001
0000
1000
0000
0010
0000
,
0200
0000
0000
0000
0000
0000
0000
0000
0000
0000
0000
0000
0000
0000
0000
0000
0000
0000
0000
0000
0000
0000
0000
0000
0301
0000
0000
0000
1000
0000
0000
0000
0001
0000
0000
0000
1000
0000
0000
0000
0000
0000
0001
0000
0000
0000
0000
0000
1000
0000
0000
0000
0000
0000
0000
0000
0000
0000
0000
0000
0000
0000
0000
0000
0100
0000
0000
0000
0000
0000
0000
0000
0000
0000
0000
0000
0000
0000
0000
0000
0010
0000
0000
0000
0000
0000
0000
0000
0000
0000
0000
0000
0000
0000
0000
0000
1001
0000
0000
0000
0000
0000
0000
0000
0000
0000
0000
0000
0000
0000
0000
0000
0010
0000
0000
0000
0000
0000
0000
0000
0000
0000
0000
0000
0000
0000
0000
0000
0100
0000
0000
0000
0000
0000
0000
0000
0000
0000
0000
0000
0000
0000
0000
0000
1001
0000
0000
0000
0000
0000
0000
0000
0000
0000
0000
0000
0000
0000
0000
0000
0000
0000
0000
0000
0000
0000
0000
0000
1000
0000
0000
0000
0000
0000
0000
0000
0000
0000
0000
0000
0010
0000
0000
0000
0000
0000
0000
0000
0000
0000
0000
0000
,
0100
0000
0001
0000
0100
0000
0010
0000
1000
0000
0001
0000
1000
0000
0010
0000
1000
0001
1000
0000
0002
0000
0000
0000
0013
0000
0000
0000
0100
0000
1000
0000
,
0001
0100
0010
0010
1000
0100
1000
0000
2002
0000
0M10
0000
0000
0000
0000
0000
,
0000
0000
0100
0000
3403
0000
0000
0000
0000
0300
0110
0000
1010
0010
0000
0101
,
0000
0000
0011
0000
0000
0000
2020
0000
0000
0000
0000
0000
0000
0000
0000
0000
3031
1000
0001
1000
0001
1000
0001
1000
0010
0000
1000
0000
0010
0000
0100
0000
,
0001
1000
0100
1000
0001
0100
0001
0010
0100
0010
0001
1000
0010
1000
0100
0010
,
0100
1000
0001
0100
0001
0010
0100
1000
0100
0010
0001
1000
0010
1000
0100
0010
,
0100
1000
0001
0100
0001
0010
0001
1000
0010
1000
0100
1000
0001
0100
0010
1000
,
0100
0000
0010
0000
0001
0000
0100
0000
0010
0100
0010
0100
0010
0000
1000
0000
0100
0000
M00M
0000
0100
0000
0001
0000
1000
0000
0010
0000
1000
0000
0001
0000
,
0100
0001
1000
0010
1000
0100
0010
0100
1000
0001
0010
0100
0010
0001
1000
0010
,
1000
0010
0100
0001
0010
0100
1000
0100
0010
0001
1000
0010
1000
0100
0010
0100
,
1000
0000
0001
0000
0100
0000
0001
0000
1000
0000
0010
0000
1000
0000
0001
0000
0010
0000
0001
0000
0100
0000
0010
0000
0100
0010
0100
0000
0001
0000
0010
0000
,
0100
1000
0100
0000
0010
0000
0001
0000
1000
0100
1000
0000
0001
0100
0001
0000
0010
0100
0010
0100
0010
0100
0010
0100
0010
0000
0001
0000
1000
0000
0010
0000
,
0100
0001
0100
0001
0010
0100
1000
0100
0010
0001
1000
0010
1000
0100
0010
0100
,
1000
0001
0100
0010
1000
0010
0100
0001
0010
0100
0010
0001
1000
0010
1000
0100
,
0010
0100
1000
0001
0100
0010
1000
0010
0100
0001
0010
0001
1000
0100
1000
0001
,
0010
0000
0100
0000
1000
0000
0100
0000
0010
0001
0010
0001
0010
0001
0010
0000
0001
0100
0001
0000
0010
0100
0010
0000
0100
0000
1000
0000
0001
0000
0100
0000
,
0001
0000
0000
0000
0000
0000
0000
0000
1000
0000
0000
0000
0000
0000
0000
0000
0010
0000
0000
0000
0000
0000
0000
0000
0100
0000
0000
0000
0000
0000
0000
0000
0000
0000
0000
0000
0001
0000
0000
0000
0000
0000
0000
0000
0000
0000
0000
0000
0100
0000
0000
0000
0000
0000
0000
0000
0010
0000
0000
0000
0000
0000
0000
0000
1000
0000
0000
0000
0000
0000
0000
0000
0001
0000
0000
0000
0000
0000
0000
0000
0000
0000
0000
0000
0100
0000
0000
0000
0000
0000
0000
0000
0000
0000
0000
0000
0001
0000
0000
0000
0000
0000
1000
0000
0000
0000
0000
0000
0001
0000
0000
0000
0000
0000
1000
0000
0000
0000
0000
0000
0002
0000
0000
0000
0000
0000
0000
0000
0000
0000
0000
0000
0000
0000
0000
0000
0000
0000
0000
0000
0000
0000
0000
0000
1003
0000
0000
0000
0000
0000
0000
0000
0000
0000
0000
0000
0010
0000
0000
0000
0000
0000
0000
0000
0000
0000
0000
0000
0100
0000
0000
0000
0000
0000
0000
0000
0000
0000
0000
0000
0001
0000
0000
0000
0000
0000
0000
0000
0000
0000
0000
0000
,
0010
0000
0000
0100
0000
0000
1000
0000
0001
0000
1000
0000
0002
0000
0000
0000
0000
0000
0000
0000
0000
0000
0000
0000
0203
0000
0000
0000
0000
0000
0000
0000
0000
0000
0000
0000
0340
0000
0000
0000
0000
0000
0000
0000
0M00
0000
0000
0000
,
0000
0000
0M00
0000
0000
0000
0M00
0000
0000
0000
0M00
0000
0000
0030
0000
0000
0000
0000
0100
0000
0000
0001
1000
0010
,
0100
0001
0010
0100
1000
0100
0010
0001
1000
0010
1000
0001
0100
0001
0010
0100
1000
0000
00MM
0000
0000
0000
0000
0000
;
