#TITLE:Jingle Bells;
#SUBTITLE:(OMG WTF mix);
#ARTIST:Dark Luke;
#TITLETRANSLIT:;
#SUBTITLETRANSLIT:;
#ARTISTTRANSLIT:;
#CREDIT:;
#BANNER:jinglebells-bn.png;
#BACKGROUND:jinglebells-bg.png;
#LYRICSPATH:;
#CDTITLE:;
#MUSIC:jingle bells omg wtf mix.mp3;
#OFFSET:-2.373;
#SAMPLESTART:38.857;
#SAMPLELENGTH:14.000;
#SELECTABLE:YES;
#BPMS:0.000=300.000,80.000=150.000,112.000=160.000,114.000=175.000,116.000=190.000,118.000=205.000,120.000=220.000,122.000=235.000,124.000=248.000,126.000=261.000,128.000=274.000,130.000=287.000,132.000=300.000,134.000=312.000,136.000=324.000,138.000=336.000,140.000=348.000,142.000=360.000,144.000=380.000,148.000=399.999,152.000=419.999,156.000=434.999,160.000=449.999,164.000=474.999,168.000=489.999,172.000=499.999,176.000=509.999,180.000=519.998,184.000=529.998,188.000=539.998,192.000=549.998,196.000=559.998,200.000=569.998,204.000=579.998,208.000=599.997,272.000=150.002,278.000=75.002,280.000=300.002,284.000=150.002,289.000=300.002,290.000=150.002,291.000=300.002,294.000=150.002,296.000=599.997,302.000=150.002,304.000=300.002,308.000=599.998,312.000=150.002,316.000=599.997,320.000=75.002,324.000=150.002,328.000=300.002,329.000=250.002,330.000=200.002,331.000=150.002,332.000=100.002,336.000=300.002;
#STOPS:276.000=1.200
,283.000=0.600
,284.000=1.600
,292.000=0.200
,294.000=1.220
,295.000=1.220
,323.000=0.815
,327.000=1.220
;
#BGCHANGES:;
// cache tags:
#FIRSTBEAT:16.000;
#LASTBEAT:462.000;
#SONGFILENAME:Songs/DDRExtreme.co.uk presents ChristmasMix/Jingle Bells (OMG WTF MIX)/blankdwi.sm;
#HASMUSIC:1;
#HASBANNER:1;
#MUSICLENGTH:110.341;
// end cache tags

//---------------dance-single - ----------------
#NOTES:
     dance-single:
     :
     Hard:
     10:
     0.672,0.890,0.453,0.091,0.000,459.000,50.000,10.000,0.000,0.000:
0000
0000
0000
0000
,
0000
0000
0000
0000
,
0000
0000
0000
0000
,
0000
0000
0000
0000
,
1000
1000
1100
0000
,
0001
0100
1010
0000
,
1000
0100
0010
0001
,
1000
0000
0110
0000
,
1000
0000
1000
0000
0001
0000
0001
0100
,
0010
0000
0010
0000
1000
0000
1000
0100
,
0010
0001
0010
1000
,
0010
0000
1100
0011
,
0110
1000
0001
1000
,
0101
0010
1000
0010
,
1100
0001
0010
0001
,
2002
0000
0000
3003
,
1000
0100
1000
0000
0001
0010
0001
0000
,
1000
0100
0010
0000
0001
1000
0010
0000
,
1000
0010
1000
0001
1000
0000
0001
0100
,
0001
1000
0001
0000
0100
0010
1000
0000
,
0001
0011
1000
1010
,
0001
0101
1000
1100
,
0010
0110
0001
1001
,
2000
0100
0010
3001
,
0010
1001
0100
1001
,
0001
0110
1000
0110
,
0001
0001
0010
1000
,
0020
0000
0001
1030
,
0001
1000
0100
0010
,
0001
0100
0010
1000
,
0100
1000
0010
0100
,
1000
0100
0010
1000
,
0100
0001
0100
1000
,
0010
0100
1000
0100
,
0001
0010
0100
0001
,
0100
0010
0001
1000
,
0001
0001
0010
0000
,
0100
0100
1000
0000
,
0001
0100
0010
1000
,
0200
0000
0000
0300
,
1000
0100
1000
1000
,
0001
0100
0001
0001
,
1000
0100
0010
0010
,
0100
0000
0110
0000
,
1000
0100
1000
0000
,
0001
0100
0001
0000
,
1000
0100
0010
0100
,
2000
0000
0000
3000
,
0001
0010
0100
1000
,
0001
0100
0010
1000
,
0001
1000
0100
0010
,
0002
0000
0000
0003
,
1000
0001
1000
0001
,
1000
0000
0001
0000
,
0100
0010
0100
0010
,
0100
0000
0010
0000
,
1000
0010
0100
0001
,
1000
0000
0001
0000
,
1000
0100
0010
0001
,
1000
0000
0001
0000
,
1000
0100
1000
0001
,
0100
0000
0010
0000
,
0010
1000
0001
0010
,
0001
0000
1000
0000
,
0001
0010
0100
1000
,
0010
0100
0001
1000
,
0100
0010
0001
0100
,
0020
0000
0000
0030
,
1000
1000
1100
0000
,
0001
0100
1010
0000
,
1000
0100
0010
0001
,
1000
0000
0000
0000
,
1000
1000
0001
0001
,
0010
0010
0100
0100
,
1000
0001
1000
0001
,
1000
0000
0001
0000
,
0110
0110
0110
0000
,
0010
0100
0010
0000
,
0110
0011
0101
1100
,
1010
0000
0000
0000
,
1100
0011
0110
0101
,
1100
0011
0110
0101
,
1000
1000
0001
0001
,
1001
0000
0000
0000
,
1000
0000
0100
0010
0001
0000
1000
0000
,
0001
0000
0100
0010
1000
0000
0001
0000
,
1000
0100
0000
0100
0010
0000
0001
0000
,
0001
0010
0100
0000
0100
0010
0001
0000
,
1000
0000
0010
0000
1000
0010
0100
0001
,
0010
0000
0001
0000
1000
0100
1000
0000
,
0001
0100
0000
1000
0100
0000
0001
0000
,
0100
1000
0000
0100
0001
0000
0100
0010
,
1000
0001
1000
0001
1000
0000
0100
0000
,
0010
0001
0010
0001
1000
0000
0001
0000
,
0100
0001
1000
0001
0010
0000
0100
0000
,
0100
1000
0001
1000
0010
0000
0010
0000
,
1000
0100
1000
0100
0000
0010
0001
0000
,
0001
0100
0010
0100
0000
0010
1000
0000
,
0000
0001
0100
0001
0010
0000
0100
0000
,
0010
0100
1000
0100
0220
0000
0330
0000
,
1100
0000
1000
0000
0100
0010
0001
0000
,
0011
0000
0001
0000
0010
0100
1000
0000
,
0001
1000
0010
1000
0001
0000
0100
0000
,
0101
0100
0001
0000
1100
0100
1000
0000
,
0110
0000
0011
0000
0001
0010
0001
0100
,
0010
0000
0110
0000
0010
1000
0010
0000
,
1000
1000
0000
0100
1000
0000
1100
0000
,
0001
0001
0000
0100
0001
0000
0110
0000
,
1000
0100
1000
0100
0010
0000
0001
0000
,
0100
0010
1000
0001
0010
0000
0100
0000
,
0010
0001
0100
0010
1000
0000
0100
0000
,
1000
0100
1000
0010
0100
0000
0001
0000
,
1000
0100
0010
0001
1000
0010
0100
0000
,
0001
0010
0001
0100
0010
1000
0100
0000
,
1000
0100
1000
0001
0100
0001
1000
0000
,
0010
0100
0001
1000
1001
0000
0000
0000
;

//---------------dance-single - ----------------
#NOTES:
     dance-single:
     :
     Medium:
     8:
     0.497,0.785,0.353,0.118,0.000,332.000,39.000,13.000,0.000,0.000:
0000
0000
0000
0000
,
0000
0000
0000
0000
,
0000
0000
0000
0000
,
0000
0000
0000
0000
,
1000
1000
0001
0000
,
0001
0001
1000
0000
,
1000
0100
1000
0100
,
2000
0000
0000
3000
,
0001
0000
0100
0000
0001
0000
0000
0001
,
1000
0000
0010
0000
1000
0000
0010
1000
,
0010
0100
0010
0100
,
0010
0000
1001
0000
,
1000
0001
0100
0000
,
0100
0010
1000
0000
,
1000
0010
1000
0001
,
0020
0000
0000
0030
,
0001
0000
0010
0000
0001
0000
0010
0001
,
1000
0000
0001
0000
1000
0000
0001
1000
,
0100
1000
0100
0010
,
0002
0000
0000
0003
,
1000
1100
0001
0011
,
1000
1010
0001
0101
,
1000
0110
0001
0110
,
2000
0001
0100
3001
,
0010
1001
0100
1001
,
0002
1000
0100
1003
,
0001
0001
0010
0100
,
2000
0000
0001
3001
,
1000
0100
0010
0100
,
1000
0000
1001
0000
,
0001
0100
0010
0100
,
0001
0000
1001
0000
,
1000
0001
0100
0010
,
1000
0001
0100
0000
,
0001
0010
0100
1000
,
0002
0000
0000
0003
,
1000
0001
1000
0000
,
0001
1000
0001
0000
,
1000
0001
1000
0001
,
2000
0000
0000
3000
,
0010
0100
0010
0000
,
0100
0010
0100
0000
,
0010
0100
0010
0100
,
0010
0000
0100
0000
,
0001
0100
0001
0000
,
0100
0001
0100
0000
,
0001
0100
0001
0100
,
0001
0000
0000
0000
,
1000
0100
1000
0000
,
0100
1000
0100
0000
,
1000
0100
1000
0100
,
1000
0000
0000
0000
,
0001
0000
0000
0000
,
0100
0000
0001
0100
,
0001
0000
0000
0000
,
1000
0000
0001
1000
,
0001
0000
0000
0000
,
1000
0001
1000
0001
,
1000
0000
0100
1000
,
0100
0000
1000
0100
,
1000
0000
0000
0000
,
0100
0010
0000
0100
,
0010
0000
0000
0000
,
0001
0000
0010
0000
,
0001
0010
0000
0001
,
0010
0000
0001
0010
,
0001
0000
0010
0001
,
0010
0000
0000
0000
,
1000
1000
1000
0000
,
0001
0001
0001
0000
,
0001
0000
1000
0001
,
1000
0000
0000
0000
,
0010
0000
0100
0000
,
0001
0000
1000
0100
,
0010
0000
0000
0000
,
0010
0000
0001
0000
,
1000
0000
0010
0000
,
0100
0000
0000
0000
,
0001
1010
0001
1100
,
0001
0000
0000
0000
,
0001
1100
0110
0011
,
0001
1100
0110
0011
,
1000
0001
1000
0001
,
1000
0000
0000
0000
,
1000
0100
1100
0000
,
0010
0001
0011
0000
,
1000
0001
0100
0010
,
0220
0000
0000
0330
,
1000
1000
1000
0000
,
0100
0100
0100
0000
,
0010
0001
0001
0010
,
0001
0000
1001
0000
,
0100
1000
0110
0000
,
0010
0001
1001
0000
,
0001
0100
1000
0100
,
0002
0000
0000
0003
,
0010
0010
0010
0000
,
0100
0100
0100
0000
,
1000
0100
1000
0000
0100
0000
0010
0000
,
0001
0010
0001
0000
0010
0000
0000
0000
,
0011
0001
1001
0000
,
1010
1000
1001
0000
,
1100
0100
0010
0001
,
2002
0000
0000
3003
,
1001
0100
0010
0000
,
1001
0010
0100
0000
,
0110
1000
0001
1000
,
0010
0100
0000
0000
0110
0000
0000
0000
,
1000
0100
0010
0001
,
1000
0010
0100
0001
,
1000
0100
0010
0100
,
0001
0100
1000
0001
,
1000
0010
0100
0000
0001
0000
1000
0000
,
0100
1000
0001
0000
1000
0000
0000
0000
,
0110
0100
0101
0001
,
1001
1000
1100
0000
;

//---------------dance-single - ----------------
#NOTES:
     dance-single:
     :
     Easy:
     6:
     0.338,0.785,0.100,0.136,0.000,235.000,11.000,15.000,0.000,0.000:
0000
0000
0000
0000
,
0000
0000
0000
0000
,
0000
0000
0000
0000
,
0000
0000
0000
0000
,
1000
0000
1000
0000
,
0001
0000
0001
0000
,
1000
0000
0100
0000
,
0020
0000
0000
0030
,
0001
0000
1000
0000
,
0010
0000
0010
0000
,
0100
0000
0100
0000
,
0001
0000
1001
0000
,
1000
0000
0100
0000
,
0010
0000
0001
0000
,
1000
0000
0100
0000
,
0010
0000
0001
0000
,
1000
1000
0001
0000
,
0001
0001
1000
0000
,
0100
0000
0010
0000
,
0220
0000
0000
0330
,
1000
0100
0010
0001
,
2000
0000
0000
3000
,
0001
0100
0010
1000
,
0002
0000
0000
0003
,
1000
0001
0100
0010
,
2000
0000
0000
3000
,
0001
0001
0010
0100
,
1000
0000
0010
0000
,
1000
0100
1000
0001
,
2000
0000
0000
3000
,
0001
0100
0001
1000
,
0002
0000
0000
0003
,
1000
0100
1000
0100
,
0010
0100
0010
0000
,
0001
0010
0001
1000
,
0002
0000
0000
0003
,
1000
0000
0010
0000
,
1000
0000
0001
0000
,
0010
0000
0001
0000
,
2000
0000
0000
3000
,
0001
0000
0001
0000
,
1000
0000
1000
0000
,
0010
0000
0100
0000
,
0020
0000
0000
0030
,
1000
0000
0000
0000
,
0001
0000
0000
0000
,
1000
0000
0000
0000
,
0001
0000
0000
0000
,
0100
0000
0000
0000
,
0001
0000
0000
0000
,
0100
0000
0000
0000
,
0001
0000
0000
0000
,
1000
0000
0000
0000
,
0001
0000
0000
0000
,
1000
0000
0000
0000
,
0100
0000
0000
0000
,
0010
0000
0000
0000
,
0100
0000
0000
0000
,
0010
0000
0000
0000
,
0001
0000
0000
0000
,
1000
0000
0000
0000
,
0001
0000
0000
0000
,
0100
0000
0000
0000
,
0010
0000
0000
0000
,
1000
0000
0000
0000
,
0100
0000
0000
0000
,
0010
0000
0000
0000
,
0001
0000
0000
0000
,
1000
1000
1000
0000
,
0001
0000
0001
0000
,
1000
0000
0000
0000
,
1000
0000
0000
0000
,
0010
0000
0000
0000
,
0000
0000
0100
0001
,
1000
0000
0000
0000
,
0000
0000
0100
0000
,
1000
0000
0000
0000
,
0001
0000
0000
0000
,
1000
0100
0010
0001
,
1000
0000
0000
0000
,
1000
1001
0110
1001
,
1000
1001
0110
1001
,
0001
0000
0100
0000
,
0010
0000
0000
0000
,
0100
1000
0100
0000
,
1000
0100
1000
0000
,
0001
0010
0001
0010
,
0002
0000
0000
0003
,
1000
1000
0010
0000
,
0100
0100
0001
0000
,
1000
0001
1000
0001
,
1000
0000
0110
0000
,
0010
0100
0010
0000
,
1000
0010
1000
0000
,
0001
1000
0001
1000
,
0002
0000
0000
0003
,
0010
0001
0010
0000
,
0100
0010
0100
0000
,
1000
0100
1000
0001
,
1000
0000
1001
0000
,
0001
0100
0001
0000
,
1000
0010
1000
0000
,
0001
1000
0001
0010
,
0002
0000
0000
0003
,
1000
0100
1000
0000
,
0001
0010
0001
0000
,
1000
0100
0010
0100
,
1000
0000
0100
0000
,
0100
1000
0001
0000
,
0001
1000
0010
0000
,
0010
0100
0001
0100
,
0020
0000
0000
0030
,
1000
1000
0100
0000
,
0100
0100
0010
0000
,
0001
0010
0100
1000
,
0001
0000
1001
0000
;

//---------------dance-single - Copied from----------------
#NOTES:
     dance-single:
     Copied from:
     Beginner:
     3:
     0.158,0.314,0.091,0.000,0.000,112.000,10.000,0.000,0.000,0.000:
0000
0000
0000
0000
,
0000
0000
0000
0000
,
0000
0000
0000
0000
,
0000
0000
0000
0000
,
1000
0000
0000
0000
,
1000
0000
0000
0000
,
0001
0000
0000
0000
,
0000
0000
0000
0000
,
0001
0000
0000
0000
,
0001
0000
0000
0000
,
1000
0000
0000
0000
,
0000
0000
0000
0000
,
0001
0000
0000
0000
,
0100
0000
0000
0000
,
0001
0000
0000
0000
,
0000
0000
0000
0000
,
1000
0000
0000
0000
,
0010
0000
0000
0000
,
1000
0000
0000
0000
,
1001
0000
0000
0000
,
1000
0000
0001
0000
,
0001
0000
0000
0000
,
1000
0000
0010
0000
,
0010
0000
0000
0000
,
0010
0000
1000
0000
,
1000
0000
0000
0000
,
0100
0000
1000
0000
,
1001
0000
0000
0000
,
0001
0000
0000
0000
,
0100
0000
0000
0000
,
0010
0000
0000
0000
,
1000
0000
0000
0000
,
0001
0000
0000
0000
,
1000
0000
0000
0000
,
0001
0000
0000
0000
,
0010
0000
0000
0000
,
0100
0000
0000
0000
,
0000
0000
0000
0000
,
1000
0000
0000
0000
,
0000
0000
0000
0000
,
0001
0000
0000
0000
,
0000
0000
0000
0000
,
0010
0000
0000
0000
,
0000
0000
0000
0000
,
0001
0000
0000
0000
,
0000
0000
0000
0000
,
1000
0000
0000
0000
,
0000
0000
0000
0000
,
0001
0000
0000
0000
,
0000
0000
0000
0000
,
1000
0000
0000
0000
,
0000
0000
0000
0000
,
0010
0000
0000
0000
,
0000
0000
0000
0000
,
0100
0000
0000
0000
,
0000
0000
0000
0000
,
0010
0000
0000
0000
,
0000
0000
0000
0000
,
0100
0000
0000
0000
,
0000
0000
0000
0000
,
0001
0000
0000
0000
,
0000
0000
0000
0000
,
0100
0000
0000
0000
,
0000
0000
0000
0000
,
0010
0000
0000
0000
,
0000
0000
0000
0000
,
1000
0000
0000
0000
,
0000
0000
0000
0000
,
1000
1000
1000
0000
,
0001
0000
0001
0000
,
1000
0000
0000
0000
,
0000
0000
0000
0000
,
0010
0000
0000
0000
,
0000
0000
0000
0001
,
0001
0000
0000
0000
,
0000
0000
0000
0000
,
0100
0000
0000
0000
,
0010
0000
0000
0000
,
0000
0100
0000
0100
,
0100
0000
0000
0000
,
0000
0001
0001
0001
,
0000
0010
0010
0010
,
0000
0000
0000
0000
,
0110
0000
0000
0000
,
1000
0000
0000
0000
,
1000
0000
0000
0000
,
0001
0000
0001
0000
,
1000
0000
0000
0000
,
0100
0000
0000
0000
,
0100
0000
0000
0000
,
0010
0000
0010
0000
,
0001
0000
0000
0000
,
1000
0000
0000
0000
,
0001
0000
0000
0000
,
1000
0000
0001
0000
,
1000
0000
0000
0000
,
0010
0000
0000
0000
,
0100
0000
0000
0000
,
0010
0000
0000
0100
,
0100
0000
0001
0000
,
1001
0000
0000
0000
,
1001
0000
0000
0000
,
0001
0000
1000
0000
,
0010
0000
0000
0000
,
0110
0000
0000
0000
,
1001
0000
0000
0000
,
0001
0000
1000
0000
,
0010
0000
0000
0000
,
0110
0000
0000
0000
,
1001
0000
0000
0000
,
1000
0000
0100
0000
,
0010
0000
0000
0000
,
0001
0000
0000
0000
,
1000
0000
0000
0000
,
0001
0000
0100
0000
,
0010
0000
0110
0000
;

//---------------dance-double - ----------------
#NOTES:
     dance-double:
     :
     Hard:
     10:
     0.659,0.890,0.372,0.091,0.000,458.000,41.000,10.000,0.000,0.000:
00000000
00000000
00000000
00000000
,
00000000
00000000
00000000
00000000
,
00000000
00000000
00000000
00000000
,
00000000
00000000
00000000
00000000
,
10000000
10000000
10010000
00000000
,
00100000
00100000
00101000
00000000
,
00010000
00001000
00000010
00000100
,
00001000
00000000
00000011
00000000
,
00001000
00000000
00001000
00000000
00000001
00000000
00000001
00001000
,
00000100
00000000
00000100
00000000
00010000
00000000
00010000
00001000
,
01000000
00010000
00100000
01000000
,
10000000
00000000
11000000
10010000
,
00110000
00001000
00010000
00001000
,
00000100
00000001
00001000
00000100
,
00000010
00000001
00000100
00001000
,
00022000
00000000
00000000
00033000
,
00100000
00001000
00100000
00000000
00010000
10000000
00010000
00000000
,
10000000
01000000
00100000
00000000
00010000
10000000
00100000
00000000
,
01000000
00010000
01000000
00001000
01000000
00000000
00010000
00100000
,
00010000
10000000
00010000
00000000
01000000
00001000
00010000
00000000
,
00001000
00000100
00000001
00000010
,
00001000
00010000
00100000
10000000
,
01000000
00010000
00000100
00000001
,
00000200
00001000
00000010
00000301
,
00000100
00010000
00100000
10000000
,
00010000
00011000
00000100
00011000
,
01000000
00001000
00000010
00000100
,
00002000
00000000
00010000
00003100
,
00001000
00000001
00000100
00001000
,
00010000
00100000
10000000
00010000
,
10000000
01000000
00010000
00001000
,
00000010
00000001
00001000
00000001
,
00000001
00000100
00001000
00010000
,
01000000
10000000
00010000
00010000
,
10000000
00100000
00010000
00001000
,
00000010
00000001
00001000
00000000
,
00001000
00001000
00000001
00000000
,
00010000
00010000
00000010
00000000
,
00010000
00001000
00100000
00010000
,
20000000
00000000
00000000
30000000
,
00010000
01000000
00010000
00010000
,
00100000
00001000
00010000
00010000
,
00000100
00001000
00000001
00000001
,
00000010
00000000
00001001
00000000
,
00001000
00000001
00001000
00000000
,
00000010
00000100
00000010
00000000
,
00001000
00000100
00010000
00001000
,
00020000
00000000
00000000
00030000
,
00001000
00010000
00001000
00100000
,
00010000
00100000
01000000
00100000
,
01000000
10000000
00010000
10000000
,
00200000
00000000
00000000
00300000
,
01000000
00010000
01000000
00010000
,
01000000
00000000
00001000
00000000
,
00010000
00001000
00010000
00001000
,
00010000
00000000
00000010
00000000
,
00001000
00000010
00001000
00000001
,
00000100
00000000
00000001
00000000
,
00001000
00000001
00000100
00000010
,
00001000
00000000
00000100
00000000
,
00010000
00000100
00010000
00001000
,
00100000
00000000
00010000
00000000
,
00010000
10000000
00100000
01000000
,
00010000
00000000
10000000
00000000
,
10000000
01000000
00100000
00010000
,
00100000
00001000
00010000
00000100
,
00001000
00000100
00000010
00000001
,
00000200
00000000
00000000
00000300
,
00001000
00001000
00001001
00000000
,
00000100
00001000
00011000
00000000
,
10000000
01000000
00100000
00010000
,
10000000
00000000
00000000
00000000
,
00000001
00000001
00000010
00000010
,
00000100
00000100
00001000
10000000
,
00000001
00001000
00000001
00001000
,
00000001
00000000
00000100
00000000
,
00000110
00000110
00000110
00000000
,
00000100
00000010
00000100
00000000
,
00000110
00010100
00101000
01010000
,
10100000
00000000
00000000
00000000
,
01100000
00000110
00001001
10010000
,
00001001
00011000
10010000
00011000
,
00000001
00000001
00001000
00001000
,
00001001
00000000
00000000
00000000
,
00001000
00000000
00000001
00000100
00000010
00000000
00001000
00000000
,
00000010
00000000
00001000
00000100
00010000
00000000
00001000
00000000
,
00100000
00010000
00000000
00010000
10000000
00000000
01000000
00000000
,
10000000
01000000
00100000
00000000
00100000
01000000
10000000
00000000
,
00010000
00000000
00100000
00000000
00001000
00010000
00000100
00001000
,
00000100
00000000
00000010
00000000
00000001
00000010
00000001
00000000
,
00000001
00000100
00000000
00001000
00000100
00000000
00001000
00000000
,
00010000
00001000
00000000
00010000
01000000
00000000
00100000
01000000
,
10000000
00010000
10000000
00010000
10000000
00000000
00100000
00000000
,
01000000
00001000
01000000
00001000
00010000
00000000
00000100
00000000
,
00001000
00000100
00000010
00000100
00001000
00000000
00000001
00000000
,
00000001
00000010
00000100
00000010
00000001
00000000
00001000
00000000
,
00000001
00000100
00000001
00000100
00000000
00000010
00001000
00000000
,
00000100
00010000
00001000
00010000
00000000
00001000
01000000
00000000
,
00000000
00010000
00100000
00010000
10000000
00000000
01000000
00000000
,
00100000
01000000
10000000
01000000
02200000
00000000
03300000
00000000
,
10010000
00000000
10000000
00000000
01000000
00100000
00010000
00000000
,
00110000
00000000
00100000
00000000
00001000
00010000
00000100
00000000
,
00010000
00000010
00001000
00000010
00000100
00000000
00000001
00000000
,
00000101
00000100
00000001
00000000
00001001
00000001
00001000
00000000
,
00001100
00000000
00010100
00000000
00000100
00010000
00001000
00010000
,
00000010
00000000
00011000
00000000
00001000
00100000
00001000
00000000
,
00100000
00100000
00000000
00010000
00100000
00000000
00110000
00000000
,
00010000
00010000
00000000
10000000
00010000
00000000
10010000
00000000
,
10000000
01000000
10000000
01000000
00100000
00000000
00101000
00000000
,
00001000
00010000
00000100
00000010
00000001
00000000
00001000
00000000
,
00000010
00010000
00001000
00100000
01000000
00000000
00100000
00000000
,
00010000
10000000
00001000
01000000
00001000
00000000
00010000
00000000
,
00000100
00001000
00000001
00000010
00000100
00001000
00000001
00000000
,
00000100
00000010
00010000
00001000
00100000
00010000
01000000
00000000
,
00010000
10000000
00100000
01000000
00001000
00010000
00000100
00000000
,
00001000
00000100
00000010
00000001
00000011
00000000
00000000
00000000
;

//---------------dance-double - ----------------
#NOTES:
     dance-double:
     :
     Medium:
     8:
     0.451,0.733,0.208,0.109,0.000,313.000,23.000,12.000,0.000,0.000:
00000000
00000000
00000000
00000000
,
00000000
00000000
00000000
00000000
,
00000000
00000000
00000000
00000000
,
00000000
00000000
00000000
00000000
,
10000000
10000000
00010000
00000000
,
01000000
01000000
00001000
00000000
,
00010000
00000100
00001000
00000001
,
00002000
00000000
00000000
00003000
,
00000001
00000000
00000100
00000000
00000001
00000000
00000000
00000100
,
00000010
00000000
00010000
00000000
00001000
00000000
00010000
00001000
,
00010000
00001000
00100000
00010000
,
10000000
00000000
00010000
00000000
,
10000000
01000000
00100000
00000000
,
00001000
00010000
00000100
00000000
,
00001000
00000100
00000010
00000001
,
00000200
00000000
00000000
00000300
,
00000001
00000000
00000010
00000000
00000001
00000000
00000010
00000001
,
00001000
00000000
00000100
00000000
00001000
00000000
00000100
00010000
,
00001000
00001000
00100000
00010000
,
20000000
00000000
00000000
30000000
,
10000000
01000000
00100000
00010000
,
00001000
00000100
00000010
00000001
,
00000001
00000010
00000100
00010000
,
00002000
00100000
00010000
00103000
,
00010000
01000000
00100000
10000000
,
02000000
10000000
00010000
13000000
,
00010000
00010000
00100000
00001000
,
00020000
00000000
00100000
00031000
,
00010000
00000100
00001000
00000001
,
00000100
00000000
00001001
00000000
,
00000010
00010000
00001000
00100000
,
00010000
00000000
10010000
00000000
,
10000000
00010000
01000000
00010000
,
10000000
01000000
00100000
00000000
,
00001000
00100000
00001000
00010000
,
00000200
00000000
00000000
00000300
,
00001000
00000001
00001000
00000000
,
00001000
00000001
00001000
00000000
,
00000001
00001000
00000001
00001000
,
00000002
00000000
00000000
00000003
,
00001000
00000000
00000100
00000000
,
00000010
00000000
00000001
00000000
,
00000010
00000000
00000100
00000000
,
00000010
00000000
00000100
00000000
,
00001000
00000000
00000100
00000000
,
00001000
00000000
00000100
00000000
,
00010000
00000000
00001000
00000000
,
00010000
00000000
00001000
00000000
,
01000000
00000000
00010000
00000000
,
01000000
00000000
00010000
00000000
,
10000000
00000000
00100000
00000000
,
10000000
00000000
00000000
00000000
,
10000000
00000000
00000000
00000000
,
01000000
00000000
00100000
00000000
,
01000000
00000000
00000000
00000000
,
00100000
00000000
00001000
00000000
,
00100000
00000000
00000000
00000000
,
00001000
00000000
00010000
00000000
,
00001000
00000000
00000000
00000000
,
00010000
00001000
00010000
00000000
,
00001000
00000000
00000000
00000000
,
00010000
00000100
00000000
00010000
,
00000100
00000000
00000000
00000000
,
00001000
00000000
00000001
00000000
,
00001000
00000001
00000000
00001000
,
00000001
00000000
00001000
00000001
,
00001000
00000000
00000001
00001000
,
00000001
00000000
00000000
00000000
,
00001000
00001000
00001000
00000000
,
00010000
00010000
00010000
00000000
,
10000000
00000000
00010000
10000000
,
00010000
00000000
00000000
00000000
,
00000001
00000000
00000001
00000000
,
00000100
00000000
00000010
00010000
,
00001000
00000000
00000000
00000000
,
00001000
00000000
00010000
00000000
,
01000000
00000000
01000000
00000000
,
00010000
00000000
00000000
00000000
,
00010000
01100000
10000000
01100000
,
00010000
00000000
00000000
00000000
,
10000000
01100000
00011000
00000110
,
00000000
01010000
00011000
00001100
,
00001000
00001000
00000001
00000001
,
00001000
00000000
00000000
00000000
,
00001000
00000001
00001001
00000000
,
00000100
00000010
00000110
00000000
,
00000100
00000010
00000100
00001000
,
00022000
00000000
00000000
00033000
,
10000000
10000000
10000000
00000000
,
00010000
00010000
00010000
00000000
,
01000000
00001000
00001000
00010000
,
00001000
00000000
00000100
00000000
,
00000110
00001000
00000001
00000000
,
00000101
00000010
00001000
00000000
,
00000010
00010000
00001000
00010000
,
00200000
00000000
00000000
00300000
,
10000000
10000000
10000000
00000000
,
01000000
01000000
01000000
00000000
,
10000000
01000000
10000000
00000000
01000000
00000000
00100000
00000000
,
00010000
00100000
00010000
00000000
00100000
00000000
00000000
00000000
,
00011000
00000100
00001100
00000000
,
00001010
00000100
00000101
00000000
,
00000001
00000100
00001000
00010000
,
02000000
00000000
00000000
03000000
,
00100000
00010000
00001000
00000000
,
00010000
00001000
00000100
00000000
,
00000010
00001000
00010000
00100000
,
00010000
00000000
00011000
00000000
,
00010000
01000000
10000000
01000000
,
00010000
01000000
00010000
00001000
,
00000100
00001000
00000100
00000001
,
00001000
00000010
00000100
00000001
,
00000100
00000010
00001000
00000000
00000010
00000000
00001000
00000000
,
00000100
00010000
00001000
00000000
00010000
00000000
00000000
00000000
,
00011000
00001000
00100000
00010000
,
10010000
10000000
10100000
00000000
;

//---------------dance-double - Copied from----------------
#NOTES:
     dance-double:
     Copied from:
     Easy:
     4:
     0.256,0.366,0.045,0.082,0.000,184.000,5.000,9.000,0.000,0.000:
00000000
00000000
00000000
00000000
,
00000000
00000000
00000000
00000000
,
00000000
00000000
00000000
00000000
,
00000000
00000000
00000000
00000000
,
01000000
00000000
10000000
00000000
,
01000000
00000000
00000000
00000000
,
00100000
00000000
00001000
00000000
,
00020000
00000000
00000000
00030000
,
00000100
00000000
00000100
00000000
,
00001000
00000000
00001000
00000000
,
00000001
00000000
00000001
00000000
,
00000100
00000000
00000000
00000000
,
00000010
00000000
00000010
00000000
,
00010000
00000000
00000000
00000000
,
00001000
00000000
00001000
00000000
,
00200000
00000000
00000000
00300000
,
00010000
00000000
10000000
00000000
,
00010000
00000000
00010000
00000000
,
01000000
00000000
00001000
00000000
,
00022000
00000000
00000000
00033000
,
00010000
00001000
00010000
00000010
,
00002000
00000000
00000000
00003000
,
00000001
00000100
00000001
00001000
,
00000010
00000000
00010000
00000000
,
00001000
00010000
00001000
00100000
,
00020000
00000000
00000000
00030000
,
10000000
00010000
10000000
01000000
,
00100000
00000000
00001000
00000000
,
00010000
00000000
00000100
00000000
,
00001000
00000000
00000100
00000000
,
00000010
00000000
00000100
00000000
,
00000010
00000000
00000001
00000000
,
00000100
00000000
00000100
00000000
,
00001000
00000000
00001000
00000000
,
00010000
00000000
00010000
00000000
,
00100000
00000000
00000000
00000000
,
10000000
00000000
00000000
00000000
,
00010000
00000000
00000000
00000000
,
01000000
00000000
00000000
00000000
,
00002000
00000000
00000000
00003000
,
00010000
00000000
00000000
00000000
,
00000010
00000000
00000000
00000000
,
00001000
00000000
00000000
00000000
,
00000001
00000000
00000000
00000000
,
00000100
00000000
00000000
00000000
,
00000100
00000000
00000000
00000000
,
00000001
00000000
00000000
00000000
,
00000002
00000000
00000000
00000003
,
00001000
00000000
00000000
00000000
,
00001000
00000000
00000000
00000000
,
00000100
00000000
00000000
00000000
,
00000200
00000000
00000000
00000300
,
00010000
00000000
00000000
00000000
,
00000000
00000000
00000000
00000000
,
01000000
00000000
00000000
00000000
,
00000000
00000000
00000000
00000000
,
10000000
00000000
00000000
00000000
,
00000000
00000000
00000000
00000000
,
00100000
00000000
00000000
00000000
,
00000000
00000000
00000000
00000000
,
00010000
00000000
00000000
00000000
,
00000000
00000000
00000000
00000000
,
00001000
00000000
00000000
00000000
,
00000000
00000000
00000000
00000000
,
00000100
00000000
00000000
00000000
,
00000000
00000000
00000000
00000000
,
00000001
00000000
00000000
00000000
,
00000000
00000000
00000000
00000000
,
00001000
00001000
00001000
00000000
,
00000001
00000001
00000001
00000000
,
00001000
00000000
00000000
00000000
,
00010000
00000000
00000000
00000000
,
10000000
00000000
00000000
00000000
,
00000000
00000000
01000000
00100000
,
00010000
00000000
00000000
00000000
,
00000000
00000000
00010000
00000000
,
00001000
00000000
00000000
00000000
,
00000100
00000000
00000000
00000000
,
00000000
00000010
00000001
00001000
,
00001001
00000000
00000000
00000000
,
00000000
00000001
00000100
00001000
,
00000000
00010000
01000000
10000000
,
00001000
00000000
00010000
00000000
,
00011000
00000000
00000000
00000000
,
00001000
00000000
00000001
00000000
,
00001000
00000000
00000010
00000000
,
00000100
00000000
00000001
00000000
,
00000100
00000000
00001000
00000000
,
00010000
00000000
00001000
00000000
,
00100000
00000000
00010000
00000000
,
10000000
00000000
01000000
00000000
,
00010000
00000000
01000000
00000000
,
10000000
00000000
00010000
00000000
,
00100000
00000000
00001000
00000000
,
00000010
00000000
00000100
00000000
,
00001000
00000000
00000001
00000000
,
00000100
00000000
00000100
00000000
,
00001000
00000000
00001000
00000000
,
00010000
00000000
00010000
00000000
,
01000000
00000000
11000000
00000000
,
10000000
00000000
01000000
00000000
,
00100000
00000000
00010000
00000000
,
00001000
00000000
00000100
00000000
,
00000010
00000000
00000001
00000000
,
00001000
00000000
00000001
00001000
,
00000001
00000000
00001000
00000000
,
00000010
00010000
00000000
00001000
,
00010000
00000000
00001000
00010000
,
00001000
00000000
00100000
00010000
,
00000000
00000000
10000000
00010000
,
00000000
00000000
10000000
01000000
,
00000000
00000000
00100000
01000000
,
00100000
00000000
00100000
00000000
,
01000000
00000000
00010000
00000000
,
00001000
00000000
00010000
00000100
,
00001000
00000000
00001001
00000000
;
