#TITLE:Like Breathing Diethylhexyl;
#SUBTITLE:;
#ARTIST:GLoVE;
#TITLETRANSLIT:;
#SUBTITLETRANSLIT:;
#ARTISTTRANSLIT:;
#CREDIT:;
#BANNER:../fallback-bn.png;
#BACKGROUND:../fallback-bg.png;
#LYRICSPATH:;
#CDTITLE:monst3rjoe - cdtitle.png;
#MUSIC:Like Breathing Diethylhexyl.ogg;
#OFFSET:-0.021;
#SAMPLESTART:29.559;
#SAMPLELENGTH:12.000;
#SELECTABLE:YES;
#BPMS:0.000=293.003,68.000=244.996,172.000=293.000,276.000=267.001,284.000=236.002,292.000=198.003,300.000=153.004,308.000=121.005,310.000=94.995,312.000=68.005,314.000=57.995,316.000=5000.000;
#STOPS:;
#BGCHANGES:;
// cache tags:
#FIRSTBEAT:0.000;
#LASTBEAT:393.125;
#SONGFILENAME:Songs/SSSC PACK/[Monst3rjoe] - Like Breathing Diethylhexyl {18ft}/Like Breathing Diethyhexyl.sm;
#HASMUSIC:1;
#HASBANNER:1;
#MUSICLENGTH:84.506;
// end cache tags

//---------------dance-single - Monst3rjoe----------------
#NOTES:
     dance-single:
     Monst3rjoe:
     Challenge:
     18:
     1.000,1.000,0.142,0.130,1.000,662.000,12.000,11.000,58.000,4.000:

1000
0001
1000
0001
1000
0001
1000
0001
,
1000
0004
1000
0000
1000
0000
1000
0000
1000
0000
1000
0000
1000
0000
1000
0003
,
1000
0010
0100
0001
1000
0010
0100
0001
0100
0010
1000
0001
0100
0010
1000
0001
,
0100
0001
0010
0100
1000
0001
0010
0100
1000
0001
0010
0100
1000
0001
0010
0100
,
1000
0100
0010
0001
0010
0100
1000
0100
0010
0001
0010
0100
1000
0100
0010
0001
,
1000
0010
1000
0001
0100
0001
1000
0010
1000
0001
0100
0001
1000
0010
1000
0001
,
0100
0004
0100
0000
0100
0000
0100
0000
0100
0000
0100
0000
0100
0000
0100
0003
,
0100
0010
1000
0001
0100
0010
1000
0001
0100
0010
1000
0001
0100
0010
1000
0001
,
0100
0004
0100
0000
0100
0000
0100
0000
0100
0000
0100
0000
0100
0000
0100
0003
,
0100
0010
1000
0001
0100
0010
1000
0001
0100
0010
1000
0010
0100
0001
1000
0010
,
1000
0100
0010
0001
0010
0100
1000
0100
0010
0001
0010
0100
1000
0100
0010
0001
,
0010
0100
1000
0100
0010
0001
0010
0100
1000
0100
0010
0001
0010
0100
1000
0100
,
0010
0001
0100
0010
1000
0001
0100
0010
1000
0010
0100
0001
0100
0010
1000
0001
,
0100
0020
0000
0000
0000
0000
0000
0000
,
0000
0000
0000
0000
,
0000
0000
0000
0000
,
0000
0000
0000
0000
0000
0030
0000
0000
,
1000
0100
0010
0001
0100
0010
1000
0100
,
1000
0010
0100
0001
0010
0001
0100
0010
,
1000
0100
1000
0010
0100
0001
1000
0100
,
0010
0001
0010
0100
1000
0001
0100
0010
,
1000
0010
0100
0001
0010
0001
0100
0010
,
0100
0001
1000
0100
0010
0100
1000
0010
,
0100
0010
1000
0001
0010
0100
1000
0100
,
0010
0001
0100
0010
1000
0010
0100
0001
,
1000
0100
0010
0001
0100
0010
1000
0100
,
1000
0010
0100
0001
0010
0001
0100
0010
,
1000
0100
1000
0010
0100
0001
1000
0100
,
0010
0001
0010
0100
1000
0001
0100
0010
,
1000
0010
0100
0001
0010
0001
0100
0010
,
0100
0001
1000
0100
0010
0100
1000
0010
,
0100
0010
1000
0001
0010
0100
1000
0100
,
0010
0001
0100
0010
1000
0010
0100
0001
,
1000
1000
1010
0010
,
0010
0010
0110
0100
,
0100
0100
0101
0001
,
0001
0001
0011
0010
,
0010
0010
0110
0100
,
0100
0100
1100
1000
,
1000
1000
1001
0001
,
0001
0001
0011
0010
,
MMMM
0000
0000
0000
,
0000
0000
0000
0000
,
1221
0000
0000
0000
,
0000
0000
0000
0000
,
0330
0000
0000
0000
,
2112
0000
0000
0000
,
0000
0000
0000
0000
,
3003
0000
0000
0000
,
0000
0000
0000
0000
,
1222
0000
0000
0000
,
0000
0000
0333
0000
,
0000
0000
0000
0000
,
2221
0000
0000
0000
,
0000
0000
0000
3330
,
0000
0000
0000
0000
,
0000
0000
0000
0000
,
0000
0000
0000
0000
,
0001
0100
0010
1000
0100
1000
0001
0010
0001
0100
0010
0100
0001
1000
0100
1000
,
0010
0100
0001
0010
0001
1000
0100
1000
0001
0100
0010
0100
0001
1000
0100
1000
,
0001
0010
0100
1000
0001
0010
0001
0100
0010
1000
0010
0100
0001
1000
0100
1000
,
0010
0100
0001
1000
0100
1000
0001
0100
0010
1000
0010
0100
0001
1000
0100
0010
,
0001
0010
0100
1000
0001
0100
0010
1000
0010
0100
0001
1000
0100
1000
0001
0010
,
0001
0100
0010
0100
0001
1000
0100
0010
0001
0010
0100
1000
0010
0100
0010
1000
,
0004
0000
4000
0000
0000
0000
0000
0000
0000
0000
0000
0000
0000
0000
0000
0000
0000
0000
0000
0000
0000
0000
0000
0000
0000
0000
0000
0000
0000
0000
0003
3000
,
0010
1000
0010
1000
0010
1000
0010
1000
0001
1000
0001
1000
0001
1000
0001
1000
,
0100
1000
0100
1000
0100
1000
0100
0010
0001
0010
0001
0010
0001
0010
0001
0010
,
0001
1000
0001
1000
0001
1000
0001
1000
0001
0100
0001
0100
0001
0100
0001
0100
,
0001
1000
0001
0010
0001
0010
0001
0010
0001
0100
0010
0100
0010
0100
0010
0100
,
0001
0100
0001
0100
0001
0100
0001
0100
0010
1000
0010
1000
0010
1000
0010
1000
,
0001
0010
0001
0010
0001
0010
0001
0010
0100
1000
0100
1000
0100
1000
0100
1000
,
0001
1000
0001
1000
0001
1000
0001
1000
0010
1000
0001
1000
0001
1000
0001
1000
,
0010
0100
0010
0100
0010
0100
0010
0100
0001
0100
0010
0100
0010
0100
0010
0100
,
0001
1000
0001
0010
0001
1000
0100
1000
0001
0100
0001
1000
0100
1000
0001
0100
,
0001
1000
0010
1000
0001
0010
0001
1000
0100
1000
0100
0010
0001
0010
0100
1000
,
0001
0100
0010
1000
0100
0010
0001
0100
0010
1000
0100
1000
0001
0010
0001
0100
,
0010
1000
0100
1000
0001
0010
0001
0100
0010
0100
0001
1000
0010
0100
0010
1000
,
0100
0010
0001
0100
0010
1000
0100
1000
0001
0100
0001
1000
0010
1000
0010
1000
,
0010
0100
0010
0100
0010
0100
0010
0100
0001
0100
0001
0100
0001
0100
0001
0100
,
0004
0000
0000
0000
,
0000
0000
0000
0000
,
0000
0000
0000
0000
,
0000
0000
0000
0000
,
0000
0000
0000
0000
,
0000
0000
0000
0000
,
0000
0000
0000
0000
,
0000
0000
0000
0000
,
0000
0000
0000
0000
,
0000
0000
0000
0000
,
0000
0000
0000
0000
,
0000
0000
0000
0000
,
0000
0000
0000
0000
,
0000
0000
0000
0000
,
0003
0000
0000
0000
,
0000
0000
0000
0000
0000
0000
0000
0000
0000
0000
0000
0000
0000
0000
0000
0000
000M
000M
0000
000M
0000
000M
0000
000M
0000
000M
0000
000M
0000
000M
0000
000M
,
0000
000M
0000
000M
0000
000M
0000
000M
0000
000M
0000
000M
0000
000M
0000
000M
0000
000M
0000
0000
0000
0000
0000
0000
000M
000M
0000
000M
0000
000M
0000
000M
,
0000
000M
0000
000M
0000
000M
0000
000M
0000
000M
0000
000M
0000
000M
0000
000M
0000
000M
0000
000M
0000
000M
0000
000M
0000
000M
0000
0000
0000
0000
0000
0000
,
0000
0000
0000
0000
0000
0000
0000
0000
000M
000M
0000
000M
0000
000M
0000
000M
0000
000M
0000
000M
0000
000M
0000
000M
0000
000M
0000
000M
0000
000M
0000
000M
,
0000
000M
0000
000M
0000
000M
0000
000M
0000
000M
0000
0000
0000
0000
0000
0000
0000
0000
0000
0000
0000
0000
0000
0000
0000
0000
0000
0000
0000
0000
0000
0000
;
