#TITLE:大見解;
#SUBTITLE:-Boss Edition-;
#ARTIST:Des-ROW feat. TSUBOI for ALPHA;
#TITLETRANSLIT:DAIKENKAI;
#SUBTITLETRANSLIT:;
#ARTISTTRANSLIT:;
#CREDIT:;
#BANNER:DAIKENKAI.png;
#BACKGROUND:DAIKENKAI-bg.png;
#LYRICSPATH:;
#CDTITLE:kyo-cdtitle.png;
#MUSIC:DAIKENKAI.mp3;
#OFFSET:-1.728;
#SAMPLESTART:66.950;
#SAMPLELENGTH:12.000;
#SELECTABLE:YES;
#BPMS:0.000=142.950,114.000=172.000;
#STOPS:;
#BGCHANGES:;
// cache tags:
#FIRSTBEAT:0.000;
#LASTBEAT:268.000;
#SONGFILENAME:Songs/new cc/DAIKENKAI -Boss Edition-/DAIKENKAI.sm;
#HASMUSIC:1;
#HASBANNER:1;
#MUSICLENGTH:107.493;
// end cache tags

//---------------dance-single - ----------------
#NOTES:
     dance-single:
     :
     Edit:
     10:
     0.811,0.904,0.456,0.177,0.312,542.000,49.000,19.000,0.000,0.000:
1000
0100
0010
0100
0001
0100
0010
1000
,
0200
0000
0001
0000
0010
0000
0001
0300
,
0020
1000
0100
0001
,
0100
1030
2000
3010
,
0001
0000
0100
0010
1000
0000
1000
0010
0100
0000
0010
0100
0001
0000
0100
0000
,
0020
1000
0100
1030
0010
0100
0001
0100
,
0010
0100
0001
1000
0010
1000
0010
0100
,
0010
0000
0100
0000
0001
0000
1000
0000
0100
0000
0100
0000
1000
0000
0100
1000
,
0100
0000
0001
0100
0001
0000
0010
1000
0010
0000
0000
0010
1000
0000
0001
0000
,
0100
0000
0010
1000
0010
0000
0100
0010
0100
0001
0100
0000
0010
0000
0000
1000
,
0000
0000
0100
1000
0010
0000
1000
0010
0100
0000
0010
0100
0001
0000
0000
0000
,
0100
0000
0001
0100
0001
0000
0100
0000
0010
0000
1000
0010
1000
0000
0010
0100
,
0010
0000
0100
0001
0100
0000
0110
0000
0010
0000
0100
0000
0001
0000
0100
0000
,
0020
0000
1000
0000
0100
0030
0001
0200
,
0000
0001
0300
0010
2000
0000
3010
0100
,
0001
0100
0010
0100
0002
0000
0013
0100
,
0010
1000
0010
1000
0200
0000
1300
0001
,
0100
0010
0100
0001
0010
1001
0001
0100
,
0110
0000
0000
0001
0100
0000
0010
0000
1000
0000
1000
0010
1000
0000
0000
0000
,
0010
0000
0100
0010
0100
0000
0001
0000
0100
0000
0010
0100
0010
0000
1000
0100
,
1000
0000
0001
0100
0001
0000
0100
0000
0010
0000
1000
0000
0010
0000
1000
0000
,
0020
0000
0000
0000
1000
0000
0000
0000
0100
0030
0000
0000
0001
0000
0100
0000
,
0010
0100
0001
0100
2000
0000
0100
3000
,
0001
0000
0100
0000
0010
0000
1000
0010
0001
0000
0010
0000
0100
0000
0010
0000
,
0100
0000
0001
0100
0010
0000
0100
0001
0100
0000
1000
0100
1000
0000
0000
0000
,
0001
0000
0100
0001
0100
0000
0010
1000
0010
0000
0000
0000
1000
0000
1000
0010
,
0100
0000
0010
0100
0001
0000
0100
0010
1000
0000
0000
0000
0100
0000
0001
0000
,
0100
0000
0010
1000
0010
0000
1000
0000
0010
0100
0001
0000
0001
0000
0100
0000
,
0010
0000
1000
0100
0001
0000
0000
0000
1001
0000
0110
0000
0000
0000
0101
0000
,
1001
0000
0100
0110
1000
0000
1000
0010
,
0000
0010
0100
0001
0100
0010
1000
1000
,
1010
0010
0100
0001
0100
0010
0100
0000
,
0110
1000
0100
0001
0100
0010
1100
0000
,
0001
0100
0010
1000
0100
1000
0010
1000
,
0010
1000
0010
0001
0010
0100
1000
0010
,
1000
0010
0001
0010
0100
0010
1010
0000
,
0001
0010
0100
0010
1000
0100
0001
0110
,
1000
0000
0100
0000
0010
0000
0001
0100
0010
0000
1000
0000
0010
0000
1000
0000
,
0100
0000
0100
0000
1000
0000
0100
1000
0100
0000
0001
0000
0100
0000
0010
0000
,
0001
0100
0001
0000
1000
0000
0010
1000
0010
0000
0010
0000
0100
0000
0010
0100
,
0001
0000
0100
0010
1000
0000
1000
0010
0100
0000
0010
0100
0001
0000
0100
0010
,
1000
0100
0001
0100
0010
1000
0100
0001
,
0100
0010
1000
0010
1000
0100
0001
0100
,
0010
0000
1000
0010
0100
0000
0010
0100
0001
0000
0100
0010
1000
0000
1000
0010
,
0100
0000
0010
0100
0001
0000
0100
0010
1000
0000
1000
0010
0100
0000
0010
0100
,
0010
0002
0000
0100
0103
0000
0010
2000
,
0000
0000
0000
0100
0010
0000
0100
3000
,
0001
0000
0100
0001
0100
0000
0100
1000
0100
0000
0001
0100
0010
0000
1000
0010
,
1000
0000
0010
0100
0010
0000
0100
0001
0100
0000
0010
1000
0010
0000
1000
0000
,
0010
0001
0001
2010
0000
0000
0100
0000
,
0000
3002
0000
0000
1000
0000
0013
0000
,
0001
0000
0100
0010
1000
0000
1000
0000
0010
0000
0100
0010
0100
0000
0001
0100
,
0010
0000
1000
0010
1000
0000
0010
0000
0100
0000
0001
0000
0100
0000
2000
3000
,
0100
0000
0002
0003
0100
0000
0010
0000
0100
0000
0001
0000
0100
0000
0010
0000
,
0200
0300
1000
0000
0001
0000
0010
0000
1000
0000
0010
0000
0100
0000
1000
0000
,
0200
0000
0000
0300
0001
0000
0001
0000
0101
0000
0000
0000
1010
0000
0100
0000
,
1001
0010
0110
1000
0010
0100
0010
0100
,
0001
0100
1000
0000
0100
0010
0001
0000
1000
0010
0001
0000
0000
0000
0001
0000
,
0100
1000
0010
0100
0010
1000
1000
0000
,
1100
0001
0100
0010
1000
1000
0110
0100
,
0001
0110
1000
0100
1100
0001
0101
0100
,
0010
1000
0010
0110
0001
0100
0110
1000
,
1100
0001
0100
0110
1000
1100
0001
0100
,
0010
0100
1010
0010
0100
1010
0010
0100
,
1100
0001
0010
1000
1100
0001
0101
1000
,
0101
1100
0101
0101
0110
1010
0110
1100
,
0101
0110
1010
0110
0110
0101
0000
0110
,
1010
0000
0000
0000
;
