#TITLE:MAX 300;
#SUBTITLE:(Autumn Caravan Remix);
#ARTIST:byakko_of_the_west;
#TITLETRANSLIT:;
#SUBTITLETRANSLIT:;
#ARTISTTRANSLIT:;
#CREDIT:;
#BANNER:;
#BACKGROUND:;
#LYRICSPATH:;
#CDTITLE:;
#MUSIC:MAX 300 (Autumn Caravan Remix).mp3;
#OFFSET:-0.060;
#SAMPLESTART:18.870;
#SAMPLELENGTH:12.000;
#SELECTABLE:YES;
#BPMS:0.000=320.000,128.000=639.996,144.000=300.000,148.000=320.000,184.000=79.001,200.000=320.000,288.000=210.001,292.000=318.000,473.000=317.499,485.000=300.000,498.000=639.996;
#STOPS:60.000=0.060
,392.000=0.200
,399.000=0.200
,406.000=0.200
;
#BGCHANGES:;
// cache tags:
#FIRSTBEAT:0.000;
#LASTBEAT:570.000;
#SONGFILENAME:Songs/toune 2/MAX 300 (Autumn Caravan Remix)/MAX 300 (Autumn Caravan Remix).sm;
#HASMUSIC:1;
#HASBANNER:0;
#MUSICLENGTH:111.375;
// end cache tags

//---------------dance-single - ----------------
#NOTES:
     dance-single:
     :
     Medium:
     8:
     0.571,0.768,0.144,0.027,0.036,426.000,16.000,3.000,0.000,0.000:
0010
0010
0000
1000
,
0001
0100
0000
0001
,
1000
0010
0000
1000
,
0100
0001
0100
1000
,
0100
0100
0000
0010
,
0001
1000
0000
0100
,
1000
0001
0000
1000
,
0010
0001
0010
1000
,
0010
0010
0000
1000
,
0100
0001
0000
0001
,
0010
1000
0000
0001
,
1000
0001
0010
0001
,
1000
0001
1000
0010
,
1000
0100
1000
0001
,
1000
0001
1000
0001
,
1000
0000
0001
0000
,
1000
1000
0000
0010
,
0100
1000
0000
0100
,
0010
0001
0000
1000
,
0100
0001
0010
1000
,
0100
1000
0001
1000
,
0010
0001
1000
0001
,
0100
0010
1000
0001
,
0010
0100
0001
1000
,
0100
0010
0100
0001
,
0010
0100
0010
1000
,
0010
1000
0001
0010
,
0100
0001
1000
0100
,
0010
1000
0010
0100
,
0100
0001
0100
0010
,
0010
1000
0001
1000
,
0100
0001
1000
0001
,
0010
0000
0000
0000
,
1000
0000
0000
0000
,
0001
0000
0000
0000
,
0100
0000
0000
0000
,
0100
0000
0000
0010
0000
0000
0100
0000
,
0010
0100
0010
0100
,
0010
0100
1000
0010
,
0100
1000
1001
0000
,
0100
0010
0001
0100
,
0010
0001
1001
0000
,
0001
0010
0100
0001
,
0010
0100
0110
0000
,
1000
0100
0010
1000
,
0100
0010
0110
0000
,
1000
0000
1000
0100
0000
1000
0000
0100
,
1000
0000
1000
0010
0000
0100
0000
0010
,
1000
0000
1000
0001
0000
0010
0000
0001
,
1000
0100
0010
0001
1000
0000
0000
0000
,
0001
0000
0010
0000
,
0001
0000
0010
0000
,
1000
0000
0010
0000
,
1000
0000
0010
0000
,
1000
0000
0100
0000
,
0001
0000
0100
0000
,
1000
0000
0010
0000
,
0001
0000
0010
0000
,
1000
0000
0010
0000
,
1000
0000
0010
0000
,
0001
0000
0010
0000
,
0001
0000
0010
0000
,
1000
0100
0010
0001
,
0100
0001
0010
1000
,
0100
1000
0010
0100
,
0010
1000
0001
1000
,
0010
0100
1000
0100
,
0010
0100
0001
0100
,
0010
1000
0001
1000
,
0010
0001
1000
0001
,
0010
0100
1000
0100
,
0010
1000
0100
1000
,
0020
0000
0000
0000
,
1030
0000
0000
0100
0000
0100
0000
0000
,
1000
0000
0000
0010
0000
0010
0000
0000
,
1000
0000
0000
0001
0000
0001
0000
0000
,
1001
1001
1001
0000
,
0001
0000
0000
0010
0000
0010
0000
0000
,
0001
0000
0000
0100
0000
0100
0000
0000
,
0001
0000
0000
1000
0000
1000
0000
0000
,
1001
1001
1001
0000
,
1000
0000
0000
0001
0000
0001
0000
0000
,
1000
0000
0000
0010
0000
0010
0000
0000
,
1000
0000
0000
0100
0000
0100
0000
0000
,
1001
1001
1001
0000
,
0001
0000
0000
1000
0000
1000
0000
0000
,
0001
0000
0000
0100
0000
0100
0000
0000
,
0001
0000
0000
0010
0000
0010
0000
0000
,
1001
1001
1001
0000
,
1000
0100
0001
0100
,
1000
0010
0100
0010
,
1000
0001
0010
0001
,
1000
0100
0001
0100
,
1000
0010
0001
0010
,
1000
0001
0100
0001
,
1000
0010
0100
0010
,
1000
0100
0010
0100
,
1000
0001
1000
0000
0000
0000
0001
1000
,
0001
0000
0000
0010
0000
0000
1000
0100
,
1000
0000
0000
0000
0001
0010
0001
0000
,
0000
0100
0000
0000
0001
0100
0001
0000
,
0000
0000
1000
0010
1000
0000
0000
0100
,
0000
0000
0010
0001
0010
0000
0000
0000
,
0100
1000
0100
0000
0000
0000
0001
1000
,
0001
1000
0001
0000
0000
0000
0000
0000
,
0010
0000
0000
0000
,
0100
0000
1000
0000
,
0001
0000
0010
0000
,
0100
1000
0001
0010
,
0100
0000
1000
0001
1000
0001
1000
0001
,
2000
0000
0000
0000
,
0000
0000
0000
0000
,
3000
0000
1000
0000
0000
0100
0000
0000
,
0010
0000
0001
0000
0010
0000
0000
0010
,
0000
0000
0001
0000
0000
0010
0000
0000
,
0100
0000
1000
0000
0100
0000
0000
0100
,
0000
0000
1000
0000
0000
0001
0000
0000
,
1000
0000
0001
0000
0000
1000
0000
0000
,
0001
0000
0000
1000
0000
0100
0000
1000
0000
0000
0000
0000
,
0000
0000
0000
0001
0000
0010
0000
0001
0000
0000
0000
0000
,
0000
0000
0000
0001
0000
0010
0000
0100
0000
1000
0000
0100
,
0000
0010
0000
0001
0000
0000
0000
0000
0000
0000
0000
0000
,
0000
0000
0000
0000
,
0000
0000
0000
0000
,
0000
0000
1000
0000
,
1000
0000
0100
0000
,
0100
0000
0010
0000
,
0010
0000
0001
0000
,
0001
0000
1000
0000
,
1000
0000
0001
0000
,
0001
0000
0010
0000
,
0010
0000
0100
0000
,
0100
0000
0001
0000
,
0001
0000
0010
0000
,
0010
0000
0100
0000
,
0100
0000
1000
0000
,
1000
0000
0000
0000
0000
0001
0000
0000
,
0000
0000
0001
0000
0000
0000
0000
1000
,
0000
0000
2000
0000
,
0000
0000
0000
0000
,
0000
0000
0000
0000
,
0000
0000
0000
0000
,
0000
0000
3000
0000
;

//---------------dance-single - ----------------
#NOTES:
     dance-single:
     :
     Easy:
     7:
     0.561,0.832,0.081,0.054,0.018,422.000,9.000,6.000,0.000,0.000:
1000
1000
0000
0100
,
0100
0100
0000
0100
,
0100
0100
0000
0001
,
1000
0001
1000
1000
,
0001
0001
0000
0010
,
0010
0010
0000
0010
,
0010
0010
0000
1000
,
0001
1000
0001
0001
,
1000
1000
0000
0100
,
0100
0100
0000
0010
,
0010
0010
0000
0001
,
1000
0001
1000
1000
,
0100
0100
0010
0010
,
0001
0001
0010
0010
,
0100
0100
1000
1000
,
1001
0000
1001
0000
,
0010
0010
0000
1000
,
1000
1000
0000
0001
,
0001
0001
0000
0100
,
0010
0100
0010
0010
,
0100
0100
0000
0001
,
0001
0001
0000
1000
,
1000
1000
0000
0010
,
0100
0010
0100
0100
,
0010
0010
0100
0010
,
0100
0000
0001
1000
,
0001
0000
1000
0001
,
1000
0000
0010
0100
,
1000
0000
0100
0010
,
0001
0000
0010
0000
,
1000
0100
0010
0001
,
1000
0100
0010
0001
,
1001
0000
0000
0000
,
0010
0000
0000
0000
,
0100
0000
0000
0000
,
0010
0000
0000
0000
,
0100
0000
0000
0010
0000
0000
0100
0000
,
0010
1000
0001
0100
,
0010
0010
0001
0001
,
0100
0100
1001
0000
,
1000
1000
0001
0001
,
0010
0010
1001
0000
,
0100
0100
0001
0001
,
0010
0010
1001
0000
,
0100
0100
0001
0001
,
1000
1000
1001
0000
,
0010
1000
0100
1000
,
0010
0001
0010
0001
,
0010
0010
1000
1000
0010
0010
1000
0000
,
0010
1001
1001
0000
,
0001
0010
1000
0010
,
0001
0100
1000
0100
,
0001
0010
0001
0010
,
0001
0100
1000
0100
,
0001
1000
0010
1000
,
0001
0100
0010
0100
,
0001
0010
1000
0010
,
0001
0100
1000
0100
,
0001
0010
0100
0010
,
0001
1000
0100
1000
,
0001
0100
0010
0100
,
0001
1000
0010
1000
,
0001
0010
0100
0010
,
0001
0100
1000
0100
,
0001
0010
1000
0010
,
0001
0010
0100
1000
,
0001
0010
0100
1000
,
0001
0100
0010
0100
,
0001
1000
0100
1000
,
0001
0100
0010
0100
,
0001
0010
1000
0010
,
0001
0100
1000
0100
,
0002
0000
0000
0000
,
1003
0000
0000
1000
0000
1000
0000
0000
,
1000
0000
0000
1000
0000
1000
0000
0000
,
1000
0000
0000
1000
0000
1000
0000
0000
,
1000
0001
1000
0000
,
0001
0000
0000
0001
0000
0001
0000
0000
,
0001
0000
0000
0001
0000
0001
0000
0000
,
0001
0000
0000
0001
0000
0001
0000
0000
,
0001
1000
0001
0000
,
0100
0000
0000
0100
0000
0100
0000
0000
,
0100
0000
0000
0100
0000
0100
0000
0000
,
0100
0000
0000
0100
0000
0100
0000
0000
,
0100
0010
0100
0000
,
0010
0000
0000
0010
0000
0010
0000
0000
,
0010
0000
0000
0010
0000
0010
0000
0000
,
0010
0000
0000
0010
0000
0010
0000
0000
,
0010
0100
0010
0100
,
0010
1000
0001
1000
,
0010
0100
0010
1000
,
0001
1000
0010
0001
,
0010
1000
0100
1000
,
0010
0100
0001
0100
,
0010
0001
0010
0100
,
0001
0100
0010
1000
,
0001
1000
0010
0100
,
1000
0100
1000
0000
0000
0000
1000
0100
,
1000
0000
0000
0001
0000
0000
0001
0010
,
0001
0000
0000
0000
0001
0010
0001
0000
,
0000
0100
0000
0000
0010
1000
0010
0000
,
0000
0000
0010
1000
0010
0000
0000
0001
,
0000
0000
1000
0001
1000
0000
0000
0000
,
1000
0001
1000
0000
0000
0000
0020
0000
,
0000
1030
0000
0000
,
0010
0000
0000
0000
,
1000
0000
0001
0000
,
0100
0000
0010
0000
,
1000
0100
0001
0100
,
1000
0010
0001
0010
,
1000
0100
0001
0010
,
2000
0000
0000
0000
,
3000
0000
0010
0000
0000
0010
0000
0000
,
1000
0000
0001
0000
2000
0000
0000
3100
,
0000
0000
0010
0000
0000
0010
0000
0000
,
0001
0000
1000
0000
0002
0000
0000
0013
,
0000
0000
0100
0000
0000
0100
0000
0000
,
1000
0000
0001
0000
0000
0001
0000
0000
,
0010
0000
0000
0100
0000
0000
0000
0100
0000
0000
0000
0000
,
0000
0000
0000
0010
0000
0000
0000
0010
0000
0000
0000
0000
,
0000
0000
0000
1000
0000
0000
0000
1000
0000
0001
0000
0000
,
0000
0001
0000
1000
0000
0000
0000
0000
0000
0000
0000
0000
,
0000
0000
0000
0000
,
0000
0000
0000
0000
,
0000
0000
1000
0000
,
0000
0000
0100
0000
,
0000
0000
0001
0000
,
0000
0000
0010
0000
,
0000
0000
1000
0000
,
0000
0000
0001
0000
,
0000
0000
0100
0000
,
0000
0000
0010
0000
,
0000
0000
1000
0000
,
0000
0000
0100
0000
,
0000
0000
0001
0000
,
0000
0000
0010
0000
,
0000
0000
0000
0000
0000
0100
0000
0000
,
0000
0000
0001
0000
0000
0000
0000
1000
,
0000
0000
0020
0000
,
0000
0000
0000
0000
,
0000
0000
0000
0000
,
0000
0000
0000
0000
,
0000
0000
0030
0000
;

//---------------dance-single - ----------------
#NOTES:
     dance-single:
     :
     Beginner:
     5:
     0.325,0.576,0.036,0.099,0.000,238.000,4.000,11.000,0.000,0.000:
1000
0000
0000
1000
,
0000
1000
1000
0000
,
0100
0000
0000
0100
,
0000
0100
0100
0000
,
0010
0000
0000
0010
,
0000
0010
0010
0000
,
0001
0000
0000
0001
,
0000
0001
0001
0000
,
1000
0000
0000
1000
,
0000
0001
0001
0000
,
0001
0000
0000
0001
,
0000
1000
1000
0000
,
0010
0000
0010
0000
,
0100
0000
0100
0000
,
0010
0000
0010
0000
,
1001
0000
1001
0000
,
0001
0000
0010
0000
,
1000
0000
0010
0000
,
0001
0000
0100
0000
,
1000
0000
0100
0000
,
0001
0000
1000
0000
,
0010
0000
1000
0000
,
0001
0000
0100
0000
,
0010
0000
0100
0000
,
0001
0000
0010
0000
,
0100
0000
1000
0000
,
1000
0000
0100
0000
,
0010
0000
0001
0000
,
0001
0000
0100
0000
,
1000
0000
0100
0000
,
0001
0000
0010
0000
,
1000
0000
0010
0000
,
0001
0000
0000
0000
,
0000
0000
0000
0000
,
0000
0000
0000
0000
,
0000
0000
0000
0000
,
1000
0000
0000
0001
0000
0000
1000
0000
,
0001
0000
1000
0000
,
0002
0000
0000
0000
,
0003
0000
0001
0000
,
2000
0000
0000
0000
,
3000
0000
1000
0000
,
0020
0000
0000
0000
,
0030
0000
0010
0000
,
0200
0000
0000
0000
,
0300
0000
0100
0000
,
1000
1000
0100
0100
,
0010
0010
0001
0001
,
0010
0010
0100
0100
,
1000
1000
1001
0000
,
1000
0000
0100
0000
,
1000
0000
0010
0000
,
1000
0000
0001
0000
,
1000
0000
0100
0000
,
0001
0000
0010
0000
,
0001
0000
0100
0000
,
0001
0000
1000
0000
,
0001
0000
0010
0000
,
1000
0000
0010
0000
,
1000
0000
0100
0000
,
1000
0000
0001
0000
,
1000
0000
0010
0000
,
0001
0000
1000
0000
,
0001
0000
0100
0000
,
0001
0000
0010
0000
,
0001
0000
0100
0000
,
1000
0000
0100
0000
,
0010
0000
0001
0000
,
1000
0000
0100
0000
,
0010
0000
0001
0000
,
1000
0000
0001
0000
,
1000
0000
0010
0000
,
0200
0000
0000
0000
,
0300
0000
0000
0100
,
0000
0000
0000
0010
,
0000
0000
0000
1000
,
0000
0000
0000
0001
,
0000
0000
0000
0100
,
0000
0000
0000
0010
,
0000
0000
0000
1000
,
0000
0000
0000
0100
,
0000
0000
0000
0001
,
0000
0000
0000
0010
,
0000
0000
0000
0100
,
0000
0000
0000
1000
,
0000
0000
0000
0100
,
0000
0000
0000
0001
,
0000
0000
0000
1000
,
0000
0000
0000
0010
,
0010
0000
1000
0000
,
0010
0000
1000
0000
,
0010
0000
0001
0000
,
0010
0000
0001
0000
,
0010
0000
0100
0000
,
0010
0000
0100
0000
,
0010
0000
1000
0000
,
0010
0000
1000
0000
,
0010
0010
0000
0010
,
0010
0000
0000
1000
,
1000
0000
1000
1000
,
0000
0000
0100
0100
,
0000
0100
0100
0000
,
0001
0001
0000
0001
,
0001
0000
0000
0200
,
0000
0300
0000
0000
,
1000
0000
0000
0000
,
0001
0000
1000
0000
,
0001
0000
1000
0000
,
0001
1000
0001
1000
,
0001
1000
0001
1000
,
0001
0010
0100
1000
,
0001
0010
0100
1000
,
0000
0010
0000
0000
,
0010
1000
0010
0000
,
0000
0100
0000
0000
,
0100
0001
0100
0000
,
0000
1000
0000
0000
,
1000
0100
1000
0000
,
0000
0002
0000
0003
,
0000
2000
0000
3000
,
0000
2002
0000
0000
,
0000
3003
0000
0000
,
0000
0000
0000
0000
,
0000
0000
0000
0000
,
0000
0000
1000
0000
,
0000
0000
1000
0000
,
0000
0000
0100
0000
,
0000
0000
0100
0000
,
0000
0000
0010
0000
,
0000
0000
0010
0000
,
0000
0000
0001
0000
,
0000
0000
0001
0000
,
0000
0000
1000
0000
,
0000
0000
0001
0000
,
0000
0000
1000
0000
,
0000
0000
0001
0000
,
0000
0000
0010
0000
,
0000
0000
0100
0000
,
0000
0000
2000
0000
,
0000
0000
0000
0000
,
0000
0000
0000
0000
,
0000
0000
0000
0000
,
0000
0000
3000
0000
;

//---------------dance-single - Copied from----------------
#NOTES:
     dance-single:
     Copied from:
     Hard:
     10:
     0.731,1.000,0.000,0.099,0.036,559.000,0.000,11.000,0.000,0.000:
1000
0100
0000
0100
,
0001
1000
0000
1000
,
0100
0000
0001
0000
0000
0000
0001
0100
,
0001
1000
0010
0100
,
0010
1000
0000
1000
,
0100
0001
0000
0001
,
0010
0000
0100
0000
0000
0000
0100
1000
,
0100
0001
0010
0100
,
1000
0001
0000
0001
,
1000
0010
0000
0010
,
1000
0000
0100
0000
0000
0000
0100
0010
,
0100
0001
0100
0010
,
1000
0100
0100
0010
,
0100
1000
0100
0001
,
0100
0010
0100
1000
,
0100
0000
0100
0000
,
0100
0001
0000
0001
,
0010
1000
0000
1000
,
0001
0000
0010
0000
0000
0000
0010
0001
,
0010
1000
0100
0001
,
0010
1000
0000
1000
,
0010
0100
0010
0000
0001
0000
1000
0000
,
0001
0000
0010
0000
0000
0000
0100
0001
,
0100
0010
1000
0100
,
0001
0010
0001
1000
,
0001
0010
0100
0010
,
1000
0000
0001
0000
1000
0010
0100
0000
,
0001
1000
0010
0000
0100
0000
1000
0000
,
0010
0100
0010
0001
,
0100
0001
1000
0100
,
0001
0010
0100
1000
,
0010
0100
0001
0100
,
0020
0000
0000
0000
,
1000
0000
0000
0000
,
0001
0000
0000
0000
,
1030
0000
0000
0000
,
0010
0000
0000
1000
0000
0000
0100
0000
,
0001
0010
0100
1000
0001
0010
0100
1000
,
0001
0100
0010
0001
,
0100
0000
0020
0000
0200
0000
0000
0330
,
1000
0010
0100
1000
,
0001
0000
0020
0000
2000
0000
0000
3030
,
0100
0001
0010
1000
,
0001
0000
2000
0000
0002
0000
0000
3003
,
0010
0100
0001
1000
,
0100
0000
0002
0000
0020
0000
0000
0033
,
1000
0010
0001
0100
0001
0100
1000
0100
,
1000
0010
0100
0010
1000
0100
0010
0100
,
1000
0001
0010
0001
1000
0001
0010
0100
,
0010
0001
0100
0010
0100
0001
1000
0001
,
0100
1000
0010
0100
,
0001
0100
0001
1000
,
0100
0001
0100
1000
,
0010
1000
0100
0001
,
0100
0010
1000
0100
,
1000
0100
0001
0100
,
0001
0010
1000
0010
,
0001
0100
0010
0100
,
1000
0010
0100
0001
,
1000
0001
0010
1000
,
0001
0000
0100
0010
0100
0001
1000
0001
,
1000
0010
0100
0000
1000
0000
0001
0000
,
1000
0100
0100
1000
,
0001
0100
0001
0100
0010
1000
0010
1000
,
0001
0010
0100
1000
0001
0010
0100
1000
,
0001
0010
0001
0010
0100
1000
0100
1000
,
0001
0100
0010
0100
,
0001
1000
0100
1000
,
0001
0010
0100
0010
,
0001
1000
0100
1000
,
0001
0000
0010
0000
1000
0001
1000
0000
,
0001
0000
0100
0000
1000
0001
1000
0001
,
0020
0000
0000
0000
,
1030
0000
0100
0001
0000
0001
0100
0000
,
0010
0000
0100
1000
0000
1000
0100
0000
,
0001
0000
0100
0010
0000
0010
0100
0000
,
1000
0100
0010
0000
,
1000
0000
0100
0010
0000
0010
0100
0000
,
0001
0000
0010
1000
0000
1000
0010
0000
,
0100
0000
0001
1000
0000
1000
0001
0000
,
0010
1000
0001
0000
,
0100
0000
0001
0010
0000
0010
0001
0000
,
0100
0000
1000
0010
0000
0010
1000
0000
,
0001
0000
1000
0100
0000
0100
1000
0000
,
0010
0001
0100
0000
,
1000
0000
0100
0010
0000
0010
0100
0000
,
0010
0000
1000
0001
0000
0001
1000
0000
,
0001
1000
0001
0000
1000
0010
1000
0000
,
0001
0010
0100
1000
0001
0010
0100
1000
,
0001
0100
0010
0100
,
0001
1000
0100
0001
,
0100
1000
0010
0100
,
0010
1000
0100
0001
,
0100
0010
1000
0001
,
1000
0001
0100
0001
,
0100
1000
0100
0010
,
0100
0001
0010
1000
,
0010
1000
0010
0000
0000
0000
1000
0001
,
1000
0000
0000
0010
1000
0000
0010
1000
,
0010
0000
0000
0000
0100
0001
0100
0000
,
0000
0010
0001
0000
1000
0010
1000
0000
,
0000
0000
0001
0010
0001
0000
0000
0100
,
1000
0000
0010
1000
0010
0000
0000
0000
,
0001
1000
0001
0000
0000
0000
0010
1000
,
0010
0100
0010
0000
0000
0000
0000
0000
,
1000
0000
0000
0000
,
0001
0000
0010
0000
,
1000
0000
0100
0000
,
0010
0000
0001
0000
,
0100
0010
1000
0001
,
0010
0000
1000
0001
1000
0001
0010
0001
,
0010
0100
0010
0100
0010
0001
0010
0001
,
0000
0000
0100
0000
0000
0010
0000
1000
,
0001
0000
0010
0000
1000
0000
0000
0001
,
0000
0000
0010
0000
0000
0001
0000
1000
,
0100
0000
0001
0000
0100
0000
0000
1000
,
0000
0000
0010
0000
0000
0100
0000
0001
,
0010
0000
1000
0000
0001
0000
0000
1000
,
0000
0000
0000
0001
0000
1000
0000
0001
0000
0000
0000
0000
,
0000
0000
0000
1000
0000
0001
0000
1000
0000
0000
0000
0000
,
0000
0000
0000
0001
0000
1000
0000
0001
0000
1000
0000
0001
,
0000
1000
0000
0001
0000
0000
0000
0000
0000
0000
0000
0000
,
0000
0000
0000
0000
,
0000
0000
0000
0000
,
0000
0000
1000
0010
,
0100
0001
1000
0010
,
0100
0001
0010
0100
,
1000
0010
0001
0010
,
1000
0001
0100
0001
,
0010
1000
0100
0001
,
0100
0010
1000
0001
,
0100
0010
1000
0100
,
0001
0010
1000
0001
,
0100
0010
1000
0001
,
0010
0100
0001
1000
,
0010
0100
0001
0010
,
1000
0000
0000
0000
0000
0010
0000
0000
,
0000
0000
1000
0000
0000
0000
0000
0001
,
0000
0000
0200
0000
,
0000
0000
0000
0000
,
0000
0000
0000
0000
,
0000
0000
0000
0000
,
0000
0000
0300
0000
;

//---------------dance-single - Copied from Copied f----------------
#NOTES:
     dance-single:
     Copied from Copied f:
     Challenge:
     10:
     0.836,1.000,0.341,0.314,0.081,579.000,38.000,35.000,0.000,0.000:
1000
0010
0000
0010
,
0001
1000
0000
1000
,
0100
0000
0001
0000
0000
1001
0000
1000
,
0100
1000
0010
0100
,
1000
0001
0000
0001
,
0100
0010
0000
0010
,
0001
0000
1000
0000
0000
1001
0000
0001
,
0100
0010
1000
0010
,
0001
0100
0000
0100
,
0010
0001
0000
0001
,
0100
0000
1000
0000
0000
1001
0000
0010
,
0100
0001
0100
0010
,
1000
0010
0100
0010
,
0001
0010
1000
0010
,
1000
0010
0001
0010
,
0100
0000
0000
0000
1000
0001
1000
0000
,
0010
0000
0100
0000
0000
1000
0010
0000
,
0001
0000
0100
0000
0000
0010
1000
0000
,
0100
0000
0001
0000
0000
1001
0000
1000
,
0100
0010
0100
0001
,
0010
1000
0010
0001
,
1000
0010
1000
0010
1000
0000
0100
0000
,
0001
0000
0010
0000
1000
0001
1000
0001
,
0100
0000
0010
0000
1000
0100
0010
0000
,
0001
0100
0010
1000
,
0001
0010
0001
0100
,
1000
0000
0010
0000
0001
1000
0100
0000
,
0001
0000
0010
0000
1000
0100
0010
0000
,
1000
0010
0100
0001
,
0010
1000
0001
0100
,
0010
0001
0100
1000
,
0010
0100
0001
0010
,
2000
0000
0000
0000
,
0010
0000
0000
0000
,
0001
0000
0000
0000
,
0100
0000
0000
0000
,
3001
0000
0000
1001
0000
0000
0010
0000
,
0100
0010
0001
1000
0100
0010
0001
1000
,
0200
0302
0023
2030
,
3020
0032
0203
0320
,
2030
3200
0302
0023
,
2030
3002
0203
0302
,
2003
3002
0023
2030
,
3200
0302
2003
3020
,
0230
0302
2003
3020
,
0230
0302
0023
0230
,
1300
0100
0010
0100
1000
0000
1001
0000
0001
0100
0010
0100
0001
0000
1001
0000
,
0010
0100
0001
0100
0010
0000
1001
0000
1000
0100
0001
0100
1000
0000
1001
0000
,
0010
1010
0011
0110
1001
0101
1100
0110
,
1000
0100
0001
0100
1000
0000
1001
0000
0010
0000
0000
0000
0000
0000
0000
0000
,
1000
0010
0001
0010
,
1000
0100
1000
0100
,
0001
0010
1000
0010
,
0001
0100
0001
0100
,
0001
1000
0010
1000
,
0001
0100
0010
0100
,
0001
1000
0001
0100
,
0010
1000
0100
1000
,
0010
0100
0001
0100
,
0010
0100
1000
0100
,
0010
0000
0001
0100
0001
0100
0010
0100
,
1000
1001
1001
0000
,
1010
0011
1100
0101
,
0010
1000
0010
0100
0001
0010
0100
1000
,
0010
0100
0001
0100
0010
1000
0100
0001
,
0100
0010
0100
1000
0100
0001
0100
0001
,
0010
1000
0100
0001
,
0100
0010
1000
0001
,
0100
0001
0100
0010
,
0100
1000
0100
1000
,
0010
0000
0100
0000
0001
1000
0010
0000
,
1000
0000
0100
0000
0001
1000
0100
0000
,
0020
0000
0000
0000
,
1030
0000
0001
0010
0100
0010
0001
0000
,
0100
0000
0010
1000
0100
1000
0010
0000
,
0100
0000
0010
0001
1000
0001
0010
0000
,
0100
1100
0101
0000
,
0010
0000
0100
0001
1000
0001
0100
0000
,
0010
0000
1000
0100
0010
0100
1000
0000
,
0010
0000
0100
0010
1000
0010
0100
0000
,
0001
0101
1001
0000
,
0100
0000
0010
0001
1000
0001
0010
0000
,
0100
0000
0001
0010
0100
0010
0001
0000
,
1000
0000
0001
1000
0100
1000
0001
0000
,
0010
0110
1010
0000
,
0001
0000
0100
1000
0010
1000
0100
0000
,
0010
0000
1000
0100
0001
0100
1000
0000
,
0010
0100
0010
0000
1000
0001
1000
0000
,
0010
0100
0010
0001
0010
0001
0010
1000
,
0010
1000
0100
0001
,
0100
0010
1000
0001
,
0100
0010
1000
0001
,
0100
0010
0001
0100
,
0010
1000
0001
0010
,
1000
0010
0001
0010
,
0001
1000
0010
1000
,
0010
0100
0001
0010
,
0100
0001
1000
0000
0000
0000
0010
0001
,
0100
0000
0000
0010
1000
0000
0100
0001
,
0010
0000
0000
0000
1000
0100
0010
0000
,
0000
0100
0001
0000
0010
1000
0001
0000
,
0000
0000
0010
0100
1000
0000
0000
0010
,
0001
0000
0100
0010
1000
0000
0000
0000
,
0010
1000
0001
0000
0000
0000
0010
0001
,
0010
1000
0010
0000
0000
0000
0000
0000
,
1000
0000
0000
0000
,
0010
0000
0100
0000
,
0001
0100
1000
0000
,
0010
0100
0000
0010
,
0001
0000
1000
0000
,
0010
0000
0100
0000
,
0001
0010
0100
1000
,
0100
0000
0001
0000
0000
0011
0000
0100
,
0001
0000
1001
0000
0010
0000
0000
0011
,
0000
0000
0100
0000
0000
0101
0000
0100
,
1000
0000
1001
0000
0010
0000
0000
1100
,
0000
0000
0010
0000
0000
0011
0000
0001
,
0100
0000
0110
0000
1000
0000
0000
1001
,
0000
0000
0000
1000
0000
0100
0000
0100
0000
0000
0000
0000
,
0000
0000
0000
0001
0000
0010
0000
0010
0000
0000
0000
0000
,
0000
0000
0000
1000
0000
0100
0000
0001
0000
0010
0000
1000
,
0000
0100
0000
0001
0000
0000
0000
0000
0000
0000
0000
0000
,
0000
0000
0000
0000
,
0000
0000
0000
0000
,
0000
0000
0010
1000
,
0100
0001
0100
0010
,
1000
0001
0100
0010
,
1000
0100
0001
0100
,
0001
0100
1000
0100
,
0010
0100
0001
1000
,
0100
0001
0100
0010
,
1000
0001
0100
0010
,
0001
0100
0010
0100
,
0010
1000
0001
0100
,
1000
0100
0001
0100
,
0010
1000
0100
1000
,
0010
0000
0000
0000
0000
0001
0000
0000
,
0000
0000
0100
0000
0000
0000
0000
1000
,
0000
0000
0200
0000
,
0000
0000
0000
0000
,
0000
0000
0000
0000
,
0000
0000
0000
0000
,
0000
0000
0300
0000
;
