#TITLE:Mystic Mountain (Whirlwind Beat Mix);
#SUBTITLE:;
#ARTIST:Matt Pollard vs. Beatdrop;
#TITLETRANSLIT:;
#SUBTITLETRANSLIT:;
#ARTISTTRANSLIT:;
#CREDIT:Arch0wl;
#BANNER:mysticmountain-bn.png;
#BACKGROUND:mysticmountain-bg.png;
#LYRICSPATH:;
#CDTITLE:!Arch0wlTitle.png;
#MUSIC:mysticmountain.ogg;
#OFFSET:0.306;
#SAMPLESTART:61.625;
#SAMPLELENGTH:26.869;
#SELECTABLE:YES;
#BPMS:0.000=125.000;
#STOPS:;
#BGCHANGES:0.000=mysticmountain-bg.png=1.000=0=0=1,
99999=-nosongbg-=1.000=0=0=0 // don't automatically add -songbackground-
;
// cache tags:
#FIRSTBEAT:1.000;
#LASTBEAT:405.063;
#SONGFILENAME:Songs/Archmage and Dark0wl Hammer of Thor UltraHyperMegaPack/Mystic Mountain (Whirlwind Beat Mix)/mysticmountain.sm;
#HASMUSIC:1;
#HASBANNER:1;
#MUSICLENGTH:105.000;
// end cache tags

//---------------dance-single - Arch0wl----------------
#NOTES:
     dance-single:
     Arch0wl:
     Hard:
     12:
     1.000,1.000,1.000,0.210,1.000,1280.000,127.000,22.000,0.000,2.000:
0000
1100
0000
0000
,
0000
0000
0000
0000
,
0000
0100
1100
0000
0000
0000
0000
0000
,
0000
0000
0000
0000
,
0000
0000
1100
0000
0001
1000
0001
1000
0001
1000
0001
1000
0001
1000
0001
1000
,
0001
1000
0001
1000
0001
1000
0001
1000
0001
1000
0001
1000
0001
1000
0001
1000
,
0001
1000
0001
1000
0010
0100
0010
0100
0010
0100
0010
0100
0010
0100
0010
0100
,
0010
0000
0000
0000
0000
0000
0000
0000
0000
0000
0000
0000
0100
0000
0000
0000
0000
0000
0000
0000
0000
0000
0000
0000
0010
0000
0000
0000
0000
0000
0000
0000
0000
0000
0000
0000
0100
0000
0000
0000
0000
0000
0000
0000
0000
0000
0000
0000
0001
0000
0000
0000
0000
0000
0000
0000
0010
0000
0000
0000
0000
0000
0000
0000
0001
0000
0000
0000
0000
0000
0000
0000
1000
0000
0000
0000
0000
0000
0000
0000
0010
0000
0000
0000
0000
0000
0000
0000
1000
0000
0000
0000
0000
0000
0000
0000
0001
0000
0000
0000
0000
0000
0000
0000
0010
0000
0000
0000
0000
0000
0000
0000
0001
0000
0000
0000
0000
0000
0000
0000
1000
0000
0000
0000
0000
0000
0000
0000
0010
0000
0000
0000
0000
0000
0000
0000
1000
0000
0000
0000
0000
0000
0000
0000
0001
0000
0000
0000
0000
0000
0100
0000
0000
0000
0000
0000
0001
0000
0000
0000
0000
0000
1000
0000
0000
0000
0000
0000
0100
0000
0000
0000
0000
0000
1000
0000
0000
0000
0000
0000
0001
0000
0000
0000
0000
0000
0100
0000
0000
0000
0000
0000
,
0001
1000
0100
1000
0001
0100
0001
1000
0010
0000
0000
0000
1000
0000
0100
0000
1000
0000
0000
0000
0001
0000
0100
0000
0001
0000
0000
0000
1000
0000
0100
0000
,
1000
0000
0001
0100
0001
0000
1000
0100
1000
0000
0100
1000
0100
0000
1000
0000
,
0010
0100
0010
0100
0001
0000
1000
0010
1000
0000
0001
0010
0001
1000
0100
1000
,
0001
0000
1000
0010
1000
0000
0001
0000
1000
0000
0001
0010
0001
0000
1000
0000
,
0001
0010
0001
0010
0100
0000
1000
0100
0001
0000
0001
0100
1000
0000
1000
0100
,
0001
0000
0001
0100
1000
0000
1000
0100
0001
0000
1000
0010
0001
0000
1000
0000
,
0100
1000
0100
0001
0100
0000
0010
0100
0001
0000
0100
0001
0010
1000
0010
0001
,
0100
0000
0010
0100
1000
0000
0100
0001
0010
0000
0100
0010
1000
0010
0001
1000
,
0100
0000
0010
0100
1000
0000
0101
0000
1000
0000
0101
0000
1000
0000
0101
0000
,
1000
0101
1000
0101
1000
0101
1000
0101
,
1000
0101
0101
1010
0100
1010
0100
1010
,
0100
1010
0100
1001
0100
1001
0100
1001
,
0100
1001
1001
0110
0010
0110
0010
0110
,
0010
0110
0010
0110
0010
0110
0010
0110
,
0010
0110
0110
1001
0001
1001
0001
1001
,
0001
0000
1001
0000
0002
0000
2003
0000
3200
0000
2300
3002
0203
0302
2003
3200
,
2300
3002
0203
0302
1103
0000
0010
0001
1001
0000
0100
1000
1001
0000
0010
0001
,
1001
0000
0100
1000
1001
0000
0010
0001
1001
0000
0100
1000
1001
0000
0010
0000
,
1001
0001
0100
0001
1100
0000
0001
0100
1010
0000
0001
1000
0100
1000
0001
0100
,
1010
0000
0100
0001
1100
0000
0001
0100
1010
0000
0100
0001
1100
0000
0001
0100
,
1010
0010
1000
1000
0101
0000
0010
1000
0011
0000
0100
1000
0101
0000
0010
1000
,
0011
0000
0100
1000
0101
0000
0010
1000
0011
0000
0100
1000
0101
0000
1000
0000
,
0101
0010
1000
0010
0101
0000
0001
0100
1000
0000
0001
0010
1000
0100
0010
0001
,
0100
0000
0001
0100
1000
0000
0001
0010
1000
0000
0001
0100
1000
0000
0001
0010
,
1000
0001
1000
0001
0100
0000
0001
0010
0001
0000
1000
0010
1000
0000
0001
0010
,
0001
0000
1000
0010
1000
0000
0001
0010
0001
0000
1000
0010
1000
0000
0100
0000
,
0010
0001
0010
0001
1000
0000
0001
0100
0001
0000
1000
0010
1000
0100
0010
0001
,
1000
0000
0001
0100
0001
0000
1000
0010
1000
0000
0001
0010
0001
0000
0010
0100
,
1000
0010
1000
0100
1001
0000
0010
0100
1001
0000
0100
0010
1001
1000
0010
0100
,
1001
0000
0010
0100
1001
0000
0100
0010
1001
0000
0010
0100
1001
0000
0001
0000
,
1001
1000
1000
1000
0001
0100
1000
0100
1000
0100
0001
0010
0001
0010
1000
0010
,
0001
0100
1000
0100
0001
0010
1000
0010
1000
0010
0001
0100
0010
1000
0001
0100
,
0010
1000
0010
1000
0001
0100
0010
1000
0010
0100
1000
0100
0001
1000
0001
1000
,
0010
0100
1000
0100
1000
0100
1000
0100
1000
0100
1000
0100
1000
0100
0001
1000
,
0010
1000
0010
1000
0001
0010
1000
0010
1000
0010
0001
0100
0001
0100
1000
0100
,
0001
0010
1000
0010
1000
0010
1000
0010
1000
0010
1000
0010
0001
0100
0001
0100
,
0010
1000
0010
1000
0001
0010
0001
0100
0010
1000
0010
0100
0001
1000
0001
0100
,
0010
1000
0010
0100
1000
0001
1000
0100
0010
1000
0010
0100
1000
0100
0001
0100
,
1010
1000
0100
0010
2001
0000
0001
0000
0001
0000
0001
0001
0000
0001
0001
0000
,
3001
0000
0001
1000
2010
0000
0010
0000
0010
0000
0010
0010
0000
0010
0010
0000
,
3010
0000
1000
0100
0120
0000
0100
0000
0100
0000
0100
0100
0000
0100
0100
0000
,
0130
0000
1000
0010
0210
0000
0010
0000
0010
0000
0010
0010
0000
0010
0310
0000
,
0200
0302
0023
0230
1301
0000
0001
0000
0101
0000
0001
0101
0000
0001
1001
0000
,
0101
0000
0001
1000
1010
0000
0010
0000
0110
0000
0010
0110
0000
0010
1010
0000
,
0110
0000
1000
0100
0110
0000
0100
0000
1100
0000
0100
1100
0000
0100
0110
0000
,
1100
0000
0001
0100
0110
0000
0010
0000
1010
0000
0010
0110
0000
0010
1010
0000
,
1100
0011
1100
0011
2001
0000
0001
0000
0100
0000
0100
0000
0001
0000
0001
0000
,
0100
0100
0001
0001
0100
0100
0001
0001
,
0100
0100
0001
0001
3100
0100
1000
1000
,
0100
0100
1000
1000
0100
0100
1000
1000
,
0100
0000
0100
0000
1000
0010
1000
0010
1000
0010
1000
0010
1000
0010
1000
0010
,
1000
0010
1000
0010
0100
0001
0100
0001
0100
0001
0100
0001
0100
0001
0100
0001
,
0100
0001
0100
0001
0010
0100
0010
0100
0010
0100
0010
0100
0010
0100
0010
0100
,
0010
0000
0000
0000
0000
0000
0000
0000
0000
0000
0000
0000
0100
0000
0000
0000
0000
0000
0000
0000
0000
0000
0000
0000
0010
0000
0000
0000
0000
0000
0000
0000
0000
0000
0000
0000
0100
0000
0000
0000
0000
0000
0000
0000
0000
0000
0000
0000
1000
0000
0000
0000
0000
0000
0000
0000
0100
0000
0000
0000
0000
0000
0000
0000
1000
0000
0000
0000
0000
0000
0000
0000
0001
0000
0000
0000
0000
0000
0000
0000
0100
0000
0000
0000
0000
0000
0000
0000
0001
0000
0000
0000
0000
0000
0000
0000
1000
0000
0000
0000
0000
0000
0000
0000
0100
0000
0000
0000
0000
0000
0000
0000
1000
0000
0000
0000
0000
0000
0000
0000
0001
0000
0000
0000
0000
0000
0000
0000
0100
0000
0000
0000
0000
0000
0000
0000
0001
0000
0000
0000
0000
0000
0000
0000
1000
0000
0000
0000
0000
0000
0010
0000
0000
0000
0000
0000
1000
0000
0000
0000
0000
0000
0001
0000
0000
0000
0000
0000
0010
0000
0000
0000
0000
0000
0001
0000
0000
0000
0000
0000
1000
0000
0000
0000
0000
0000
0010
0000
0000
0000
0000
0000
,
1000
0001
0010
0001
1000
0010
1000
0001
0100
0000
0010
0000
1000
0000
0001
0000
0100
0000
0010
0000
1000
0000
0001
0000
1000
0000
0100
0000
0010
0000
0001
0000
,
1000
0100
0010
0001
1000
0100
0010
0001
1000
0010
0100
0001
1000
0100
0010
0001
,
1000
0010
0100
0001
0100
0010
0100
0010
0100
0001
0010
0001
1000
0010
0100
0001
,
0010
0100
1000
0010
0100
0001
0010
0001
1000
0010
0100
0010
1000
0100
0010
0100
,
1000
0001
0100
0010
0010
1000
0010
0100
0010
1000
0001
0010
0100
0010
0001
0100
,
0010
1000
0010
1000
0100
0010
0001
0010
0100
1000
0001
0100
0001
1000
0010
0100
,
0010
0100
0001
0100
0010
0100
0001
1000
0010
0100
0001
1000
0001
0100
0010
1000
,
0001
0100
0010
1000
0001
0010
0100
1000
0001
0010
0100
1000
0001
0100
0010
1000
,
0100
0010
0001
0100
1001
0000
0100
0000
1001
0000
0100
0000
1010
0000
0001
0000
,
0110
0000
1000
0000
1001
0000
0100
0000
1001
0000
0100
0000
1000
0100
0010
0001
,
1000
0010
0100
0001
0010
0100
1001
0000
0000
0010
0000
0000
1001
0000
0000
0010
0000
0000
0101
0000
0000
1000
0000
0000
,
0110
0000
0001
0000
1001
0000
0010
0000
1001
0000
0010
0000
0001
0010
0100
1000
,
0001
0000
0100
0000
0010
0000
1000
0000
0100
0000
0010
0000
1001
0000
0000
0000
0000
0000
0100
0000
0000
0000
0000
0000
1001
0000
0000
0010
0000
0000
0100
0000
0000
0010
0000
0000
1001
0000
0000
0000
0000
0000
0010
0000
0000
0000
0000
0000
,
0101
0000
1000
0000
1001
0000
0100
0000
1001
0010
0100
0010
1000
0100
0010
0001
,
1000
0000
0010
0000
0100
0000
0001
0000
0010
0000
0100
0000
1001
0000
0000
0000
0000
0000
0010
0000
0000
0000
0000
0000
1001
0000
0000
0100
0000
0000
0010
0000
0000
0100
0000
0000
1001
0000
0000
0000
0000
0000
0010
0000
0000
0000
0000
0000
,
0101
0000
0000
0000
0000
0000
0000
0000
0000
0000
0000
0000
0000
0000
0000
0000
0000
0000
0000
0000
0000
0000
0000
0000
1000
0000
0000
0000
0000
0000
0000
0000
0000
0000
0000
0000
0001
0000
0000
0000
0000
0000
0000
0000
0000
0000
0000
0000
1000
0000
0000
0000
0000
0000
0000
0000
0100
0000
0000
0000
0000
0000
0000
0000
1000
0000
0000
0000
0000
0000
0000
0000
0001
0000
0000
0000
0000
0000
0000
0000
0100
0000
0000
0000
0000
0000
0000
0000
0001
0000
0000
0000
0000
0000
0000
0000
1000
0000
0000
0000
0000
0000
0000
0000
0100
0000
0000
0000
0000
0000
0000
0000
1000
0000
0000
0000
0000
0000
0000
0000
0001
0000
0000
0000
0000
0000
0000
0000
0100
0000
0000
0000
0000
0000
0000
0000
0001
0000
0000
0000
0000
0000
0000
0000
1000
0000
0000
0000
0000
0000
0010
0000
0000
0000
0000
0000
1000
0000
0000
0000
0000
0000
0001
0000
0000
0000
0000
0000
0010
0000
0000
0000
0000
0000
0001
0000
0000
0000
0000
0000
1000
0000
0000
0000
0000
0000
0010
0000
0000
0000
0000
0000
,
1000
0001
0010
0001
1000
0010
1000
0001
0100
0000
0000
0000
0010
0000
1000
0000
0001
0000
0010
0000
0100
0000
0010
0000
0001
0000
0000
0000
0100
0000
0000
0000
,
0010
1000
0010
0000
1001
0000
0100
1000
0001
0010
0100
0010
0001
0100
0010
1000
,
0001
0010
0001
0010
1001
0000
1000
0100
0010
0001
0100
0001
0010
0000
0100
0000
,
1000
0010
1000
0000
1001
0000
0100
1000
0001
0010
0100
0010
1001
0000
0010
0000
,
1001
0000
0100
0000
0010
0000
0100
0001
1000
0100
0010
0100
1000
0000
0010
0000
,
0100
0001
0100
0000
1001
0000
0010
0001
1000
0100
0010
0100
1000
0010
0100
0001
,
1000
0100
1000
0100
1001
0000
0001
0010
0100
1000
0010
1000
0100
0000
0010
0000
,
0001
0100
0001
0000
1001
0000
0010
0001
1000
0100
0010
0100
1001
0000
0100
0000
,
1001
0000
0010
0000
0100
0010
1000
0100
0010
0100
1000
0001
0100
0010
0100
0001
,
1000
0100
0010
0001
1000
0010
0100
0001
1000
0010
0100
0001
1000
0010
0100
0001
,
1000
0010
0100
0001
1000
0100
0010
0001
1000
0100
0010
0001
1000
0100
0010
0001
,
1000
0100
0010
0001
0100
0010
1000
0100
0010
0001
0010
0100
1000
0001
0010
0100
,
1000
0100
0010
0001
1000
0010
0100
0001
0010
0001
1000
0010
0100
0001
0100
0010
,
1000
0001
0100
0001
1000
0100
0010
0001
1000
0010
0100
0001
1000
0100
0010
0001
,
1000
0010
0100
0001
1000
0010
0100
0001
0010
0100
1000
0010
0100
0001
0010
0100
,
1000
0010
0100
0001
1000
0010
0100
0001
0100
0010
1000
0010
0100
0001
1000
0010
,
0100
0001
0010
0100
1000
0001
1000
0001
1000
0001
1000
0001
1000
0001
1000
0001
,
1000
0001
1000
0001
0010
0001
0010
0001
0010
0001
0010
0001
0100
0001
0100
0001
,
0100
0001
0100
0001
1000
0010
1000
0010
1000
0010
1000
0010
1000
0010
1000
0010
,
1000
0010
1000
0010
1000
0010
1000
0010
1000
0010
1000
0010
1000
0010
1000
0010
,
1000
0000
0000
0000
0010
0000
0000
0000
1000
0000
0000
0000
0000
0000
0000
0000
1000
0000
0000
0000
0000
0000
0000
0000
1000
0000
0000
0000
0000
0000
0000
0000
1000
0000
0000
0000
0000
0000
0000
0000
0000
0000
1000
0000
0000
0000
0000
0000
0000
0000
0000
0000
1000
0000
0000
0000
0000
0000
0000
0000
0000
0000
0000
1000
,
0000
0000
0000
0000
0000
0000
0000
0000
0000
0000
0000
1000
0000
0000
0000
0000
0000
0000
0000
0000
0000
0000
0000
0000
0000
1000
0000
0000
0000
0000
0000
0000
0000
0000
0000
0000
0000
0000
0000
0000
0000
0000
0000
0000
0000
0000
0000
0000
0000
0000
0000
0000
0000
0000
0000
1000
0000
0000
0000
0000
0000
0000
0000
0000
,
0000
0000
0000
0000
0000
0000
0000
0000
0000
0000
0000
0000
0000
0000
0000
0000
0000
0000
0000
0000
0000
1000
0000
0000
0000
0000
0000
0000
0000
0000
0000
0000
0000
0000
0000
0000
0000
0000
0000
0000
0000
0000
0000
0000
0000
0000
0000
0000
0000
0000
0000
1000
0000
0000
0000
0000
0000
0000
0000
0000
0000
0000
0000
0000
,
0000
0000
0000
0000
0000
0000
0000
0000
0000
0000
0000
0000
0000
0000
0000
0000
0000
1000
0000
0000
0000
0000
0000
0000
0000
0000
0000
0000
0000
0000
0000
0000
0000
0000
0000
0000
0000
0000
0000
0000
0000
0000
0000
0000
0000
0000
0000
0000
0000
0000
0000
0000
0000
0000
0000
0000
0000
0000
0000
0000
0000
0000
0000
0000
;
