#TITLE:Moon child;
#SUBTITLE:;
#ARTIST:Shonon Radio;
#TITLETRANSLIT:;
#SUBTITLETRANSLIT:;
#ARTISTTRANSLIT:;
#CREDIT:;
#BANNER:moon child-bn.png;
#BACKGROUND:moon child-bg.png;
#LYRICSPATH:;
#CDTITLE:;
#MUSIC:Moon_Child.mp3;
#OFFSET:-0.070;
#SAMPLESTART:1.000;
#SAMPLELENGTH:12.000;
#SELECTABLE:YES;
#BPMS:0.000=148.000,22.000=156.000,38.000=160.000,291.000=156.000;
#STOPS:;
#BGCHANGES:;
// cache tags:
#FIRSTBEAT:4.500;
#LASTBEAT:311.000;
#SONGFILENAME:Songs/IzzySM Keyboard Mega Pack/moon child/dfhkn.sm;
#HASMUSIC:1;
#HASBANNER:1;
#MUSICLENGTH:128.711;
// end cache tags

//---------------dance-single - ----------------
#NOTES:
     dance-single:
     :
     Hard:
     10:
     0.711,0.906,0.412,0.140,0.455,570.000,53.000,18.000,0.000,0.000:  // measure 1
0000
0000
0000
0000
,  // measure 2
0000
1001
0000
0000
0000
1000
0100
0010
,  // measure 3
0100
0010
0000
0000
0000
0001
0100
0010
,  // measure 4
0001
0010
0000
0000
0000
1000
0100
1000
,  // measure 5
0010
0000
1000
0000
0000
0000
0000
0000
0000
0000
0001
0000
1000
0000
0010
0100
,  // measure 6
0010
0100
0001
0100
0010
0000
0010
0000
,  // measure 7
0000
0100
0000
0001
,  // measure 8
1000
0001
0000
0000
2002
0000
0000
3003
,  // measure 9
0000
0000
1001
0000
,  // measure 10
0100
0000
1000
0000
1000
0001
1000
0001
,  // measure 11
1000
0010
1000
0010
1000
0100
0010
0001
,  // measure 12
0100
0010
0100
0001
0010
0100
1000
0100
,  // measure 13
1000
0010
1000
0001
0010
0100
0100
0100
,  // measure 14
0100
1000
0100
0010
0001
0000
0000
0000
1001
0000
0000
0000
0100
0000
0000
0000
,  // measure 15
0011
0100
1010
0100
,  // measure 16
0011
0100
1001
0110
,  // measure 17
1001
0000
0110
0000
1000
0100
1000
0010
,  // measure 18
0100
0010
1000
0010
0100
0000
0000
0000
1000
0100
1000
0100
1000
0001
0010
0001
,  // measure 19
0010
0100
0010
0100
0010
0001
1000
0001
1000
0000
0000
0000
0000
0000
0000
0000
,  // measure 20
1001
0000
0000
0000
1100
0000
0000
0000
0001
0100
0001
0010
0001
1000
0100
0010
,  // measure 21
0100
1000
0100
0010
0001
0010
0100
1000
0100
0000
0000
0000
0000
0000
0000
0000
,  // measure 22
1001
0000
0000
0000
0011
0000
0000
0000
0100
0001
0100
0010
0100
0001
0010
0001
,  // measure 23
0010
0001
0010
0001
0010
0100
1000
0100
1000
0000
0000
0000
0000
0000
0000
0000
,  // measure 24
1100
0000
0011
0000
1100
0010
1100
1000
,  // measure 25
1001
1000
1001
1000
1100
0000
1001
0000
,  // measure 26
0110
2000
0000
3000
0000
0000
1001
0000
,  // measure 27
1001
0000
1000
0100
0010
0100
0020
0000
,  // measure 28
0031
0001
0001
0000
0100
1000
0100
0000
,  // measure 29
0001
0010
0001
0001
0001
0100
0002
0000
,  // measure 30
1003
1000
1000
0000
0001
0100
0001
0000
,  // measure 31
0100
0010
0200
0000
0301
0001
0010
0002
,  // measure 32
0000
0000
0103
0000
0100
0100
0001
0200
,  // measure 33
0000
0000
1300
1000
1000
0001
1000
0001
,  // measure 34
1000
1001
0110
1010
,  // measure 35
0110
0000
0000
0000
0100
1000
0100
0000
0010
0000
0001
0000
1000
0001
1000
0000
,  // measure 36
0100
0000
0010
0000
1001
0000
1000
0100
1000
0000
1000
0010
1000
0000
1000
0001
,  // measure 37
1000
0100
0010
0100
1000
0000
0010
0001
0010
0000
0010
0100
0010
0000
0010
0001
,  // measure 38
0010
0100
1000
0100
0010
0000
0010
0001
0010
0000
0010
0100
0010
0000
0001
1000
,  // measure 39
0001
0100
0001
0010
0002
0000
0000
0000
0000
0000
1003
0001
1000
0000
0010
0000
,  // measure 40
0100
0000
0001
0000
0010
0000
0000
0000
0100
1000
0100
1000
0100
0000
0001
0010
,  // measure 41
0100
0000
1000
0000
0010
0000
1000
0000
0010
0100
0001
0100
0010
0000
0100
1000
,  // measure 42
0100
0000
1000
0000
0001
0010
0100
1000
0001
1000
0100
0010
0001
1000
0001
0010
,  // measure 43
0100
1000
0001
1000
0001
0000
0000
0000
0000
0000
1001
0000
0000
0000
1100
0000
,  // measure 44
0000
0000
0000
0000
1000
0000
0100
0010
0100
0000
0001
0000
0010
0100
0010
0000
,  // measure 45
1000
0000
0010
0100
0010
0000
0000
0000
1000
0000
0000
0000
0010
0000
0000
0000
,  // measure 46
0100
0000
0000
0000
0001
0000
1000
0001
1000
0000
0010
0000
0001
1000
0001
0000
,  // measure 47
0010
0000
1000
0001
1000
0000
0000
0000
0100
0000
0000
0000
0010
0000
0000
0000
,  // measure 48
0100
0000
1000
0100
0010
0001
0000
1100
,  // measure 49
0000
0000
0100
0001
0100
0010
0000
1001
,  // measure 50
0000
0000
0000
1000
0100
0001
0100
1000
0010
0100
0001
0010
,  // measure 51
1000
0010
0001
0010
0000
0000
1100
0000
0000
0110
0000
0000
,  // measure 52
0011
1001
0001
0001
,  // measure 53
0010
0000
0000
0000
0010
0000
1000
0000
0010
0000
1000
0000
0010
0100
0001
0100
,  // measure 54
0010
0000
2000
0000
3100
0010
0001
0100
,  // measure 55
0010
1000
0200
0000
0301
1000
0001
0100
,  // measure 56
0001
0010
0002
0000
0103
1000
0100
1000
,  // measure 57
0010
1000
0001
0010
0100
1000
0010
0100
,  // measure 58
0001
0010
0200
0000
1300
0010
0100
0001
,  // measure 59
0010
0100
2000
0000
3010
0100
0001
0010
,  // measure 60
0001
1000
0200
0000
0310
0100
0001
0100
,  // measure 61
0010
0100
1000
0100
0010
0001
0010
0100
,  // measure 62
1000
0000
0100
0000
1000
0100
1000
0000
0100
0000
0010
0000
0001
0010
0001
0000
,  // measure 63
0010
0000
1000
0000
0100
0010
0100
0000
0010
0000
0001
0000
0100
1000
0100
1000
,  // measure 64
0100
0010
0001
0010
1100
0000
0010
0000
0101
0000
0010
0000
1100
0000
0010
0000
,  // measure 65
0101
0010
1001
0100
1001
0010
1001
0100
,  // measure 66
1001
0000
0110
0000
1001
0000
0000
0000
1000
0100
0010
0001
0010
0000
1000
0000
,  // measure 67
0100
0000
0010
0000
0001
0000
0010
0100
1000
0100
0010
0100
0010
0001
0010
0100
,  // measure 68
0010
0100
1000
0100
1000
0100
0010
0001
1000
0001
0010
0100
1000
0001
1000
0100
,  // measure 69
0010
0001
0010
0100
2000
0000
0000
0000
3010
0000
0000
0000
1000
0000
0001
0000
,  // measure 70
0100
0000
0010
0000
0100
1000
0100
0000
0001
0010
0001
0000
1000
0100
1000
0000
,  // measure 71
0010
0100
0010
0000
1000
0000
0010
0000
0100
0000
0001
0000
0010
0000
0100
0000
,  // measure 72
1000
0000
0100
0000
0100
1000
0100
1000
0010
1000
0010
1000
0001
1000
0001
1000
,  // measure 73
0010
0100
0010
0100
0010
0001
0010
0100
1000
0001
0010
0100
2000
0000
0000
0000
,  // measure 74
3000
1001
0000
0000
,  // measure 75
0100
0011
0000
0000
,  // measure 76
0100
1010
0000
0000
,  // measure 77
1000
0110
1000
0010
,  // measure 78
0100
0002
0000
0003
;

//---------------dance-single - ----------------
#NOTES:
     dance-single:
     :
     Challenge:
     12:
     1.000,1.000,1.000,0.062,0.859,754.000,183.000,8.000,0.000,0.000:  // measure 1
0000
0000
0000
0000
,  // measure 2
0000
1001
0000
0000
1000
0100
0010
0001
,  // measure 3
0010
0100
0000
0000
1001
0100
0010
0100
,  // measure 4
0001
0010
0000
0000
1100
0001
0010
0100
,  // measure 5
0010
0000
0001
0000
0000
0000
0000
0000
1100
0000
0010
0000
0001
0000
0010
0100
,  // measure 6
0010
0001
0001
0001
1001
0100
1000
0010
,  // measure 7
0100
0001
0010
0100
1000
0100
0010
0001
,  // measure 8
0010
1000
0100
0002
1000
1000
1000
1000
,  // measure 9
1003
0100
0010
0001
1200
0000
0000
0000
,  // measure 10
0301
0000
0010
0000
1001
0100
0011
0100
,  // measure 11
1010
0100
0011
0100
1001
0100
1001
0010
,  // measure 12
1100
0010
0101
0010
1100
0010
0011
0010
,  // measure 13
1100
0001
0110
1000
0011
1000
1000
1000
,  // measure 14
0010
0100
1000
0010
0001
0000
1000
0000
1001
0000
0000
0000
0011
0000
0000
0000
,  // measure 15
1100
0110
1001
0110
,  // measure 16
1100
0000
1001
0000
0110
0110
1001
1001
,  // measure 17
0011
0011
1100
1100
1001
0010
1001
0100
,  // measure 18
0011
0100
1000
0100
0011
0100
1000
0010
1100
0001
1100
0010
1100
0001
1100
0010
,  // measure 19
1100
0010
0101
0010
1100
0010
0101
0010
1100
0000
0001
0000
0100
0000
0010
0000
,  // measure 20
1000
0000
0010
0000
0100
0000
0010
0000
1001
0010
1001
0100
1001
0010
1001
0010
,  // measure 21
1100
0010
0101
0010
1100
0010
0101
0010
1100
0000
0010
0000
0001
0000
0010
0000
,  // measure 22
1000
0000
0010
0000
0100
0000
0010
0000
0011
0100
0011
1000
0011
0100
0011
0100
,  // measure 23
1010
0100
0011
0100
1010
0100
0011
1000
0011
0000
1000
0000
0010
0000
0100
0000
,  // measure 24
0001
0000
0010
0000
0100
0000
1000
0000
0110
0001
0110
1000
0110
0001
1100
0010
,  // measure 25
1100
0001
1010
0001
1100
0010
1001
0100
0011
0000
1000
0000
0010
0000
0100
0000
,  // measure 26
0001
0010
0002
0000
0000
0000
0000
0000
0000
0000
0000
0000
1000
0000
0000
0000
,  // measure 27
1003
0000
1100
0110
0011
0110
1100
1010
,  // measure 28
0110
0011
0101
0110
1001
0110
1100
0010
,  // measure 29
0100
0011
1100
0010
0100
0001
0010
1100
,  // measure 30
0110
1001
1001
0100
1000
0010
0100
0001
,  // measure 31
0010
1100
1010
0100
0001
0010
0100
1100
,  // measure 32
0110
1001
1001
0010
0100
0001
0010
1100
,  // measure 33
1010
0101
0110
1000
0010
0100
0001
0110
,  // measure 34
0110
1010
0101
0000
1001
0000
0110
0000
,  // measure 35
0011
0000
0000
0000
0100
1000
0100
0000
0010
0000
0001
0000
0010
0100
0010
0000
,  // measure 36
1000
0000
0110
0000
1001
0000
0100
0010
0100
0000
0100
0001
0100
0000
0100
0010
,  // measure 37
0100
1000
0100
0010
0001
0000
0001
1000
0001
0000
0001
0100
0001
0000
0001
0010
,  // measure 38
0001
0010
0100
1000
0100
0000
0100
1000
0100
0000
0100
0010
0100
0000
0100
0010
,  // measure 39
0001
0000
0010
0000
0100
0000
0010
0000
1001
0000
0000
0000
0000
0000
0000
0000
0000
0000
0000
0000
0001
0010
0100
1000
0001
0000
0000
0000
1001
0000
0000
0000
,  // measure 40
1001
0000
0000
0000
0110
0000
0000
0000
0101
0000
0000
0000
0000
0000
0000
0000
0100
0000
1000
0000
0010
0000
0001
0000
0100
0000
0000
0000
0001
0010
0100
1000
,  // measure 41
0001
0000
0000
0000
0110
0000
0000
0000
0101
0000
0000
0000
0110
0000
0000
0000
1000
0000
0100
0000
0010
0000
0100
0000
0001
0000
0000
0000
1000
0100
0010
0001
,  // measure 42
1000
0000
1001
0000
1000
0010
0100
0001
1000
0010
0100
0001
0010
0100
0010
0100
,  // measure 43
1000
0100
0010
0100
0020
0000
0000
0000
0030
0000
1001
0000
0000
0000
0110
0000
,  // measure 44
0000
0000
0000
0000
1001
0000
0010
0100
0010
0000
1001
0000
0100
0010
0100
0000
,  // measure 45
1001
0000
0110
0000
1001
0010
0100
1000
0100
0010
0100
0010
1001
0000
0000
0000
,  // measure 46
1001
0000
0000
0000
1100
0000
0010
0001
0010
0000
1100
0000
0010
0100
0010
0000
,  // measure 47
1100
0000
0011
0000
0110
1000
0100
0010
0001
0010
0100
0010
1001
0000
0000
0000
,  // measure 48
1100
0000
0000
0000
0001
0010
0100
1000
0100
0010
0001
0000
0000
0000
1100
0000
,  // measure 49
0000
0000
1001
0100
0010
0100
0010
0001
0010
0000
1100
0000
0000
0000
1001
0000
,  // measure 50
0000
0000
0000
1000
0001
1000
0010
0001
0010
0100
1000
0100
,  // measure 51
0010
0100
0010
1100
0010
0001
1010
0100
0010
1001
0100
0010
,  // measure 52
1001
0000
0010
0000
0100
0000
1001
0000
0000
0100
0000
0000
0001
0000
0000
0010
0000
0000
0100
0000
0000
1000
0000
0000
,  // measure 53
0010
0000
0100
0000
1010
0000
0001
0000
1010
0000
0100
0000
0010
0100
0010
0100
,  // measure 54
0011
0000
0100
0000
0002
0000
0000
0000
0103
1000
0100
0010
0100
0000
1001
0000
,  // measure 55
0100
0000
1001
0000
0110
0000
0000
0000
1000
0100
0010
0001
0010
0000
1100
0000
,  // measure 56
0110
0000
1001
0000
0110
0000
0000
0000
0001
0100
1000
0100
0001
0000
1000
0000
,  // measure 57
0100
1000
0010
0100
0001
1000
0010
0100
,  // measure 58
0010
0000
0001
0000
1200
0000
0000
0000
0310
0100
0010
1000
0010
0000
1100
0000
,  // measure 59
0110
0000
0011
0000
0110
0000
0000
0000
0100
1000
0010
0001
0100
0000
1010
0000
,  // measure 60
0110
0000
1001
0000
0110
0000
0000
0000
0010
0001
0100
1000
0010
0000
0100
0000
,  // measure 61
1000
0010
0100
0001
1000
0010
0100
0010
,  // measure 62
1001
0000
0110
0000
1000
0100
0010
0001
1000
0010
0100
0001
1000
0100
0010
0001
,  // measure 63
1000
0010
0100
0001
0100
0010
0100
0010
1000
0100
0010
0100
1001
0010
0100
0010
,  // measure 64
1000
0100
0010
0100
1001
0100
0010
0100
0011
0100
0010
0100
1010
0100
0010
0100
,  // measure 65
0011
0100
0010
0100
1010
0100
0010
0100
1001
0010
0100
0010
1001
0100
0010
0100
,  // measure 66
1010
0000
0100
0000
0010
0000
0001
0000
1010
0000
0000
0000
0001
0000
0010
0000
0100
0000
0010
0000
0001
0000
0010
0000
0100
1000
0100
0010
0001
0000
0010
0000
,  // measure 67
0100
1000
0100
0010
0001
0010
0001
0010
0100
1000
0100
0010
0001
1000
0100
0010
,  // measure 68
0001
0000
0010
0100
1000
0100
0010
0000
0001
0000
0010
0000
0001
0000
0010
0000
0100
0000
1000
0000
0100
0000
1000
0000
0100
0000
0010
0000
0100
0000
0010
0000
,  // measure 69
0001
0000
0010
0000
0001
0000
0010
0000
0200
0000
0000
0000
0000
0000
0000
0000
0000
0000
0000
0000
0301
0010
0100
1000
0001
0000
0100
0000
0001
0000
0010
0000
,  // measure 70
1000
0100
0001
0010
0001
0000
1000
0100
1000
0000
0010
0100
0010
0000
0001
0010
,  // measure 71
0001
0000
0000
0000
1000
0100
0010
0001
0100
0000
0010
0000
1000
0000
0001
0000
1000
0000
0010
0000
0100
0000
1000
0000
0100
0000
0010
0000
0100
0000
0001
0000
,  // measure 72
1000
0001
0100
0010
1000
0001
1000
0010
0100
0001
1000
0001
0100
0010
1000
0100
,  // measure 73
0001
0100
1000
0010
0001
0010
1000
0100
0011
0100
1000
0100
0100
0000
0000
0000
,  // measure 74
0000
0000
1001
0100
0100
0100
0100
0100
,  // measure 75
0100
1001
0110
0010
0010
0010
0010
0010
,  // measure 76
0010
0100
1001
0000
0000
0000
0000
0000
,  // measure 77
1000
0000
0000
1000
0100
0000
0000
0000
0001
0000
0000
0001
0010
0000
0000
0000
,  // measure 78
0100
0000
0000
0100
0020
0000
0000
0000
0000
0000
0000
0000
0030
0000
0000
0000
;
