#TITLE:Speedcore Sunday;
#SUBTITLE:-preview-;
#ARTIST:Interrupt Vector;
#TITLETRANSLIT:;
#SUBTITLETRANSLIT:;
#ARTISTTRANSLIT:;
#CREDIT:;
#BANNER:Speedcore Sunday BN.png;
#BACKGROUND:Speedcore Sunday BG.png;
#LYRICSPATH:;
#CDTITLE:MdX CDTitle.png;
#MUSIC:Speedcore Sunday.ogg;
#OFFSET:-2.431;
#SAMPLESTART:17.994;
#SAMPLELENGTH:16.200;
#SELECTABLE:YES;
#DISPLAYBPM:200.000:400.000;
#BPMS:0.000=400.000,4.000=200.000,4.500=400.000,6.500=200.000,7.000=100.000,7.250=400.000,9.250=100.000,9.500=200.000,10.000=400.000,17.000=200.000,17.500=400.000,19.500=200.000,20.000=100.000,20.250=400.000,22.250=100.000,22.500=200.000,23.000=400.000,36.250=800.000,44.250=400.000,56.250=800.000,64.250=400.000,68.250=200.000,68.750=800.000,70.750=200.000,71.250=800.000,73.250=200.000,73.750=800.000,75.750=200.000,76.250=800.000,78.250=200.000,78.750=800.000,80.750=200.000,81.250=800.000,91.250=400.000,97.250=800.000,99.250=400.000,105.250=800.000,109.250=400.000,114.500=200.000,115.000=400.000,116.000=200.000,116.500=400.000,122.250=800.000,126.250=400.000,131.500=200.000,132.000=400.000,133.000=200.000,133.500=400.000,139.250=800.000,143.250=400.000,148.500=200.000,149.000=400.000,150.000=200.000,150.500=400.000,156.250=800.000,160.250=400.000,161.250=200.000,193.250=400.000,207.250=100.000,207.750=400.000,220.000=200.000,220.500=400.000,221.500=200.000,222.000=400.000,222.750=200.000,254.750=400.000,268.750=100.000,269.250=400.000,281.500=200.000,282.000=400.000,283.000=200.000,283.500=400.000,298.250=100.000,298.750=400.000,311.000=200.000,311.500=400.000,312.500=200.000,313.000=400.000,314.000=200.000,314.500=400.000,315.500=170.000,316.250=200.000,321.000=400.000,321.500=200.000,323.250=400.000,323.750=200.000,324.500=400.000,325.000=200.000,344.250=799.992,347.250=100.000,348.000=399.991,349.000=200.000,355.000=205.015,358.000=210.015,361.000=220.000,361.750=225.000,362.750=230.000,365.500=230.000,368.250=240.000,369.000=260.000,370.000=280.000,374.000=284.999,379.500=290.000,380.500=320.000,385.500=330.000,386.500=360.000,392.000=400.000,393.000=409.999,396.000=419.999,401.000=400.000,509.000=200.000,509.500=400.000,510.500=200.000,511.000=400.000,513.750=800.000,517.750=400.000,534.000=200.000,534.250=400.000,535.250=200.000,535.750=400.000,639.000=200.000,735.000=400.000,737.000=800.000,741.000=400.000,743.250=200.000,743.750=400.000,744.750=200.000,745.250=400.000,750.250=200.000,750.500=400.000,751.500=200.000,752.000=400.000,793.250=799.992,797.250=400.000,799.500=200.000,800.000=400.000,801.000=200.000,801.500=400.000,806.500=200.000,806.750=400.000,807.750=200.000,808.250=400.000,847.500=200.000,863.500=400.000,895.500=200.000,911.000=799.991,915.500=100.000;
#STOPS:25.000=2.063
,537.125=0.037
,537.375=0.038
,537.625=0.037
,537.875=0.038
,538.125=0.037
,538.375=0.038
,538.625=0.037
,538.875=0.038
,539.125=0.037
,539.375=0.038
,539.625=0.037
,539.875=0.038
,540.125=0.037
,540.375=0.038
,540.625=0.037
,540.875=0.038
,541.125=0.037
,541.375=0.038
,541.625=0.037
,541.875=0.038
,542.125=0.037
,542.375=0.038
,542.625=0.037
,542.875=0.038
,735.125=0.037
,735.375=0.038
,735.625=0.037
,735.875=0.038
,736.125=0.037
,736.375=0.038
,736.625=0.037
,736.875=0.038
,753.375=0.037
,753.625=0.038
,753.875=0.037
,754.125=0.038
,754.375=0.037
,754.625=0.038
,754.875=0.037
,755.125=0.038
,755.375=0.037
,755.625=0.038
,755.875=0.037
,756.125=0.038
,756.375=0.037
,756.625=0.038
,756.875=0.037
,757.125=0.038
,757.375=0.037
,757.625=0.038
,757.875=0.037
,758.125=0.038
,758.375=0.037
,758.625=0.038
,758.875=0.037
,759.125=0.038
,791.375=0.037
,791.625=0.038
,791.875=0.037
,792.125=0.038
,792.375=0.037
,792.625=0.038
,792.875=0.037
,793.125=0.038
,809.625=0.037
,809.875=0.038
,810.125=0.037
,810.375=0.038
,810.625=0.037
,810.875=0.038
,811.125=0.037
,811.375=0.038
,811.625=0.037
,811.875=0.038
,812.125=0.037
,812.375=0.038
,812.625=0.037
,812.875=0.038
,813.125=0.037
,813.375=0.038
,813.625=0.037
,813.875=0.038
,814.125=0.037
,814.375=0.038
,814.625=0.037
,814.875=0.038
,815.125=0.037
,815.375=0.038
,863.625=0.037
,863.875=0.038
,864.125=0.037
,864.375=0.038
,864.625=0.037
,864.875=0.038
,865.125=0.037
,865.375=0.038
,865.625=0.037
,865.875=0.038
,866.125=0.037
,866.375=0.038
,866.625=0.037
,866.875=0.038
,867.125=0.037
,867.375=0.038
,867.625=0.037
,867.875=0.038
,868.125=0.037
,868.375=0.038
,868.625=0.037
,868.875=0.038
,869.125=0.037
,869.375=0.038
,869.625=0.037
,869.875=0.038
,870.125=0.037
,870.375=0.038
,870.625=0.037
,870.875=0.038
,871.125=0.037
,871.375=0.038
,871.625=0.037
,871.875=0.038
,872.125=0.037
,872.375=0.038
,872.625=0.037
,872.875=0.038
,873.125=0.037
,873.375=0.038
,873.625=0.037
,873.875=0.038
,874.125=0.037
,874.375=0.038
,874.625=0.037
,874.875=0.038
,875.125=0.037
,875.375=0.038
,875.625=0.037
,875.875=0.038
,876.125=0.037
,876.375=0.038
,876.625=0.037
,876.875=0.038
,877.125=0.037
,877.375=0.038
,877.625=0.037
,877.875=0.038
,878.125=0.037
,878.375=0.038
,878.625=0.037
,878.875=0.038
,879.125=0.037
,879.375=0.038
,879.625=0.037
,879.875=0.038
,880.125=0.037
,880.375=0.038
,880.625=0.037
,880.875=0.038
,881.125=0.037
,881.375=0.038
,881.625=0.037
,881.875=0.038
,882.125=0.037
,882.375=0.038
,882.625=0.037
,882.875=0.038
,883.125=0.037
,883.375=0.038
,883.625=0.037
,883.875=0.038
,884.125=0.037
,884.375=0.038
,884.625=0.037
,884.875=0.038
,885.125=0.037
,885.375=0.038
,885.625=0.037
,885.875=0.038
,886.125=0.037
,886.375=0.038
,886.625=0.037
,886.875=0.038
,887.125=0.037
,887.375=0.038
,887.625=0.037
,887.875=0.038
,888.125=0.037
,888.375=0.038
,888.625=0.037
,888.875=0.038
,889.125=0.037
,889.375=0.038
,889.625=0.037
,889.875=0.038
,890.125=0.037
,890.375=0.038
,890.625=0.037
,890.875=0.038
,891.125=0.037
,891.375=0.038
,891.625=0.037
,891.875=0.038
,892.125=0.037
,892.375=0.038
,892.625=0.037
,892.875=0.038
,893.125=0.037
,893.375=0.038
,893.625=0.037
,893.875=0.038
,894.125=0.037
,894.375=0.038
,894.625=0.037
,894.875=0.038
,895.125=0.037
,895.375=0.038
,911.000=0.720
,911.250=0.581
;
#BGCHANGES:;
// cache tags:
#FIRSTBEAT:0.000;
#LASTBEAT:915.500;
#SONGFILENAME:Songs/hard shit/Speedcore Sunday (for R21)/Speedcore Sunday.sm;
#HASMUSIC:1;
#HASBANNER:0;
#MUSICLENGTH:105.000;
// end cache tags

//---------------dance-single - ----------------
#NOTES:
     dance-single:
     :
     Challenge:
     10:
     1.000,1.000,1.000,0.914,1.000,1260.000,122.000,96.000,0.000,0.000:
1000
0100
1000
0000
0001
0100
0001
0000
,
1000
0000
0001
0000
0000
0000
0010
0000
0100
0000
0010
0000
0002
1000
0000
0000
,
0000
0203
0000
0000
0000
0301
1000
0000
0010
0000
0100
0000
0010
0000
0000
0000
,
1001
0000
0001
0010
0001
0000
1000
0010
,
1000
0000
0001
1000
0000
0100
0010
0100
,
2000
0001
0000
0000
0000
3020
0000
0000
0000
1030
0001
0000
0100
0000
0010
0000
,
0100
0000
0000
0000
1001
1000
0000
0000
0000
1000
0000
0000
0000
1000
0000
0000
,
0000
1001
0000
0000
0000
0001
0000
0000
0000
0100
0000
0000
0000
1000
0000
0000
,
0000
1001
0000
0000
0000
1000
0000
0000
0000
0100
0000
0000
0000
0001
0000
0000
,
0000
2002
0000
0000
0000
0000
0000
0000
0000
0000
0000
0000
0000
0000
0000
0000
,
0000
0000
0000
0000
0000
0000
0000
0003
,
0000
3100
0000
0001
0000
1000
0000
0000
0000
0010
0000
0000
0000
0110
0000
0000
,
0000
0100
0000
0000
0000
0100
0000
0000
0000
0001
0000
0100
0000
0001
0000
0000
,
0000
0100
0000
0000
0000
0100
0000
0000
0000
1000
0000
0100
0000
1000
0000
0000
,
0000
2002
0000
0000
0000
0000
0000
0000
0000
0000
0000
0000
0000
0000
0000
0000
,
0000
0000
0000
0000
0000
0000
0000
0000
0000
0000
0000
0000
0000
0000
0000
3003
,
0000
0110
0000
0000
0000
0010
0000
0000
0000
0120
0000
0000
0000
0130
0000
0000
,
0000
1000
0000
0002
0000
0000
0000
0000
0000
0000
0000
1003
0000
0002
0000
0000
,
0000
0000
0000
0000
0000
2003
0000
0001
0000
0000
0000
0000
0000
3000
0000
2000
,
0000
0001
0000
0000
0000
0000
0000
3000
0000
1000
0000
0002
0000
0000
0000
0000
,
0000
0000
0000
1003
0000
2002
0000
0000
0000
0000
0000
0000
0000
0000
0000
0000
,
0000
0000
0000
0000
,
0000
0000
0000
0000
0000
0003
0000
0000
0000
0000
0000
0000
0000
3010
0000
0000
,
0000
1000
0000
0000
0000
0010
0000
0000
0000
1000
0000
0000
0000
0100
0000
0001
,
0000
0100
0000
0000
0000
2001
0000
0000
0000
0000
0000
0000
3000
0010
0000
1000
,
0000
0010
0000
0000
0000
0100
0000
0000
0000
0001
0000
0000
0000
0010
0000
0000
,
0000
1000
0000
0000
0000
0001
0000
0000
0000
2000
0000
0000
0000
0002
0000
0000
,
0000
0000
0000
3000
0000
0103
0000
0000
0000
1000
0000
0000
0000
0010
0000
0000
,
0000
0100
0000
0000
0000
0001
0000
0000
0000
2001
0000
0000
0000
0000
3000
1002
,
0000
0000
0000
0000
0003
1000
0000
0000
0000
0100
0000
0000
0000
0010
0000
0000
,
0000
0001
0000
0000
0000
1000
0000
0000
0000
0001
0000
0000
0000
0100
0000
0000
,
0000
0001
0000
0000
0000
0100
0000
0000
0000
0001
0000
0000
0000
1000
0000
0000
,
0000
1000
0000
0000
0000
0001
0000
0000
0000
0001
0000
0000
0000
0210
0000
0000
,
0000
0000
0300
0120
0000
0000
0000
0000
0030
0001
0000
0000
0000
0100
0000
0000
,
0000
0001
0000
0000
0000
0010
0000
0000
0000
1000
0000
0000
0000
0010
0000
0000
,
0000
0100
0000
0000
0000
0010
0000
0000
0000
0100
0000
0000
0000
0010
0000
0000
,
0000
1000
0000
0000
0000
0010
0000
0000
0000
0001
0000
0000
0000
0010
0000
0000
,
0000
1200
0000
0000
0000
0000
0300
0021
0000
0000
0000
0000
0030
1000
0000
0001
,
0000
1000
0000
0000
0000
0010
0000
0000
0000
0100
0000
0000
0000
0001
0000
0000
,
0000
1000
0000
0000
0000
0100
0000
0000
0000
1000
0000
0000
0000
0010
0000
0000
,
0000
1000
0000
0000
0000
0001
0000
0000
0000
1001
0000
0010
0000
0000
0000
0100
,
0000
1001
0000
0010
0000
1001
0000
1000
0000
1000
0000
1001
0000
0001
0000
0000
,
0000
1001
0000
0001
0000
1000
0000
0000
0000
1001
0000
0100
0000
0000
0000
0010
,
0000
1001
0000
0100
0000
1001
0000
0001
0000
0001
0000
1001
0000
1000
0000
0000
,
0000
1001
0000
1000
0000
0002
0000
0013
0000
1000
0000
0001
0000
0110
0000
1000
,
0000
0100
0000
0002
0000
1003
0000
0010
0000
0100
0000
1000
0000
0001
0000
0010
,
0000
1000
0000
0200
0000
0301
0000
0010
0000
0001
0000
1000
0001
1000
0000
0100
,
0000
0001
0000
2000
0000
3010
0000
0100
0000
0010
0000
0001
0010
0001
0000
1000
,
0000
0100
0000
1000
0000
0101
0000
0000
0000
0010
0000
0000
0000
1000
0000
0000
,
0000
0010
0000
0000
0000
1010
0000
0000
0000
0100
0000
0000
0000
0001
0000
0000
,
0000
0000
0000
0100
0000
0000
0000
0000
0000
0000
0000
0000
0000
0000
0000
1100
0000
0000
0000
0000
0000
0000
0000
0000
0000
0000
0000
0010
0000
0000
0000
0000
0000
0000
0000
0000
0000
0000
0000
0001
0000
0000
0000
0000
0000
0000
0001
0000
,
0000
0010
0000
0000
0000
0011
0000
0000
0000
0100
0000
0000
0000
1000
0000
1001
,
0000
0000
0000
0100
0000
0000
0000
0010
0000
0000
0000
0100
0000
0000
0000
1001
,
0000
0000
0000
0010
0000
0000
0000
0100
0000
0000
0000
0010
0000
0000
0000
1000
,
0000
0001
0000
1000
0000
0001
0000
0100
0000
0001
0000
0100
0000
0010
0000
2010
,
0000
0000
0000
0000
3000
0102
0000
0000
0000
0000
0003
1000
0000
0001
0000
1000
,
0000
0001
0100
0001
0000
0010
0000
1000
0000
0001
0000
0100
0000
0010
0000
0100
,
0000
0001
0100
0001
0000
1000
0000
0010
0000
0100
0000
1000
0001
1000
0000
0001
,
0000
0100
1000
0100
0000
0010
0000
1000
0000
0001
0000
1000
0100
1000
0000
0100
,
0000
0010
0001
0010
0000
0100
0000
0001
0000
1000
0000
0010
1000
0100
0000
1000
,
0000
0010
0001
0100
0000
0001
0000
1000
0000
0001
0000
1000
0100
0001
0000
1000
,
0000
0001
0010
1000
0000
0001
0000
1000
0000
0100
0000
0010
1000
0010
0000
0100
,
0000
0100
0001
0100
0000
0010
0000
0100
0000
0110
0000
1000
0001
1000
0000
0001
,
0000
0001
1000
0001
0000
1000
0000
1001
0000
0110
0000
1000
0000
0100
0000
1000
,
0000
0000
0000
0001
0000
0000
0000
1000
0000
0000
0000
0001
0000
0100
0000
0001
,
0000
0000
0000
1000
0000
0000
0000
0001
0000
0000
0000
1000
0000
0010
0000
1000
,
0000
0000
0000
0000
0000
0000
0000
0000
0000
0010
0000
0000
0000
0000
0000
0000
0010
0000
0000
0000
0000
0100
0000
0000
0000
0000
0000
0001
0000
0000
0000
0000
0000
0100
0000
0000
0000
0000
0000
0000
0000
0000
0000
0000
0000
0010
0000
0000
,
0000
0000
0000
0110
0000
1000
0000
0100
0000
1000
0000
0000
0000
0001
0000
0100
,
0000
0001
0000
0000
0000
1000
0000
0010
0000
1000
0000
0000
0000
0001
0000
0010
,
0000
0001
0000
0000
0000
1000
0000
0001
0000
1000
0000
0001
0000
0100
0000
0010
,
0000
0100
0000
0010
0000
0210
0000
0000
0000
0000
0300
0120
0000
0000
0000
0000
,
0030
1100
0000
0000
0000
0010
0000
0000
0000
0100
0000
0010
0000
0100
0000
0000
,
0000
0011
0000
0000
0000
0100
0000
0000
0000
0010
0000
0100
0000
0010
0000
0000
,
0000
0000
0000
1100
0000
0000
0000
0000
0000
0000
0000
0000
0000
0000
0000
0011
0000
0000
0000
0000
0000
0000
0000
0000
0000
0000
0000
0100
0000
0000
0000
0000
0000
0000
0010
0000
0000
0000
0000
1001
0000
0000
0000
0000
0000
0000
0000
0000
,
0000
0100
0000
0000
0000
0100
0000
0000
0000
0110
0000
0001
0000
0100
0000
0001
,
0000
0000
0000
0010
0000
1000
0000
0100
0000
0000
0000
0001
0000
0010
0000
0001
,
0000
0000
0000
0100
0000
1000
0000
0010
0000
0000
0000
1000
0000
0010
0000
1000
,
0000
0010
0000
0100
0000
0001
0000
0100
0000
0001
0000
1200
0000
0000
0000
0000
,
0300
0102
0000
0000
0000
0000
0003
0120
0000
0000
0000
0000
0030
2001
0000
0000
,
0000
3001
0000
0100
0000
0001
0000
0000
0000
0010
0000
1000
0000
0010
0000
1000
,
0000
0100
0000
1000
0000
0000
0101
0000
0000
0000
0100
0000
0010
0000
0000
1001
,
0000
0000
0110
0000
1000
0001
0100
1000
,
0100
1000
0001
0100
1000
0000
0001
1000
,
0100
0001
1000
0100
0001
1000
0001
0100
,
1000
0001
0100
1000
0001
1000
0010
1000
,
0100
0010
0001
0100
1000
0001
0100
0010
,
1000
0000
0000
0000
0000
0001
0000
0000
0000
1000
0000
0000
0000
0120
0000
0000
,
0030
0000
1001
0000
0100
1000
0100
0001
,
0010
1000
0001
1000
0100
1000
0010
0001
,
1000
0001
1000
0100
1000
0010
0001
0100
,
1000
0000
0001
0000
0100
0000
0001
1000
0000
0010
0000
0100
0000
1000
0000
0001
,
0000
0010
0000
0100
0000
1000
0000
0001
0000
1000
0000
0010
0000
0100
0000
1000
,
0000
0001
0000
0010
0000
1000
0000
0100
0000
0001
0000
1000
0000
0010
0000
0100
,
0000
0001
0000
0010
0000
1000
0000
0001
0000
2000
0000
0000
0000
3001
0000
0100
,
0000
0002
0000
1000
0003
0100
0000
1000
0000
0010
0000
1000
0000
0001
0000
0200
,
0000
0000
0000
0000
0000
0000
0001
0300
0000
0000
0010
0000
0000
0000
0100
0000
0000
0000
0001
0000
0000
0000
0100
0000
0000
0000
1000
0000
0000
0000
0010
0000
,
0000
1000
0000
0001
0000
0100
0000
0002
0000
0000
0000
1003
0000
0000
0000
1000
,
0000
0001
0000
0100
0000
0010
0000
0000
0000
1000
0000
0000
0000
0001
0000
1000
,
0000
0000
0000
0010
0000
0001
0000
1000
0000
0001
0000
0000
0000
0010
0000
0002
,
0000
0000
0003
0100
0000
0000
0000
0001
0000
1000
0000
0100
0000
0001
0000
0000
,
0000
0001
0000
0200
0000
0300
0000
1000
0000
0001
0000
0010
0000
1000
0000
0000
,
0000
0100
0000
0020
0000
0030
0000
0001
0000
1000
0000
0010
0000
0000
0000
0100
,
0000
0000
0000
0002
0000
1003
0000
0000
0000
0001
0000
0100
0000
0001
0000
0000
,
0000
1000
0000
0000
0000
0001
0000
0000
0000
1000
0000
0100
0000
1000
0000
0000
,
0000
0010
0000
0000
0000
1000
0000
0000
0000
0010
0000
0100
0000
0010
0000
0000
,
0000
0001
0000
0000
0000
1000
0000
0000
0000
0001
0000
0100
0000
0000
0000
1000
,
0000
0001
0000
0000
0000
1000
0000
0000
0000
0010
0000
1000
0000
0010
0000
0100
,
0000
0000
0000
0010
0000
0000
0000
0100
0000
0001
0000
0010
0000
0000
0000
1000
,
0000
0001
0000
0000
0000
1000
0000
0000
0000
0010
0000
1000
0000
0010
0000
1000
,
0000
0000
0000
0001
0000
0000
0000
1000
0000
0001
0000
1000
0000
0000
0000
0100
,
0000
0001
0000
0000
0000
1000
0000
0100
0000
1000
0000
0100
0000
0000
0000
0001
,
0000
0000
0000
1000
0000
0000
0000
0010
0000
0100
0000
0010
0000
0000
0000
1000
,
0000
0200
0000
0000
0300
0001
0000
1000
0000
0001
0000
0000
0000
0100
0000
0001
,
0000
0000
0000
0010
0000
0000
0000
0010
0000
0100
0000
0000
0000
0010
0000
1000
,
0000
0002
0000
0000
0003
1000
0000
0010
0000
1000
0000
0000
0000
0001
0000
0010
,
0000
0000
0000
1000
0000
0000
0000
0001
0000
0100
0000
0001
0000
0000
0000
1000
,
0000
0200
0000
0000
0300
0001
0000
0100
0000
0001
0000
0000
0000
1000
0000
0001
,
0000
0000
0000
0100
0000
0000
0000
0010
0000
1000
0000
0000
0000
0001
0000
1000
,
0000
0002
0000
0000
0003
0000
0000
1000
0000
0001
0000
0000
0000
0001
0000
0100
,
0000
0000
0000
0010
0000
0000
0000
0100
0000
1000
0000
0000
0000
0010
0000
0100
,
0000
0010
0000
0000
0000
1000
0000
0100
0000
1000
0000
0000
0000
0001
0000
0010
,
0000
0000
0000
0001
0000
0000
0000
1000
0000
0100
0000
0000
0000
0100
0000
0000
,
0000
2000
0000
0000
0000
3001
0000
0000
0000
1000
0000
0000
0000
0001
0000
0100
,
0000
0000
0000
0001
0000
0000
0000
0010
0000
0100
0000
0000
0000
1000
0000
0000
,
0000
0002
0000
0000
0000
1003
0000
0000
0000
1000
0000
0100
0000
1000
0000
0100
,
0000
0000
0000
0001
0000
0000
0000
1000
0000
0001
0000
0000
0000
0010
0000
0100
,
0000
0020
0000
0000
0000
1030
0000
0001
0000
1000
0000
0010
0000
0100
0000
0010
,
0000
0100
0000
0120
0000
0000
0000
0000
0030
0210
0000
0000
0000
0000
0300
0001
,
0000
0000
0000
0001
0000
0000
0000
1200
0000
0000
0000
0000
0000
0000
0000
0000
,
0000
0000
0000
0000
0300
0000
0000
1000
0000
0000
0000
1000
0000
0000
0000
0001
,
0000
0000
0000
0001
0000
0000
0000
0100
0000
0000
0000
0100
0000
0000
0000
1000
,
0000
0000
0000
1000
0000
0000
0000
0001
0000
0000
0000
0001
0000
0000
0000
0010
,
0000
0000
0000
0010
0000
0000
0000
0100
0000
0000
0000
0100
0000
0000
0000
1000
,
0000
0000
0000
1000
0000
0000
0000
0110
0000
0000
1000
0000
0001
0000
0000
0000
,
0110
0000
0000
0000
1000
0100
1000
0100
1000
0100
1000
0100
0010
0001
0010
0001
,
0010
0001
0010
0001
1000
0001
1000
0001
1000
0001
1000
0001
1000
0000
0000
0000
,
0010
0100
0001
1000
,
0100
0010
0001
1000
,
0001
1000
0100
0001
,
0010
0001
1000
0100
,
1000
0000
0100
1000
0100
0000
0100
0000
,
0001
0000
0100
0001
0100
0000
0010
0000
,
1000
0000
0010
1000
0010
0000
0010
0000
,
0001
0000
0010
0001
0010
0000
1000
0000
,
0100
0000
0010
0001
0010
0000
0001
0000
,
0100
0000
0010
1000
0010
0000
1000
0000
,
0010
0000
0001
0100
0001
0000
0010
0000
,
1000
0000
0100
1000
0100
0001
1000
0000
,
1000
1001
0001
0100
,
0100
0110
0010
0001
,
0001
1001
1000
0010
,
0010
0110
0100
0001
,
0001
1000
1000
0010
,
0010
1000
1000
0001
,
0001
0100
0100
0010
,
0010
1000
1000
0100
,
0100
0010
0010
0100
,
0100
1000
1000
0100
,
0100
0001
0001
0010
,
0010
0000
1000
0001
1000
0001
1001
0000
,
1000
0001
0000
0110
0000
0001
0110
0000
,
0001
1000
0000
0110
0000
1000
0110
0000
,
0000
0000
0000
0000
0120
0000
0000
0000
0000
0030
0110
0000
0000
0000
0110
0000
,
0000
0000
1000
0000
0001
0000
0000
0110
,
0000
0000
0000
0110
0000
1000
0110
0001
,
0110
0000
0000
0000
0000
0000
0110
0001
,
0110
0000
1000
0000
0000
0110
0110
0000
,
0000
1000
0000
0001
0000
0110
0110
0000
,
0000
0110
0110
0000
0000
0000
0000
1000
,
0000
0000
0000
0000
0000
0001
0000
0110
,
0000
0000
0000
1000
0000
0001
0110
0110
,
1000
0000
0000
0001
,
0000
0000
0000
0110
0000
0000
0110
0000
,
0000
0000
0000
1001
0000
0000
2000
0000
,
3200
0320
0032
0203
,
0320
0000
0000
0000
2030
0000
0000
0000
3200
0000
0000
0000
0302
0000
0000
0003
,
0002
0000
0000
0000
2003
0000
0000
3000
2000
0000
0020
0000
3000
0000
0000
0030
,
0020
0000
0000
0000
0230
0000
0000
0300
0200
0000
0000
0300
0022
0000
0000
0000
,
0000
0000
0000
0003
0200
0000
0000
0000
0000
0000
0000
0030
2000
0000
0000
0000
,
0000
0000
0000
0300
0002
0000
0000
0000
0000
0000
0000
3000
2003
0000
0000
3000
,
2000
0000
0000
0000
3002
0000
0000
0003
0002
0000
0200
0000
0003
0000
0000
0300
,
0200
0000
0000
0000
0320
0000
0000
0030
0020
0000
0000
0030
2200
0000
0000
0000
,
0000
0000
0000
3000
0020
0000
0000
0000
0000
0000
0000
0300
0002
0000
0000
0000
,
0000
0000
0000
0030
2000
0000
0000
0000
0000
0000
0000
0003
3001
0010
0001
0010
,
1000
0010
1000
0010
0001
0000
0000
0000
1000
0000
0000
0000
0001
0000
0000
0000
,
1000
0000
0001
1000
0001
1000
0210
0000
,
0000
0300
0120
0000
0000
0000
0000
0030
1000
0000
0000
0000
0001
0000
0000
0000
,
1001
0000
0000
0000
0100
0000
0000
0000
1001
0000
0000
0010
0000
0100
0000
0000
,
0000
1001
0000
0000
0000
0001
0010
0001
0010
0001
0010
0001
0010
0100
0010
0100
,
0010
0100
0010
0100
0010
0100
1000
0100
1000
0100
1000
0100
1000
0100
0000
0000
,
0000
0001
0000
0000
0000
1000
0000
0000
0000
0001
0000
0000
0000
0100
0000
0000
,
0000
0001
0000
0000
0000
0100
0000
0000
0000
0001
0000
0000
0000
1000
0000
0000
,
0000
0001
0000
0000
0000
1000
0000
0000
0000
0001
0000
0000
0000
1000
0000
0000
,
0000
0100
0000
0000
0000
1000
0000
0000
0000
0100
0000
0000
0000
0101
0000
0000
,
0000
0100
0000
0000
0000
0100
0000
0000
0000
0100
0000
0000
0000
1100
0000
0000
,
0000
1000
0000
0000
0000
1000
0000
0000
0000
1000
0000
0000
0000
1010
0000
0000
,
0000
0010
0000
0000
0000
0010
0000
0000
0000
0010
0000
0000
0000
0011
0000
0000
,
0000
0001
0000
0000
0000
0001
0000
0000
0000
0001
0000
0000
0000
1000
0100
1000
,
0100
0001
0100
0001
0100
1000
0000
0000
0000
0001
0000
0000
0000
1000
0000
0000
,
0000
0001
0000
0000
0000
1000
0000
0001
0000
1000
0000
0001
0000
0120
0000
0000
,
0000
0000
0030
0210
0000
0000
0000
0000
0300
0001
0000
0000
0000
1000
0000
0000
,
0000
1001
0000
0000
0000
0010
0000
0000
0000
1001
0000
0000
0100
0000
0010
0000
,
0000
0000
1001
0000
0000
0000
1000
0100
1000
0100
1000
0100
1000
0100
0010
0100
,
0010
0100
0010
0100
0010
0100
0010
0001
0010
0001
0010
0001
0010
0001
1000
0000
,
0000
1000
0000
0001
0000
0001
0000
0100
,
0000
0100
0000
0001
0000
0001
0000
1000
,
0000
1000
0000
0010
0000
0010
0000
0100
,
0000
0100
0000
0001
0000
0001
0000
0110
,
0000
0100
0000
0110
0000
0010
0000
1001
,
0000
1000
0000
1001
0000
0001
0000
0110
,
0000
0010
0000
0110
0000
0100
0000
1001
,
0000
0001
0000
1001
0000
1000
0000
0001
,
0100
0001
0010
1000
0100
1000
0000
0010
,
0100
0010
0001
1000
0010
0100
0000
0001
,
0010
0001
0100
1000
0010
1000
0000
0001
,
0001
0000
0100
0000
0100
0000
0010
0000
0010
0000
1000
0000
1000
0000
0001
1000
,
0001
1000
0001
1000
0001
1000
0001
1000
0001
1000
0001
1000
0001
1000
0001
0100
,
0001
0100
0001
0100
0001
0100
0001
0010
0001
0010
0001
0010
0001
0010
0001
1000
,
0001
1000
0001
1000
0001
1000
0001
1000
0001
1000
0001
1000
0001
1000
0001
0010
,
0001
0010
0001
0010
0001
0010
0001
0100
0001
0100
0001
0100
0001
0100
1000
0001
,
1000
0001
1000
0001
1000
0001
1000
0001
1000
0001
1000
0001
1000
0001
1000
0010
,
1000
0010
1000
0010
1000
0010
1000
0100
1000
0100
1000
0100
1000
0100
1000
0001
,
1000
0001
1000
0001
1000
0001
1000
0001
1000
0001
1000
0001
1000
0001
1000
0100
,
1000
0100
1000
0100
1000
0100
1000
0010
1000
0010
1000
0010
1000
0010
1010
0000
,
0000
0000
0000
0101
0000
0000
0000
0011
,
0000
0000
0000
1100
0000
0000
0000
0000
,
0000
0000
0000
0000
,
0000
0000
0000
0000
0000
0000
0000
0000
0000
0000
0000
0000
0000
0100
1002
0000
,
0000
0000
0000
0000
0000
0003
0000
0110
;
