#TITLE:Haydn Trumpet Concerto III;
#SUBTITLE:;
#ARTIST:WideMusic;
#TITLETRANSLIT:;
#SUBTITLETRANSLIT:;
#ARTISTTRANSLIT:;
#CREDIT:;
#BANNER:;
#BACKGROUND:;
#LYRICSPATH:;
#CDTITLE:!StepmaniaFreak Title.png;
#MUSIC:Haydn Trumpet Concerto III.mp3;
#OFFSET:-0.180;
#SAMPLESTART:41.055;
#SAMPLELENGTH:11.960;
#SELECTABLE:YES;
#BPMS:0.000=151.000,140.000=75.500,140.250=132.120,140.500=113.240,141.000=151.000,141.500=75.500,141.750=132.120,142.000=113.240,142.750=151.000,144.500=75.500,145.500=151.000,174.000=75.500,174.250=132.120,174.500=113.240,175.000=151.000,175.500=75.500,175.750=132.120,176.000=113.240,176.500=75.500,178.500=113.240,178.750=132.120,179.000=151.000,227.000=75.500,227.250=132.120,227.500=113.240,228.000=149.000,228.500=75.500,228.750=123.120,229.000=113.240,229.500=132.120,229.750=151.000;
#STOPS:4.000=0.400
,23.000=0.200
,23.500=0.200
,24.000=0.200
,24.500=0.200
,106.000=0.400
;
#BGCHANGES:;
// cache tags:
#FIRSTBEAT:0.000;
#LASTBEAT:257.000;
#SONGFILENAME:Songs/StepmaniaFreak's Favorites/Haydn Trumpet Concerto III/Haydn Trumpet Concerto III.sm;
#HASMUSIC:1;
#HASBANNER:0;
#MUSICLENGTH:107.467;
// end cache tags

//---------------dance-single - ----------------
#NOTES:
     dance-single:
     :
     Challenge:
     12:
     1.000,0.986,1.000,0.363,0.772,629.000,124.000,39.000,0.000,0.000:
0011
1000
0100
0000
0010
0000
1001
0000
0000
0000
1000
0001
0010
0000
0011
0000
,
1001
0000
0000
0000
1000
0010
0001
0100
1000
0001
0010
0100
1000
0000
0010
0100
,
0011
0000
0100
0000
0010
0000
1000
0100
0011
0000
0001
0000
0100
0000
0010
1000
,
0101
0000
0010
0000
1000
0000
0100
0001
1010
0000
1000
0000
0001
0000
0100
0010
,
1001
0000
0100
0000
0010
0000
0001
0100
1001
0000
0001
0000
1000
0100
0010
0001
,
0100
0010
0001
1000
0100
0010
0100
0010
0001
0010
1000
0100
1010
0000
1100
0000
,
1001
0000
0101
0000
0011
1000
0100
0010
1000
0010
0100
1000
0001
0010
0100
0010
,
0001
1000
0100
1000
0011
0000
0011
0000
1000
0000
0011
0000
1010
0000
1010
0000
,
0001
0000
1100
0000
1010
0000
1001
0000
0101
0000
0011
0000
1100
0000
0000
1000
,
0100
0000
0100
0000
0010
1000
0001
0010
0100
0000
0001
0000
1000
0000
1000
0001
,
1000
1000
1000
0000
0001
0010
0100
1000
0010
0100
1000
0001
0010
0100
0001
0010
,
0100
1000
0100
0010
0001
0000
0011
0000
0010
0000
0011
0000
0100
0000
0101
0000
,
1001
0000
1000
0000
0001
0100
0010
0001
0010
1000
0100
0010
0001
0000
1000
0010
,
0100
0001
0010
0100
1000
0000
0001
0000
0101
0000
0010
0000
1000
0000
0001
0000
,
1100
0000
0000
0100
0000
0000
0001
0000
0000
0100
0000
0000
0011
0000
0000
0000
0000
0000
1000
0010
0000
0100
0000
0000
,
1001
0000
0000
0100
1000
0000
0001
0000
1001
0000
0010
0000
1000
0000
0100
0000
,
0010
0000
0001
0010
0100
1000
0001
0010
0100
1000
0001
0010
0100
1000
0001
0010
,
0100
1000
0001
0010
0001
0000
1000
0000
1010
0000
0100
0000
0001
0000
1000
0000
,
1100
0000
0000
0010
0000
0000
0001
0000
0000
1000
0000
0000
0011
0000
0000
0000
0000
0000
0010
0001
0000
0010
0000
0000
,
1100
0000
0000
0100
0001
0000
0010
0000
1100
0000
0010
0000
0001
0000
1000
0000
,
0110
0000
0010
0000
1001
0100
0010
0001
0010
1000
0100
0010
0001
1000
0100
0010
,
0001
1000
0100
0010
0001
0000
0100
0000
0001
0000
1000
0000
0000
0000
0010
0000
,
1000
0000
0100
0000
1000
0001
0100
0001
0010
0001
0100
0001
0010
0001
0010
0100
,
1000
0100
1000
0001
0010
0000
0010
0000
1001
0000
0010
0001
1000
0000
1000
0000
,
0011
0000
0001
1000
0010
0000
0100
0000
1010
0000
1000
0000
0100
0000
0010
0000
,
1001
0000
0100
0010
1000
0000
0100
0000
1010
0000
0010
1000
0001
0000
0001
0000
,
0110
0000
0000
0000
0010
0000
1000
0000
1100
0000
0010
0000
0011
0000
0000
0000
2000
3000
0000
0000
1000
0000
0000
0000
1010
0000
0000
0000
0001
0000
0000
0000
,
1001
0010
1100
0100
1001
0001
1010
0100
,
0010
0001
1000
0010
0100
0001
0010
0100
1000
0000
0010
0001
0010
0100
1000
0100
,
0020
0000
2030
0000
3002
0003
0000
0200
,
0320
2030
3002
0203
0320
0030
0000
0200
,
0320
0032
1003
2000
3002
0023
0230
2300
,
3001
0010
0001
0010
0100
0010
0100
1000
0200
0000
0300
0000
0000
0000
0000
0000
,
1000
1010
0100
1001
0010
1100
0001
1010
,
0001
0100
0010
1000
0001
0010
0100
1000
0001
0010
0001
0100
0010
1000
0001
0010
,
0101
0000
1010
0000
1001
0000
1100
0000
1010
0000
0011
0000
0001
0010
0100
0010
,
0001
0100
0011
0000
1010
0000
0101
0000
1000
0000
0001
0000
1100
0000
0010
0100
,
1000
0000
0100
0000
1001
0000
0100
0010
0001
0000
0100
0000
1100
0000
0010
0100
,
0001
0000
1000
0000
0101
0000
0010
0001
0100
0000
0001
0000
1001
0000
0001
1000
,
0100
0000
1000
0000
1100
0000
0010
1000
0001
0000
0010
0000
1100
0000
0100
0010
,
1000
0000
0002
0003
1200
0300
0001
0000
0101
0000
0000
0000
0000
0000
0000
1000
,
0011
0000
0001
0000
0100
0000
0010
0000
0001
0000
0000
0000
0000
0000
0000
1000
,
0011
0000
0100
0000
0001
0000
0010
0000
0100
0000
0000
0000
0000
0000
0000
0001
,
1010
0100
0010
1000
0011
1010
1010
1100
,
0011
0000
0101
1000
0100
0010
0001
0000
1000
0000
0010
0000
1010
0000
0000
0000
,
0000
1000
0101
0000
0000
0100
0011
1000
,
0110
0010
1001
0000
0000
0001
0101
0010
,
1100
0000
0100
0000
1010
0000
0000
0000
0000
0000
0010
0000
0001
0010
0100
1000
,
0001
1000
0100
0010
0001
0000
0000
0000
1100
0000
0010
0000
0001
0000
0100
0000
,
0011
0000
1000
0000
0100
0000
0010
0000
1001
0000
0100
0000
0100
1000
0010
0100
,
0001
0010
0001
1000
0200
0000
0300
0000
0000
0000
0000
0000
2000
0000
0000
0000
,
3000
0002
0203
0000
0300
0020
2030
3200
,
0320
0032
0203
0000
0300
2000
3002
0203
,
0320
0000
2030
0000
3200
0000
0000
0000
0300
0000
0001
0000
1000
0010
0100
0001
,
1000
0100
0010
0100
1000
0001
0010
0100
0010
0001
1000
0100
1001
0000
1001
0000
,
0000
0000
0101
0000
0000
0000
1100
0000
0110
0000
0010
0000
1000
0010
0100
0001
,
0010
0100
1000
0010
0100
0001
0010
0001
1000
0010
0100
0001
1100
0000
0101
0000
,
1001
0000
1010
0000
0011
0000
0101
0000
1000
0001
0010
0100
0010
0001
0100
0010
,
0001
0010
0100
0001
0010
0100
1000
0100
1010
0000
0100
0010
0001
0000
0100
0010
,
1000
0000
0001
0100
0010
0000
1000
0100
1001
0000
0010
0100
0001
0000
0100
0001
,
1010
0000
0001
0100
0010
0000
1000
0010
0101
0000
0010
0001
1100
0000
0010
0001
,
1100
0000
0100
0010
0101
0000
1000
0001
0110
0000
1000
0000
0011
0000
0100
0000
,
1010
0000
0001
0000
1001
0010
0100
1000
1010
0000
0001
0000
0100
0000
0001
0000
,
0010
0000
0001
0000
1000
0010
0001
0100
1010
0000
0000
0000
1001
0000
0000
0101
,
0022
0033
0000
0000
;
