#TITLE:SHOCKER SHOCKER!!;
#SUBTITLE:;
#ARTIST:D3戦隊キムレンジャー vs P-ST.;
#TITLETRANSLIT:;
#SUBTITLETRANSLIT:;
#ARTISTTRANSLIT:D3SENTAI KIMRANGER vs P-ST.;
#CREDIT:;
#BANNER:banner.png;
#BACKGROUND:bg.png;
#LYRICSPATH:;
#CDTITLE:../cdtitle.png;
#MUSIC:shocker_shocker.ogg;
#OFFSET:-0.180;
#SAMPLESTART:58.591;
#SAMPLELENGTH:12.000;
#SELECTABLE:YES;
#BPMS:0.000=345.000;
#STOPS:223.500=0.348
,321.500=0.347
;
#BGCHANGES:;
// cache tags:
#FIRSTBEAT:20.000;
#LASTBEAT:540.000;
#SONGFILENAME:Songs/Japanese Collaboration Mix/shocker_shocker/shocker_shocker.sm;
#HASMUSIC:1;
#HASBANNER:1;
#MUSICLENGTH:97.393;
// end cache tags

//---------------dance-single - ----------------
#NOTES:
     dance-single:
     :
     Challenge:
     12:
     1.000,1.000,0.277,0.062,0.041,679.000,27.000,6.000,0.000,0.000:
0000
0000
0000
0000
,
0000
0000
0000
0000
,
0000
0000
0000
0000
,
0000
0000
0000
0000
,
0000
0000
0000
0000
,
0010
0000
0000
0010
0000
0000
0010
0000
1001
0000
0000
0000
0000
0000
0000
0000
,
0100
0000
0001
0000
1000
0100
1000
0000
,
0001
0000
1000
0000
0010
0100
0010
0000
,
1000
0000
0001
0000
0100
0001
0100
0000
,
0010
0000
1000
0000
0010
0100
0010
0000
,
1000
0000
0001
0000
1000
0100
1000
0000
,
0001
0000
0010
0000
0001
1000
0001
0000
,
0100
0000
0010
0000
1000
0010
1000
0000
,
0001
0000
0000
0000
0100
0000
0000
0000
0010
0000
0000
0010
0000
0000
0010
0000
,
1001
0000
0100
0000
0001
1000
0001
0000
,
0100
0000
0010
0000
1000
0010
1000
0000
,
0001
0000
0100
0000
1000
0100
1000
0000
,
0100
0000
0001
0000
1000
0100
1000
0000
,
1001
0100
0010
1000
,
1010
0001
0100
0001
,
1001
0010
1001
0100
,
1001
0101
1001
1100
,
1001
0000
0000
0101
0000
0000
1001
0000
,
0010
0000
0000
0010
0000
0000
0010
0000
1001
0000
0000
0000
0000
0000
0000
0000
,
0010
0001
0100
0010
,
1000
0000
0100
0001
0100
0010
0100
0000
,
0001
1000
0010
0100
,
0010
0000
1000
0010
1000
0001
1000
0000
,
0001
0100
0010
1000
,
0001
0000
1000
0100
1000
0001
1000
0000
,
0001
0100
0010
1000
,
0001
0000
1000
0100
0010
0001
1000
0100
,
0010
0001
1000
0010
,
0001
0000
0100
0001
1000
0001
0100
0000
,
0010
1000
0001
1000
,
0100
0000
0010
0001
1000
0001
0010
0000
,
1001
0000
0100
0001
0100
0000
0010
0000
,
1001
0000
0010
1000
0010
0000
0100
0000
,
1001
0010
1001
0100
,
1001
0011
1001
1010
,
1001
0100
0001
1000
,
0010
0000
0100
0001
0010
0000
0001
0000
,
1000
0010
1000
0001
,
1000
0000
0001
0100
0010
0000
1000
0010
,
0100
0001
1000
0001
,
1000
0000
0100
0010
0001
0000
1000
0000
,
0001
1000
0010
0100
,
0001
0000
1000
0010
0100
0000
0001
0100
,
0010
1000
0001
1000
,
0100
0000
0010
0001
1000
0000
0010
0000
,
0100
0001
1000
0001
,
1000
0000
0001
0100
0010
0000
0010
0100
,
0001
1000
0100
0001
,
0100
0000
1000
0010
0100
0000
0001
0000
,
1000
0001
1000
0010
,
0100
0000
0010
1000
0100
0000
0100
1000
,
2002
0000
3003
0000
0100
0000
0001
1000
,
0100
0000
0000
0000
0100
0000
1000
0001
,
0100
0000
0000
0000
0100
0000
0001
1000
,
0100
0000
0000
0000
0100
0000
1000
0001
,
0010
0000
0010
0001
1000
0000
0010
0100
,
0001
0000
0000
0000
1000
0000
0010
0100
,
0001
0000
0000
0000
1000
0000
0010
0100
,
0001
0000
0000
0000
1000
0000
0010
0100
,
0001
0000
0001
0100
0010
0000
1000
0010
,
0100
0000
0001
0000
1000
0000
0001
0100
,
0010
0000
1000
0000
0001
0000
1000
0001
,
0100
0000
0010
0000
1000
0000
0001
0100
,
0010
0000
0010
0100
0001
0000
1000
0100
,
0010
0000
0001
0000
1000
0000
0010
1000
,
0010
0000
0100
0000
0001
0000
1000
0100
,
0010
0000
0001
0000
1000
0000
0010
0001
,
0100
0000
0100
0001
0010
0000
0100
1000
,
0010
0000
0000
0000
0001
0000
0100
1000
,
0010
0000
0000
0000
0001
0000
0100
1000
,
0010
0000
0000
0000
0001
0000
0100
1000
,
0010
0000
1000
0100
,
0010
0001
1000
0100
,
0010
0000
0000
0000
0001
0000
0000
0000
1000
0000
0000
0100
0000
0000
0010
0000
,
0001
0000
0000
1000
0000
0000
0100
0000
0010
0000
0000
0001
0000
0000
0100
0000
,
0010
0000
0000
1000
0000
0000
0100
0000
2002
0000
0000
0000
3003
0000
0000
0000
,
0010
0000
0000
0010
0000
0000
0010
0000
1001
0000
0000
0000
0000
0000
0000
0000
,
0100
0010
0100
0010
0100
0010
0100
0010
,
1000
0000
0001
0100
0010
0000
1000
0000
,
0010
0100
0001
0000
1000
0000
0001
0000
,
1000
0000
0100
0010
0001
0000
1000
0000
,
0010
0100
0001
1000
0001
0000
0100
0010
,
1000
0000
0001
0100
0010
0000
1000
0000
,
0001
1000
0001
0000
0100
0000
0010
0000
,
1000
0000
0001
1000
0100
0000
0010
0000
,
0001
0010
0001
1000
0010
0000
0100
1000
,
0010
0000
1000
0010
0100
0000
0001
0000
,
0100
0010
1000
0000
0001
0000
1000
0000
,
0001
0000
0010
0100
1000
0000
0001
0000
,
0100
0010
1000
0001
1000
0000
0010
0100
,
0001
0000
1000
0010
0100
0000
0001
0000
,
1000
0001
1000
0000
0010
0000
0100
0000
,
0001
0000
1000
0001
0010
0000
0100
0000
,
1000
0100
1000
0001
0100
0000
0001
0100
,
0010
0000
1000
0001
0100
0001
1000
0000
,
0010
0100
0010
1000
0010
0000
0100
0000
,
0001
0000
1000
0001
0100
0001
1000
0000
,
0010
0100
0001
0100
0010
1000
0010
0100
,
0010
0000
1000
0001
0100
0010
1000
0000
,
0010
0100
0001
1000
0001
0000
1000
0000
,
0001
0000
1000
0010
0100
0001
1000
0000
,
0001
0100
0010
0100
0010
1000
0010
0100
,
0010
0000
1000
0010
0100
0001
1000
0000
,
0001
0100
0010
1000
0010
0000
0100
0000
,
0001
0000
1000
0100
0010
0001
1000
0000
,
0001
0010
0001
1000
0010
0000
0100
0010
,
1000
0000
0010
0100
0001
1000
0001
0000
,
0100
0001
1000
0100
0010
0000
0001
0000
,
1000
0000
0001
0100
0010
1000
0001
0000
,
1000
0100
0010
0001
1000
0100
0010
0001
,
1000
0001
0100
0010
1000
0000
0010
0000
,
0100
0001
1000
0001
0010
0000
0001
0000
,
1000
0100
0010
0100
1000
0000
0001
0000
,
0100
0001
1000
0001
0100
0001
1000
0000
,
0010
0100
0010
1000
0010
0000
0100
0000
,
0001
0100
0001
1000
0001
0000
0100
0000
,
0010
1000
0010
0100
0010
0000
1000
0000
,
0001
0100
0001
0010
0001
1000
0010
0100
,
0010
1000
0100
0010
0100
0000
0010
0000
,
0001
1000
0010
0100
0010
0000
1000
0000
,
0010
0100
0001
0100
0010
0000
0001
0000
,
1000
0100
0010
0001
1000
0001
0100
0000
,
0100
0001
1000
0100
0010
0000
0100
0000
,
1000
0001
0100
0010
0100
0000
0001
0000
,
1000
0001
0100
0001
1000
0000
0010
0000
,
1000
0001
0100
0010
1000
0001
0100
0000
,
1000
0010
0100
0010
1000
0001
0010
0001
,
1000
0100
0010
0100
1000
0001
0100
0010
,
2002
0000
0000
0000
,
0000
0000
0000
0000
,
3003
0000
0000
0000
;
