#TITLE:Bat Country;
#SUBTITLE:City of Evil (2005);
#ARTIST:Avenged Sevenfold;
#TITLETRANSLIT:;
#SUBTITLETRANSLIT:;
#ARTISTTRANSLIT:;
#CREDIT:DukAmok;
#BANNER:Bat_Country.png;
#BACKGROUND:Bat_Country-bg.png;
#LYRICSPATH:;
#CDTITLE:!duktitle.png;
#MUSIC:Bat_Country.mp3;
#OFFSET:-5.798;
#SAMPLESTART:40.740;
#SAMPLELENGTH:10.000;
#SELECTABLE:YES;
#BPMS:0.000=125.000;
#STOPS:;
#BGCHANGES:;
// cache tags:
#FIRSTBEAT:3.250;
#LASTBEAT:628.000;
#SONGFILENAME:Songs/Astronomic Metal Collection/Bat_Country (Duk Amok)/Bat_Country.sm;
#HASMUSIC:1;
#HASBANNER:1;
#MUSICLENGTH:313.286;
// end cache tags

//---------------dance-single - Heavy----------------
#NOTES:
     dance-single:
     Heavy:
     Hard:
     11:
     1.000,1.000,1.000,0.275,1.000,1803.000,442.000,86.000,0.000,0.000:
0000
0000
0000
0000
0000
0000
0000
0000
0000
0000
0000
0000
0000
0010
1001
0000
,
0100
0000
0011
0000
0000
1000
1100
0000
0010
0001
1010
0100
0000
0001
1001
0000
,
0000
0100
0110
0000
1000
0010
0101
0000
1000
0010
0100
0001
0010
0100
1000
0001
,
0010
0000
1100
0000
0000
0001
0101
0000
0010
1000
0101
0010
0000
0100
0110
0000
,
0000
0001
1001
0000
1000
0100
0011
0000
0001
0100
0010
1000
0001
0100
0010
1000
,
0110
0000
1000
0100
0010
0100
1001
0000
1000
0010
0100
0010
0100
0010
1001
0000
,
0001
0000
1000
0000
0100
0000
1000
0000
0100
0000
1000
0000
0101
0000
0000
0000
0001
0010
0100
0000
1000
0000
0100
0010
0001
0000
1000
0000
0010
0000
0100
0000
,
1001
0010
1000
0100
0010
0001
1100
0010
0001
0100
0010
1000
0001
0010
1001
0100
,
0010
0001
1000
0010
0100
0001
1010
0100
0001
1000
0100
0010
0001
0010
1100
0000
,
0012
1003
0012
1003
0011
0202
0303
0110
,
0101
0010
1000
0010
1000
0010
0100
0001
0100
0001
1000
0100
1000
0100
0010
0001
,
1010
0100
0001
0010
0001
1000
0100
1000
0001
0100
0010
1000
0001
0010
0100
1000
,
0011
0100
1000
0100
1000
0100
0010
0001
0010
0001
0100
0001
0100
0010
1000
0100
,
0010
0000
1001
0000
0000
0010
0101
0000
1000
0001
1100
0010
0000
0001
1010
0000
,
1000
0001
0110
1000
0000
0010
0101
0000
1000
0010
0100
0001
0010
0100
1000
0001
,
1010
0100
0001
0100
0010
1000
0010
1000
0001
0010
0001
0010
0100
1000
0010
0100
,
0001
0100
0001
1000
0010
1000
0001
0100
0001
1000
0010
0100
0001
0010
0001
1000
0100
1000
0001
0010
0001
1000
0010
0100
,
0001
0000
0000
0000
0000
0000
1000
0000
0100
0000
0010
0000
0001
0000
0000
0000
0000
0000
1000
0000
0010
0000
0100
0000
0001
0000
0000
0000
0000
0000
1100
0000
0000
0010
0000
0000
0001
0000
0000
1000
0000
0000
0010
0000
0000
0100
0000
0000
,
1001
0000
0010
0000
1100
0000
0011
0000
0000
0000
1010
0000
0001
0110
0000
0000
,
1010
0000
0011
0000
0100
1000
0101
0000
0010
0000
1100
0000
0010
0101
0000
0010
,
1100
0000
0010
0000
0001
0000
1010
0000
0001
0000
0010
0000
1001
0010
0101
1000
,
1100
0000
0000
0000
0000
0000
0010
0000
0001
0000
1000
0000
0100
0000
0000
0000
0000
0000
1000
0000
0010
0000
1000
0000
0001
0000
0000
0000
0000
0000
0110
0000
0000
1000
0000
0000
0001
0000
0000
0100
0000
0000
0010
0000
0000
1000
0000
0000
,
0011
0000
1001
0000
1010
0000
0101
0000
0000
0000
1010
0000
0100
1001
0000
0000
,
0110
0000
1100
0000
0001
1000
0101
0000
1010
0000
1100
0000
0001
0010
1001
0000
,
0110
0000
1001
0000
0001
0000
0101
0000
1010
0100
0001
0010
1100
0001
0010
0100
,
2001
3010
2001
3010
1001
0220
0330
0110
,
1100
0010
0001
0010
0001
0010
0100
1000
0100
1000
0001
0100
0001
0100
0010
1000
,
0101
0010
1000
0010
0100
0001
0010
0100
1000
0010
0100
0010
1000
0010
0100
0001
,
0110
1000
0100
1000
0001
0100
0010
1000
0010
0100
0001
0010
0001
1000
0100
0010
,
1001
0000
0101
0000
0000
0010
0101
0000
1000
0001
1100
0010
0000
0001
1010
0000
,
1000
0001
0110
1000
0000
0010
0101
0000
1000
0010
0100
0001
0010
0100
1000
0001
,
1010
0100
0001
0100
0010
1000
0010
1000
0001
0010
0001
0010
0100
1000
0010
0100
,
1001
0010
0100
0001
1100
0010
0001
0100
1010
0100
0001
0010
0100
0010
0001
1000
,
0011
0000
1010
0000
0000
0100
1001
0000
1010
0100
0001
0011
0000
0100
1010
0000
,
0100
0000
1010
0000
0100
0001
0011
0000
0100
1000
0010
0101
0000
1000
0110
0000
,
0011
0100
1000
0100
1001
0010
0001
0100
1010
0001
1000
0001
0110
1000
0010
0100
,
0001
1000
0001
0010
0100
0010
0001
1000
0001
0100
0010
0100
0001
0010
0001
1000
0100
1000
0010
0100
0001
0010
0100
1000
,
0001
0000
0000
0000
0000
0000
0001
0000
0010
0000
0100
0000
1000
0000
0000
0000
0000
0000
0001
0000
0100
0000
0010
0000
1000
0000
0000
0000
0000
0000
0011
0000
0000
0100
0000
0000
1000
0000
0000
0001
0000
0000
0100
0000
0000
0010
0000
0000
,
1001
0000
0100
0000
0011
0000
1100
0000
0000
0000
0101
0000
1000
0110
0000
0000
,
0101
0000
1100
0000
0010
0001
1010
0000
0100
0000
0011
0000
0100
1010
0000
0100
,
0011
0000
0100
0000
1000
0000
0101
0000
1000
0000
0100
0000
1001
0100
1010
0001
,
0011
0000
0000
0000
0000
0000
0100
0000
1000
0000
0001
0000
0010
0000
0000
0000
0000
0000
0001
0000
0100
0000
0001
0000
1000
0000
0000
0000
0000
0000
0110
0000
0000
0001
0000
0000
1000
0000
0000
0010
0000
0000
0100
0000
0000
0001
0000
0000
,
1100
0000
1001
0000
0101
0000
1010
0000
0000
0000
0101
0000
0010
1001
0000
0000
,
0110
0000
0011
0000
1000
0001
1010
0000
0101
0000
0011
0000
1000
0100
1001
0000
,
0110
0000
1001
0000
1000
0000
1010
0000
0101
0010
1000
0100
0011
1000
0100
0010
,
1001
0010
0100
0001
0011
0000
0100
1000
,
1100
0010
1000
0010
0101
0000
0010
1000
,
0101
0010
1000
0001
0011
0000
0100
1000
,
1100
0100
1000
0010
0101
0010
1000
0100
,
0011
0100
1000
0010
1010
0001
0010
0100
,
1001
0010
0001
1000
1010
0100
0001
0010
,
1100
0010
0001
0100
0101
0000
0010
1000
,
1001
0010
0100
0001
1010
0100
1010
0100
,
1001
0100
0010
1000
1100
0000
0010
0001
,
0011
0100
0001
0100
1010
0000
0100
0001
,
1010
0100
0001
1000
1100
0000
0010
0001
,
0011
0010
0001
0100
1010
0100
0001
0010
,
1100
0010
0001
0100
0101
1000
0100
0010
,
1001
0100
1000
0001
0101
0010
1000
0100
,
0011
0100
1000
0010
1010
0001
0100
0001
,
1001
0010
1000
0001
0010
0100
1000
0010
0100
0001
1000
0100
1000
0010
1000
0001
,
0110
0000
0001
0010
0100
0010
1001
0000
0001
0100
0010
0100
0010
0100
1001
0000
,
1000
0000
0001
0000
0010
0000
0001
0000
0010
0000
0001
0000
1010
0000
0000
0000
1000
0100
0010
0000
0001
0000
0010
0100
1000
0000
0001
0000
0100
0000
0010
0000
,
1001
0100
0001
0010
0100
1000
0011
0100
1000
0010
0100
0001
1000
0100
1001
0010
,
0100
1000
0001
0100
0010
1000
0101
0010
1000
0001
0010
0100
1000
0100
0010
0001
,
0110
0000
0000
0000
0010
0000
0100
0000
0001
0000
0100
0000
1010
0000
0000
0000
0001
1000
0100
0000
0010
0000
0001
0100
0010
0000
1000
0000
0101
0000
0000
0000
,
0001
0100
0010
0000
1000
0000
0010
0100
0001
0000
1000
0000
0011
0000
0000
0000
0001
0010
0100
0000
1000
0000
0100
0010
0001
0000
1000
0000
0010
0000
0100
0000
,
1001
0010
1000
0100
0010
0001
1100
0010
0001
0100
0010
1000
0001
0010
1001
0100
,
0010
0001
1000
0010
0100
0001
1010
0100
0001
1000
0100
0010
0001
0010
0100
1000
,
0102
0010
0100
2003
0010
0001
0100
3020
,
0100
0000
0000
1000
0000
0000
0130
0000
0000
1000
0001
0100
0010
1000
0100
0010
0001
0010
0100
0010
0000
0000
0000
0000
,
1010
0000
0000
0100
0001
0010
0100
1000
0010
0101
0000
0000
1000
0100
0010
0100
1000
0001
0100
0010
1000
0101
0000
0000
,
0001
0000
0100
0000
0010
0000
1000
0000
0100
0000
0010
0000
0001
0000
0010
0000
0100
0000
1002
0000
0000
0000
0000
0000
0000
0000
0000
0000
0000
0000
0000
0000
0000
0000
0000
0000
0000
0000
0000
0000
0000
0000
0000
0000
0000
0003
0000
0000
,
1010
0100
0001
1000
0100
0010
0100
1000
0101
0010
1000
0010
0100
0001
1000
0100
,
0011
1000
0100
1000
0101
0010
1000
0010
0101
0010
1000
1100
0000
0010
0011
0000
,
1001
0010
0100
0001
1000
0010
0100
0001
1010
0100
0001
1000
0100
1000
0010
1000
,
0011
0100
1000
0001
0100
0010
1000
0001
0110
1000
0001
0101
0000
0010
1001
0100
,
1010
0010
0100
0001
1000
0100
0010
0100
1100
1000
0001
0100
0010
1000
0001
0010
,
0110
0000
0000
0000
1000
0000
0000
0000
0001
0000
0000
0000
0100
0000
0000
0000
0010
0000
0000
0000
1000
0000
0000
0000
0011
0000
0000
0100
0000
0000
1000
0000
0000
0101
0000
0000
0000
0000
0000
0010
0000
0000
0100
0000
0000
1000
0000
0000
,
0102
0000
0103
0000
2010
0000
3100
0100
0010
0010
0001
0100
1010
0001
1000
0100
,
0011
1000
0100
1000
0010
1000
0001
0100
1001
0010
0100
1001
0000
1001
1100
0000
,
0011
1000
0100
1000
0101
0010
1000
0010
1001
0100
0010
0100
1010
0001
0100
0001
,
1010
0100
0001
0010
1000
0010
0001
0100
0010
1000
0010
1000
0001
0010
0100
1000
,
0010
0100
0001
0100
0010
1000
0100
0010
0001
0010
0100
1000
0010
1000
0001
0100
0001
0010
0100
0010
0001
1000
0010
0100
,
0001
1000
0100
1000
0010
0100
0001
0010
0001
1000
0010
0100
0010
1000
0001
1000
0010
1000
0100
0010
0001
0010
0100
1000
,
0101
0010
1000
0001
0100
0001
1000
0100
0010
0100
1000
0010
0100
0010
1000
0100
,
0010
0001
0100
0010
0100
0001
0010
0100
0010
0001
0100
0010
0100
0001
0010
0100
,
1001
0010
0100
0010
1001
0000
0020
0000
0230
0000
0302
0000
0023
0000
0230
0300
,
1001
0010
0100
1000
0021
0000
0000
0000
0032
0000
0203
0000
0302
0000
2003
3000
,
0011
1000
0001
0100
2010
0000
0000
0000
3002
0000
0023
0000
0230
0000
2300
3000
,
0101
0010
1000
0001
2200
0000
0000
3300
0110
0001
1000
0010
2002
0000
0000
3003
,
1010
0100
0001
1000
1100
0000
0020
0000
0230
0000
2300
0000
3002
0000
0203
0300
,
1001
0010
1000
0010
0201
0000
0000
0000
0320
0000
2030
0000
3200
0000
0320
0030
,
1100
0001
0100
0001
0021
0000
0000
0000
0230
0000
0320
0000
0032
0000
2003
3000
,
0101
0010
1000
0100
0022
0000
0000
0033
0101
0010
1000
0100
2002
0000
0000
3003
,
0202
0000
0000
0000
0303
0000
0000
0000
2200
0000
0000
0000
3300
0000
1000
0010
1001
0000
0000
0000
0011
0000
0000
0000
0202
0000
0000
0000
0303
0000
0000
0000
,
2020
0000
0000
0000
3030
0000
0000
0000
0202
0000
0000
0000
0303
0000
0010
1000
0101
0000
0000
0000
0011
0000
0000
0000
0220
0000
0000
0000
0330
0000
0000
0000
,
0010
0000
0001
0000
0010
0000
1000
0000
0010
0000
0001
0000
0010
0000
1000
0000
0010
0000
0001
0000
0100
0000
1000
0000
0100
0000
0001
0000
0100
0000
1000
0100
,
0001
0010
0100
1000
0010
0001
0010
0100
0001
0010
1000
0010
0100
1000
0010
0100
,
1001
0010
0100
0001
1000
0100
1000
0010
0100
0001
0010
0100
1000
0001
0100
0010
,
1001
0100
0010
0100
1000
0100
1000
0010
0100
0001
1000
0001
0010
0100
1000
0001
,
1010
0100
0001
0100
0010
1000
0100
0010
0001
0100
0010
0100
0001
0100
0010
1000
,
0110
0001
0010
0001
1000
0010
0100
0001
0100
0010
1000
0100
1000
0001
0010
0100
,
1001
0000
1010
0000
0000
0100
1010
0000
0001
1000
0011
0100
0000
1000
0101
0000
,
0001
1000
0110
0001
1000
0100
0011
1000
0001
0100
0010
1000
0100
0010
0001
1000
,
0101
0010
1000
0010
0100
0001
0100
0001
1000
0100
1000
0100
0010
0001
0100
0010
,
1000
0010
0100
0001
0010
0100
1000
0010
0100
0001
1000
0100
0010
0001
0100
0001
1000
0100
0011
0000
0000
1100
0000
0000
,
1010
0000
0101
0000
0000
0010
1010
0000
1000
0100
0110
0001
0000
1000
0101
0000
,
1001
0000
0110
0000
0000
1000
1001
0000
0100
0010
1010
0100
0000
0001
0011
0000
,
0101
0000
0110
0000
0000
1000
1100
0000
0011
0000
1000
0010
0100
0001
2200
0000
,
0000
0000
0000
0000
0000
0000
0000
3300
0001
0010
0001
0100
0001
0100
1001
0000
,
0101
0000
1100
0000
0000
0010
0011
0000
0001
1000
0110
0100
0000
0010
1010
0000
,
1000
0100
0011
0001
0000
0100
0110
0000
0001
1000
0101
0010
0000
1000
1100
0000
,
0011
0000
0001
0000
0001
0010
1001
0000
0001
0100
0101
1000
0000
0010
0011
0000
,
1100
0000
1000
0010
0000
0100
1001
0000
1000
0010
1010
0001
0000
0100
1100
0000
,
1010
0000
0101
0000
0000
1000
0101
0000
0001
0010
1100
1010
0000
0100
1001
0000
,
0010
0101
0010
0100
1001
0010
0100
0001
1010
0100
0001
0010
1100
0001
0100
0010
,
1001
0000
0000
0000
0000
0000
0010
0000
0100
0000
0001
0000
1000
0000
0000
0000
0000
0000
0010
0000
0100
0000
0001
0000
0010
0000
0000
0000
0000
0000
0110
0000
0000
0001
0000
0000
1000
0000
0000
0010
0000
0000
0100
0000
0000
0001
0000
0000
,
0011
0000
0110
0000
1000
0000
0101
0000
0010
1000
1010
0000
0010
0101
0000
0010
,
1100
0000
0011
0000
0100
0010
1001
0000
0001
0000
0011
0000
0100
1000
0101
0000
,
0110
0000
0011
0000
0100
0000
1010
0000
1100
0000
0010
0001
1100
0010
1001
0000
,
0101
0000
0000
0000
0000
0000
1000
0000
0100
0000
1000
0000
0001
0000
0000
0000
0000
0000
0100
0000
0001
0000
0100
0000
0010
0000
0000
0000
0000
0000
1000
0000
0000
0100
0000
0000
0011
0000
0000
1000
0000
0000
0010
0000
0000
0100
0000
0000
,
1001
0000
0101
0000
0101
0000
1100
0000
0100
0001
1100
0000
0010
0101
0000
0010
,
1010
0000
0101
0000
1000
0100
1100
0000
0011
0000
0101
0000
0011
0100
1001
0000
,
0101
0000
0011
0000
1000
0000
1010
0000
0110
0001
1000
0100
0011
1000
0101
0010
,
1001
0010
0100
0001
1100
0000
0010
0100
,
1100
0010
0001
0100
1010
0000
0100
0010
,
1001
0001
0010
0100
0110
0000
0010
0001
,
1010
0100
0001
0010
0110
0000
1000
0001
,
0101
0010
1000
0100
1100
0010
0001
0100
,
0101
0010
1000
0100
1100
0001
0100
0001
,
0011
0100
1000
0010
1001
0010
0100
0001
,
1010
0001
0010
0100
1100
0010
0101
0010
,
0101
1000
0010
0100
0011
0000
1000
0010
,
0011
1000
0100
0010
1001
0000
0010
1000
,
0101
0100
1000
0010
1010
0000
1000
0100
,
1001
0010
0100
1000
1010
0000
0001
0100
,
0110
1000
0001
0010
0011
1000
0100
0010
,
0110
1000
0001
0010
0011
0100
0010
0100
,
1100
0010
0001
1000
0010
1000
0010
0100
,
1001
0100
0010
0100
0001
0100
0010
0100
0001
1000
0100
1000
0001
1000
0100
0010
,
1001
0010
0011
0001
1010
0100
0011
1000
,
1010
0001
0011
0110
1100
0010
0101
0110
,
1001
0010
0101
0010
1100
1100
0101
0010
,
1010
0001
0011
0100
1010
0100
1001
0010
,
0012
0103
1020
0130
0021
0130
1200
1300
,
2010
3001
0201
0310
2010
3001
0012
0103
,
2100
0000
0010
0000
0100
0000
0001
0000
0100
0000
0010
0000
0100
0000
0010
3000
,
0201
0300
1010
0100
0001
0010
0100
1001
0000
1001
0100
0010
0101
1000
0100
0010
,
1001
0101
0011
0100
1010
0100
0011
1000
,
1010
0110
1001
0010
0110
0100
1001
1000
,
1010
0110
0011
1000
1010
0010
0011
0001
,
0101
0110
0110
1000
1100
0100
0011
0100
,
2100
3010
0201
0310
1200
0310
0021
0031
,
0102
1003
1020
0130
0102
1003
2100
3010
,
0202
0000
0000
0000
,
0000
0000
0000
0000
,
0303
0000
0000
0000
;
