#TITLE:shakawkaw;
#SUBTITLE:;
#ARTIST:infected mushroom;
#TITLETRANSLIT:;
#SUBTITLETRANSLIT:;
#ARTISTTRANSLIT:;
#CREDIT:;
#BANNER:shakawkaw.png;
#BACKGROUND:shakawkawBG.png;
#LYRICSPATH:;
#CDTITLE:;
#MUSIC:shakawkaw.ogg;
#OFFSET:0.000;
#SAMPLESTART:52.364;
#SAMPLELENGTH:12.000;
#SELECTABLE:YES;
#BPMS:0.000=110.000;
#STOPS:158.000=0.545
;
#BGCHANGES:;
// cache tags:
#FIRSTBEAT:16.000;
#LASTBEAT:191.000;
#SONGFILENAME:Songs/Rodd's Revival/Shakawkaw (Rodd Steps)/shakawkaw (Rodd Steps).sm;
#HASMUSIC:1;
#HASBANNER:1;
#MUSICLENGTH:111.270;
// end cache tags

//---------------dance-single - R. Farias----------------
#NOTES:
     dance-single:
     R. Farias:
     Challenge:
     9:
     0.605,0.622,0.342,0.018,0.845,431.000,38.000,2.000,0.000,0.000:

0000
0000
0000
0000
,
0000
0000
0000
0000
,
0000
0000
0000
0000
,
0000
0000
0000
0000
,
0001
0000
0000
0100
0000
0000
0010
0000
0000
1000
0000
0000
0100
0000
0010
0000
,
0001
0000
0000
1000
0000
0000
0100
0000
0010
0000
0000
0000
0000
0000
0000
0000
,
0001
0000
0000
0100
0000
0000
0010
0000
0000
0100
0000
0000
0000
0000
0000
0000
,
0001
0000
1000
0100
0000
0010
0000
0000
0011
0000
0000
0000
0000
0000
0000
0000
,
0101
0000
0100
0010
0100
0000
0010
0000
1000
0010
1000
0000
0100
0000
0010
0000
,
0001
0000
0100
0010
0000
1000
0000
0000
1100
0000
0000
0000
0110
0000
0010
0000
,
0001
0000
0100
0001
0100
0000
0010
0000
0100
0010
1000
0000
0100
0000
0010
0000
,
0100
0000
1000
0001
0000
0100
0000
0000
0101
0000
0000
0000
0110
0000
0000
0000
,
1010
0000
1000
0100
0010
0000
0100
0000
1000
0001
0100
0000
0010
0000
0100
0000
,
0001
0000
1000
0100
0000
1000
0100
0000
0010
0000
0000
0000
0001
0000
0000
0000
,
0000
0100
0010
1000
0100
0010
0001
0000
0100
0000
0010
0000
0100
0000
0001
0000
,
1000
0000
0100
0010
0000
0100
0000
0000
0110
0000
0000
0000
0011
0000
0001
0000
,
0100
0000
0010
1000
0000
0100
0000
0010
0000
0100
0000
0000
1001
0000
0000
0000
,
0001
0000
0100
0010
0000
1000
0000
0001
0000
0100
0000
0000
0101
0000
0000
0000
,
0110
0000
0010
1000
0000
0010
0000
1000
0000
0100
0000
0000
1100
0000
0000
0000
,
0110
0000
0010
0001
0000
0100
0000
0010
0000
1000
0000
0000
1100
0000
0000
0000
,
1001
0000
0001
0100
0010
1000
0100
0010
0100
1000
0001
0100
0010
1000
0000
0000
,
1100
0000
0100
0010
0001
0000
0100
0000
0101
0000
0100
0010
1000
0000
0100
0010
,
0001
0100
0000
0010
0000
0100
0000
0001
0000
0000
1000
0000
0100
0000
0010
0100
,
1000
0000
0000
0001
0000
0000
0000
0000
0000
0100
0000
0000
0000
0000
0000
0010
0000
0000
0000
0000
0000
1000
0000
0000
0000
0000
0000
0000
0000
0000
0100
0000
1000
0000
0100
0000
1000
0000
0000
0100
0000
0000
1000
0000
0000
0100
0000
0000
,
1000
0000
1001
0000
0001
0100
0010
1000
0000
0100
0010
0001
0010
0100
1000
0001
,
0100
0000
0010
0000
1000
0100
0010
0001
0000
0001
0100
0010
0100
0001
1000
0100
,
0010
0000
0110
0000
0010
0001
0100
0010
0000
0010
1000
0100
0010
0100
1000
0001
,
0100
0010
0100
0001
1000
0100
0010
0001
0010
0100
1000
0002
0000
0000
0000
0103
,
0010
0000
1000
0000
0100
0010
0100
0010
0000
0001
0010
0001
0010
0001
0100
0010
,
1000
0100
0010
0000
0001
0100
0000
0010
1000
0000
0100
0010
0000
0010
0100
1000
,
0001
0000
0101
0000
0100
0010
1000
0100
0000
0010
0001
0010
0100
1000
0001
0100
,
0010
1000
0001
0000
0101
0000
0110
0000
0010
0100
0010
0100
0000
0010
1000
0010
,
1000
0000
1000
0000
0100
0000
0100
0000
0010
0001
0000
0101
0000
0100
0010
1000
,
0100
0010
0001
1000
0001
1000
0001
1000
0000
1100
0000
0000
0110
0000
0000
0010
,
0001
0000
0001
0000
0100
0000
0100
0000
0010
1000
0000
1100
0000
0100
0010
0001
,
0010
0100
1000
0100
1000
0100
1000
0001
0000
0101
0000
0000
0110
0000
0000
0010
,
1000
0000
1000
0000
0001
0000
0001
0000
0100
0010
0000
0110
0000
0010
1000
0000
,
0100
0010
0100
1000
0001
0100
0010
1000
0100
0010
0000
0001
0000
0100
0000
0010
,
1000
0000
1000
0000
0100
0000
0100
0000
0010
0001
0000
0011
0000
0001
0100
0010
,
1000
0001
1000
0100
1000
0010
1000
0001
1000
0000
0000
0100
0010
0000
0010
0000
,
0001
0000
0001
0000
0100
0010
0000
0110
0000
0000
0010
0000
1000
0010
1000
0100
,
0010
0001
0100
0010
0000
1000
0000
0000
0100
0010
0001
0100
0010
0000
0010
0000
,
1000
0000
0000
0000
1000
0001
1000
0001
1000
0000
0001
0000
0000
0000
0100
0000
0000
0000
0000
0000
0010
0000
1000
0000
0010
0000
1000
0000
0100
0000
0010
0000
,
0001
0100
0010
1000
0000
1010
0000
0000
0010
0100
0001
0010
0100
0000
0110
0000
,
0011
0000
0011
0000
0001
0100
0000
0101
0000
0000
0100
0000
0010
1000
0100
0010
,
0001
0010
0100
1000
0001
0100
0010
0100
0001
1000
0100
0010
0001
0000
0001
0000
,
0100
0000
0100
0000
0010
1000
0000
1010
0000
0000
1000
0000
0100
0010
0100
0010
,
0100
0010
0000
0001
0200
0000
0000
0000
0000
0000
0000
0000
0300
0000
0000
0000
;
