#TITLE:Make it Faster;
#SUBTITLE:;
#ARTIST:Cruz and the White ft. DJ S;
#TITLETRANSLIT:;
#SUBTITLETRANSLIT:;
#ARTISTTRANSLIT:;
#CREDIT:;
#BANNER:faster.png;
#BACKGROUND:fasterBG.png;
#LYRICSPATH:;
#CDTITLE:;
#MUSIC:makeitfaster.ogg;
#OFFSET:-0.005;
#SAMPLESTART:40.897;
#SAMPLELENGTH:12.000;
#SELECTABLE:YES;
#BPMS:0.000=149.780,46.000=74.890,47.000=149.780,107.000=74.890,109.000=149.780,169.000=74.890,171.000=149.780;
#STOPS:;
#BGCHANGES:;
// cache tags:
#FIRSTBEAT:16.000;
#LASTBEAT:297.500;
#SONGFILENAME:Songs/Rodd's Revival/Make it Faster (Rodd Steps)/Make it Faster (Rodd Steps).sm;
#HASMUSIC:1;
#HASBANNER:1;
#MUSICLENGTH:121.235;
// end cache tags

//---------------dance-single - R. Farias----------------
#NOTES:
     dance-single:
     R. Farias:
     Challenge:
     10:
     0.861,1.000,0.058,0.239,0.759,691.000,7.000,29.000,24.000,0.000:

0000
0000
0000
0000
,
0000
0000
0000
0000
,
0000
0000
0000
0000
,
0000
0000
0000
0000
,
1000
0100
0010
0001
0010
0100
1000
0001
,
0100
0010
1000
0001
0100
0010
0100
0001
,
1000
0100
0001
0100
0010
0001
0100
1000
,
0100
0010
1000
0100
0010
0001
0010
0100
,
1000
0001
0100
0010
1000
0001
0100
0010
,
1000
0100
0010
0100
1000
0001
0100
0010
,
1000
0100
0010
0100
1000
0001
0100
0010
,
0100
0000
0001
0000
1000
0000
010M
00M0
1000
0001
M100
0010
100M
0000
0100
0000
,
0010
0000
0001
0100
0001
0200
0000
0000
0310
0000
1000
0000
0100
0000
0010
0000
,
0100
0000
1000
0001
1000
0002
0000
0000
0103
0000
0010
0000
0100
0000
0001
0000
,
1000
0000
0100
0010
0001
0200
0000
0000
0310
0000
0100
0000
0001
0000
1000
0000
,
0100
0000
0010
0100
0010
0002
0000
0000
1003
0000
0001
0000
0100
0000
0010
0000
,
0100
0000
0001
1000
0001
2000
0000
0000
3100
0000
0010
0000
0001
0000
0010
0000
,
0100
0000
1000
0100
1000
0200
0000
0000
0310
0000
0001
0000
0100
0000
1000
0000
,
0100
0000
0010
0100
0010
0200
0000
0000
0310
0000
1000
0000
0100
0000
0001
0000
,
0100
0000
0010
0100
0010
0200
0000
0000
0310
0000
0001
0000
1000
0000
0001
0000
,
0100
0000
0010
1000
0100
0020
0000
0000
0031
0000
0100
0000
0010
0000
0100
0000
,
0001
0000
1000
0100
0010
0200
0000
0000
1300
0000
0001
0000
0100
0000
0010
0000
,
1000
0000
0001
0100
0010
2000
0000
0000
3100
0000
0010
0000
0100
0000
1000
0000
,
0001
0000
0100
0010
1000
0200
0000
0000
0310
0000
0001
0000
0101
0000
0100
0000
,
0010
0100
0001
1000
0100
0010
0110
0010
,
0001
0100
0010
1000
0100
0010
0011
0001
,
0100
0000
0000
0000
0000
0000
0000
0000
0000
0000
0000
0000
0000
0000
0000
0000
0000
0000
0000
0000
0000
0000
0000
0000
0010
0000
0000
0000
0000
0000
0000
0000
0000
0000
0000
0000
0000
0000
0000
0000
0000
0000
0000
0000
0000
0000
0000
0000
0100
0000
0000
0000
0000
0000
0000
0000
0000
0000
0000
0000
0000
0000
0000
0000
0000
0000
0000
0000
0000
0000
0000
0000
0001
0000
0000
0000
0000
0000
0000
0000
0000
0000
0000
0000
0000
0000
0000
0000
0000
0000
0000
0000
0000
0000
0000
0000
1000
0000
0000
0000
0000
0000
0000
0000
0000
0000
0000
0000
0000
0000
0000
0000
0000
0000
0000
0000
0000
0000
0000
0000
0100
0000
0000
0000
0000
0000
0000
0000
0000
0000
0000
0000
0000
0000
0000
0000
0000
0000
00M0
0000
0000
0000
0000
0000
100M
0000
0000
0000
0000
0000
0000
0000
0000
0000
0000
0000
0100
0000
0000
0000
0000
0000
0000
0000
0000
0000
0000
0000
0010
0000
0000
0000
0000
0000
0000
0000
M000
0000
0000
0000
0M01
0000
0000
0000
0000
0000
0000
0000
0000
0000
0000
0000
,
0010
0000
0100
0000
1000
00M0
0001
00M0
0100
0000
0000
0000
0010
0000
0000
0000
1000
0000
0000
0000
0100
0000
0000
0000
0010
0000
0000
0000
0001
0000
0000
0000
,
0010
0000
0100
0000
1000
0000
0001
0000
0100
0000
0010
1000
0100
0020
0000
0000
,
0130
1000
0001
0100
0010
0100
0001
1000
,
0100
0000
0010
0000
0100
0000
1000
0000
0001
0000
0100
0010
0100
0020
0000
0000
,
0130
0001
1000
0100
0001
0100
1000
0010
,
0100
0000
0001
0000
1000
0000
0100
0000
0010
0000
0001
0100
0001
0200
0000
0000
,
0310
0100
0001
1000
0001
1000
0100
0010
,
0100
0000
1000
0000
0001
0000
0100
0000
0010
0000
1000
0010
1000
0020
0000
0000
,
1030
0100
0001
0100
0010
0001
0100
1000
,
0100
0000
0010
0000
1000
0000
0100
0000
0010
0000
0001
0100
0001
0200
0000
0000
,
0310
0100
0010
1000
0100
0010
0100
1000
,
0001
0000
0100
0000
0010
0000
1000
0000
0100
0000
0010
0100
1000
0002
0000
0000
,
0103
0010
0100
0001
1000
0100
0010
0001
,
0010
0000
0100
0000
1000
0000
0001
0000
0100
0000
0010
1000
0100
0020
0000
0000
,
0130
1000
0100
0010
0001
0100
0010
1000
,
0001
0000
0000
0000
0000
0000
0100
0000
0000
0000
0000
0000
0010
0000
0000
1000
0000
0000
010M
0000
0000
0010
0000
0000
M001
0000
0000
0001
00M0
0000
M100
0000
0000
0100
0000
0000
M01M
0000
0000
0000
0000
0000
0010
0000
0000
0000
0000
0000
,
1000
1000
0100
0100
0010
0001
1000
0001
,
0100
0010
0100
0001
1000
0100
0010
0100
,
1000
0001
0100
0010
1000
0100
0001
0100
,
0010
0001
0100
1000
0100
0010
1000
0100
,
0010
0000
0001
0000
0010
0000
0100
0000
1000
0000
0001
0200
0000
0320
0000
0000
,
1030
0000
0100
0000
0010
0000
0001
0000
0010
0000
0100
0020
0000
0032
0000
0000
,
0103
0000
0010
0000
1000
0000
0001
0000
0100
0000
0010
2000
0000
3200
0000
0000
,
0310
0000
0100
0000
1000
0000
0001
0000
0100
0000
0010
0200
0000
0320
0000
0000
,
1030
0000
0100
0000
0001
0000
0100
0000
1000
0000
0010
0200
0000
0302
0000
0000
,
1003
0000
0100
0000
0010
0000
0001
0000
0100
0000
0010
0000
1000
0000
0400
0040
,
0000
0000
0000
0030
0301
0000
0100
0000
0010
0000
1000
0000
0100
0000
0040
0004
,
0000
0000
0000
0030
0103
0000
0010
0000
0100
0000
0001
0000
1000
0000
0400
4000
,
0000
0000
0000
0300
3001
0000
0100
0000
0010
0000
1000
0000
0100
0000
0040
0004
,
0000
0000
0000
0000
0033
0000
0000
MMMM
0000
MMMM
0000
0000
0000
0000
0100
0001
,
0100
0001
0100
0001
0100
0000
0010
0000
0100
0000
0001
0000
1000
0000
0100
0000
,
0010
0000
0001
0000
0100
0000
0010
0000
1000
0100
0010
0001
0010
0100
1000
0001
,
0100
0010
1000
0001
0100
0010
1000
0001
0100
0010
0100
0001
1000
0100
1000
0010
,
0100
0001
0010
0001
1000
0001
0100
0010
1000
0100
0010
0001
0010
0100
1000
0100
,
0010
0001
0100
0010
0100
0001
1000
0100
0010
0100
1000
0001
0100
0010
1000
0100
,
0010
0001
1000
0100
0010
0001
0010
0100
1000
0001
0010
0100
1000
0001
1000
0001
,
0100
0010
1000
0100
0010
0001
0010
0100
1000
0001
0100
0010
0100
0001
1000
0100
,
0010
0001
0010
0100
1000
0001
1000
0001
1000
0100
1000
0100
1000
0010
1000
0010
,
1000
0100
0010
0001
0010
0100
1000
0001
0100
0000
0010
0000
0100
0000
0001
0000
,
1000
0000
0100
0000
0010
0000
0001
0000
0100
0010
1000
0001
0100
0010
1000
0001
,
0100
0010
1000
0100
0010
0001
0010
0100
1000
0001
0100
0010
0100
0001
1000
0100
,
0010
0100
1000
0001
0100
0010
1000
0100
1000
0001
1000
0010
1000
0100
1000
0010
,
0100
0001
0010
0001
1000
0001
0100
0001
0010
0100
1000
0100
0010
0001
0010
0100
,
1000
0001
0100
0010
1000
0100
0010
0100
1000
0001
0100
0010
0100
0010
1000
0010
,
1000
0100
0010
0001
0010
0100
1000
0100
0010
0001
0010
0100
1000
0100
0010
0001
,
0100
0010
1000
0100
0010
0001
0100
0010
1000
0100
1000
0100
1000
0001
1000
0001
,
1000
0010
1000
0010
0100
0010
0100
0010
0100
0000
0001
0000
1000
0000
0100
0000
,
0010
0001
1000
0001
0000
0000
0000
0000
;
