#TITLE:Usamatix;
#SUBTITLE:;
#ARTIST:DJ Sharpnel;
#TITLETRANSLIT:;
#SUBTITLETRANSLIT:;
#ARTISTTRANSLIT:;
#CREDIT:;
#BANNER:usamatix bn.png;
#BACKGROUND:usamatix bg.png;
#LYRICSPATH:;
#CDTITLE:;
#MUSIC:Usamatix.ogg;
#OFFSET:-2.725;
#SAMPLESTART:41.137;
#SAMPLELENGTH:19.199;
#SELECTABLE:YES;
#BPMS:0.000=200.000;
#STOPS:;
#BGCHANGES:;
// cache tags:
#FIRSTBEAT:0.000;
#LASTBEAT:695.063;
#SONGFILENAME:Songs/SHARPNELSTREAMZ v2/Usamatix/Usamatix.sm;
#HASMUSIC:1;
#HASBANNER:1;
#MUSICLENGTH:214.073;
// end cache tags

//---------------dance-single - 17+ (CTalon)----------------
#NOTES:
     dance-single:
     17+ (CTalon):
     Challenge:
     17:
     1.000,1.000,0.019,0.079,1.000,2451.000,4.000,17.000,0.000,0.000:
1001
0000
1000
0010
0100
0000
0001
0010
,
0000
0100
1000
0000
0001
0100
0001
0100
,
0010
0000
1000
0100
0010
0000
0001
0100
,
0000
0010
1000
0000
0100
0010
0001
0010
,
0100
0000
0010
0001
1000
0000
0010
0100
,
0000
0001
0010
0000
0001
1000
0001
0100
,
0010
0000
1000
0100
0010
0000
0100
1000
,
0000
0001
0100
0000
0010
1000
0100
0010
,
0001
0000
0100
0010
1000
0000
0001
0100
,
0000
0001
0100
0000
0010
1000
0100
0010
,
0100
0000
1000
0001
0100
0000
0010
1000
,
0000
0001
0010
0000
0100
0010
0001
1000
,
0001
0000
0100
0010
1000
0000
0001
0010
,
0000
0001
0100
0000
0010
1000
0100
0010
,
0001
0000
1000
0010
0100
0000
0001
0010
,
0001
0000
0000
0000
0000
0000
1000
0000
0010
0000
1000
0000
0010
0000
0000
0100
0000
0000
0001
0000
0000
0000
0000
0000
0010
0000
0000
0001
0000
0000
0100
0000
0000
0010
0000
0000
1000
0000
0000
0100
0000
0000
1000
0000
0000
0010
0000
0000
,
1000
0001
0010
0100
1000
0001
1000
0010
1000
0001
0010
0100
1000
0001
1000
0010
,
0100
0001
0010
0100
0010
0001
0100
0010
1000
0001
0100
0001
0010
0001
0100
0001
,
1000
0100
1000
0001
0100
0010
1000
0010
1000
0100
1000
0001
0100
0010
1000
0010
,
1000
0100
1000
0010
0100
0001
0010
0100
1000
0001
0100
0001
0010
0001
0100
0001
,
1000
0001
0100
0010
1000
0001
1000
0100
1000
0001
0100
0010
1000
0001
1000
0100
,
0010
0001
0100
0010
0100
0001
0010
0100
1000
0001
0010
0001
0100
0001
0010
0001
,
1000
0010
1000
0001
0010
0100
1000
0100
1000
0010
1000
0001
0010
0100
1000
0100
,
1000
0010
1000
0100
0010
0001
0100
0010
1000
0001
0010
0001
0100
0001
0010
0001
,
1000
0001
0010
0100
1000
0001
1000
0010
1000
0001
0010
0100
1000
0001
1000
0010
,
0100
0001
0010
0100
0010
0001
0100
0010
1000
0001
0100
0001
0010
0001
0100
0001
,
1000
0100
1000
0001
0100
0010
1000
0010
1000
0100
1000
0001
0100
0010
1000
0010
,
1000
0100
1000
0010
0100
0001
0010
0100
1000
0001
0100
0001
0010
0001
0100
0001
,
1000
0001
0100
0010
1000
0001
1000
0100
1000
0001
0100
0010
1000
0001
1000
0100
,
0010
0001
0100
0010
0100
0001
0010
0100
1000
0001
0010
0001
0100
0001
0010
0001
,
1000
0010
1000
0001
0010
0100
1000
0100
1000
0010
1000
0001
0010
0100
1000
0100
,
1000
0010
1000
0100
0010
0001
0100
0001
1000
0000
0000
0000
0010
0000
0100
0001
,
1000
0100
1000
0010
0100
0001
0010
0001
1000
0100
1000
0010
0100
0001
0010
0001
,
1000
0100
1000
0010
0100
0001
0010
0001
1000
0001
1000
0001
1000
0010
1000
0100
,
1000
0010
1000
0100
0010
0001
0100
0001
1000
0010
1000
0100
0010
0001
0100
0001
,
1000
0010
1000
0100
0010
0001
0100
0001
1000
0001
1000
0001
1000
0010
1000
0010
,
1000
0100
1000
0010
0100
0001
0010
0001
1000
0100
1000
0010
0100
0001
0010
0001
,
1000
0100
1000
0010
0100
0001
0010
0001
1000
0001
1000
0001
1000
0010
1000
0100
,
1000
0010
1000
0100
0010
0001
0100
0001
1000
0010
1000
0100
0010
0001
0100
0001
,
1000
0010
1000
0100
0010
0001
0100
0001
1000
0001
1000
0001
1000
0010
1000
0010
,
1000
0100
1000
0010
0100
0001
0010
0001
1000
0100
1000
0010
0100
0001
0010
0001
,
1000
0100
1000
0010
0100
0001
0010
0001
1000
0001
1000
0001
1000
0010
1000
0100
,
1000
0010
1000
0100
0010
0001
0100
0001
1000
0010
1000
0100
0010
0001
0100
0001
,
1000
0010
1000
0100
0010
0001
0100
0001
1000
0001
1000
0001
1000
0010
1000
0010
,
1000
0100
1000
0010
0100
0001
0010
0001
1000
0100
1000
0010
0100
0001
0010
0001
,
1000
0100
1000
0010
0100
0001
0010
0001
1000
0001
1000
0001
1000
0010
1000
0100
,
1000
0010
1000
0100
0010
0001
0100
0001
1000
0010
1000
0100
0010
0001
0100
0001
,
1000
0000
1000
0000
0020
0000
0030
0000
0200
0000
0300
0000
0001
0000
0010
0100
,
4000
0000
0000
0000
0000
0010
0000
0000
,
3004
0000
0000
0100
0000
0010
0000
1000
,
4003
0010
0000
0001
0000
0100
0000
0001
,
3001
0000
0010
0100
1000
0001
0100
0000
0001
0000
0000
0010
0100
0000
1000
0000
,
0001
0010
0100
1000
0010
0100
0001
0010
0001
1000
0010
0100
0001
1000
0010
0100
,
0001
0010
0100
1000
0010
0100
0001
0010
0001
1000
0010
0100
0001
1000
0010
0100
,
0001
0010
0100
1000
0010
0100
0001
0010
0001
1000
0010
0100
0001
1000
0010
0100
,
0001
0010
0100
1000
0010
0100
0001
0010
0001
1000
0010
0100
0001
1000
0010
0100
,
0001
0100
0010
1000
0100
0010
0001
0100
0001
1000
0100
0010
0001
1000
0100
0010
,
0001
0100
0010
1000
0100
0010
0001
0100
0001
1000
0100
0010
0001
1000
0100
0010
,
0001
0100
0010
1000
0100
0010
0001
0100
0001
1000
0100
0010
0001
1000
0100
0010
,
0001
0100
0010
1000
0100
0010
0001
0100
0001
1000
0100
0010
0001
1000
0100
0010
,
0001
0010
0100
1000
0010
0100
0001
0010
0001
1000
0010
0100
0001
1000
0010
0100
,
0001
0010
0100
1000
0010
0100
0001
0010
0001
1000
0010
0100
0001
1000
0010
0100
,
0001
0010
0100
1000
0010
0100
0001
0010
0001
1000
0010
0100
0001
1000
0010
0100
,
0001
0010
0100
1000
0010
0100
0001
0010
0001
1000
0010
0100
0001
1000
0010
0100
,
0001
0100
0010
1000
0100
0010
0001
0100
0001
1000
0100
0010
0001
1000
0100
0010
,
0001
0100
0010
1000
0100
0010
0001
0100
0001
1000
0100
0010
0001
1000
0100
0010
,
0001
0100
0010
1000
0100
0010
0001
0100
0001
1000
0100
0010
0001
1000
0100
0010
,
0001
0100
0010
1000
0100
0010
0001
0100
0001
0000
0000
0000
2002
0000
3003
0000
,
1000
0100
0010
0001
0100
0010
1000
0100
1000
0001
0100
0010
1000
0001
0100
0010
,
1000
0100
0010
0001
0100
0010
1000
0100
1000
0001
0100
0010
1000
0001
0100
0010
,
1000
0100
0010
0001
0100
0010
1000
0100
1000
0001
0100
0010
1000
0001
0100
0010
,
1000
0100
0010
0001
0100
0010
1000
0100
1000
0001
0100
0010
1000
0001
0100
0010
,
1000
0010
0100
0001
0010
0100
1000
0010
1000
0001
0010
0100
1000
0001
0010
0100
,
1000
0010
0100
0001
0010
0100
1000
0010
1000
0001
0010
0100
1000
0001
0010
0100
,
1000
0010
0100
0001
0010
0100
1000
0010
1000
0001
0010
0100
1000
0001
0010
0100
,
1000
0010
0100
0001
0010
0100
1000
0010
1000
0001
0010
0100
1000
0001
0010
0100
,
1000
0100
0010
0001
0100
0010
1000
0100
1000
0001
0100
0010
1000
0001
0100
0010
,
1000
0100
0010
0001
0100
0010
1000
0100
1000
0001
0100
0010
1000
0001
0100
0010
,
1000
0100
0010
0001
0100
0010
1000
0100
1000
0001
0100
0010
1000
0001
0100
0010
,
1000
0100
0010
0001
0100
0010
1000
0100
1000
0001
0100
0010
1000
0001
0100
0010
,
1000
0010
0100
0001
0010
0100
1000
0010
1000
0001
0010
0100
1000
0001
0010
0100
,
1000
0010
0100
0001
0010
0100
1000
0010
1000
0001
0010
0100
1000
0001
0010
0100
,
1000
0010
0100
0001
0010
0100
1000
0010
1000
0001
0010
0100
1000
0001
0010
0100
,
1000
0010
1000
0100
0010
0001
0100
0001
1000
0000
0001
2000
0002
0000
3003
0000
,
0001
0010
0100
1000
0010
0100
0001
0010
0001
1000
0010
0100
0001
1000
0010
0100
,
0001
0010
0100
1000
0010
0100
0001
0010
0001
1000
0010
0100
0001
1000
0010
0100
,
0001
0010
0100
1000
0010
0100
0001
0010
0001
1000
0010
0100
0001
1000
0010
0100
,
0001
0010
0100
1000
0010
0100
0001
0010
0001
1000
0010
0100
0001
1000
0010
0100
,
0001
0100
0010
1000
0100
0010
0001
0100
0001
1000
0100
0010
0001
1000
0100
0010
,
0001
0100
0010
1000
0100
0010
0001
0100
0001
1000
0100
0010
0001
1000
0100
0010
,
0001
0100
0010
1000
0100
0010
0001
0100
0001
1000
0100
0010
0001
1000
0100
0010
,
0001
0100
0010
1000
0100
0010
0001
0100
0001
1000
0100
0010
0001
1000
0100
0010
,
0001
0010
0100
1000
0010
0100
0001
0010
0001
1000
0010
0100
0001
1000
0010
0100
,
0001
0010
0100
1000
0010
0100
0001
0010
0001
1000
0010
0100
0001
1000
0010
0100
,
0001
0010
0100
1000
0010
0100
0001
0010
0001
1000
0010
0100
0001
1000
0010
0100
,
0001
0010
0100
1000
0010
0100
0001
0010
0001
1000
0010
0100
0001
1000
0010
0100
,
0001
0100
0010
1000
0100
0010
0001
0100
0001
1000
0100
0010
0001
1000
0100
0010
,
0001
0100
0010
1000
0100
0010
0001
0100
0001
1000
0100
0010
0001
1000
0100
0010
,
0001
0100
0010
1000
0100
0010
0001
0100
0001
1000
0100
0010
0001
1000
0100
0010
,
0001
0100
0010
1000
0100
0010
0001
0100
0001
0000
0000
0000
2002
0000
3003
0000
,
1000
0100
0010
0001
0100
0010
1000
0100
1000
0001
0100
0010
1000
0001
0100
0010
,
1000
0100
0010
0001
0100
0010
1000
0100
1000
0001
0100
0010
1000
0001
0100
0010
,
1000
0100
0010
0001
0100
0010
1000
0100
1000
0001
0100
0010
1000
0001
0100
0010
,
1000
0100
0010
0001
0100
0010
1000
0100
1000
0001
0100
0010
1000
0001
0100
0010
,
1000
0010
0100
0001
0010
0100
1000
0010
1000
0001
0010
0100
1000
0001
0010
0100
,
1000
0010
0100
0001
0010
0100
1000
0010
1000
0001
0010
0100
1000
0001
0010
0100
,
1000
0010
0100
0001
0010
0100
1000
0010
1000
0001
0010
0100
1000
0001
0010
0100
,
1000
0010
0100
0001
0010
0100
1000
0010
1000
0001
0010
0100
1000
0001
0010
0100
,
1000
0100
0010
0001
0100
0010
1000
0100
1000
0001
0100
0010
1000
0001
0100
0010
,
1000
0100
0010
0001
0100
0010
1000
0100
1000
0001
0100
0010
1000
0001
0100
0010
,
1000
0100
0010
0001
0100
0010
1000
0100
1000
0001
0100
0010
1000
0001
0100
0010
,
1000
0100
0010
0001
0100
0010
1000
0100
1000
0001
0100
0010
1000
0001
0100
0010
,
1000
0010
0100
0001
0010
0100
1000
0010
1000
0001
0010
0100
1000
0001
0010
0100
,
1000
0010
0100
0001
0010
0100
1000
0010
1000
0001
0010
0100
1000
0001
0010
0100
,
1000
0010
0100
0001
0010
0100
1000
0010
1000
0001
0010
0100
1000
0001
0010
0100
,
1000
0010
1000
0100
0010
0001
0100
0001
1000
0000
0001
2000
0002
0000
3003
0000
,
0001
0001
0000
0100
0010
1000
0001
0000
,
1000
1000
0000
0100
0010
0001
1000
0000
,
0001
0001
0000
0100
0010
1000
0001
0000
,
0000
0010
0000
0010
0000
0000
0100
0000
1000
0000
0001
0000
1000
0000
0000
0000
,
0100
0100
0000
0010
0001
1000
0001
0000
,
0100
0100
0000
0010
1000
0100
0010
0000
,
0001
0001
0000
1000
0010
0100
0001
0000
,
0000
0010
0000
0010
0000
0000
0001
0000
1000
0000
0100
0000
0010
0000
0000
0000
,
0001
0010
0001
0100
0001
1000
0100
1000
0001
0010
0100
1000
0010
0100
0001
1000
,
0001
0010
0001
0100
0001
1000
0100
1000
0001
0010
0100
1000
0010
0100
0001
1000
,
0001
0010
0001
0100
0001
1000
0100
1000
0001
0010
0100
1000
0010
0100
0001
1000
,
0001
0010
0001
0100
0001
1000
0100
1000
0001
0010
0100
1000
0010
0100
0001
1000
,
0001
0100
0001
0010
0001
1000
0010
1000
0001
0100
0010
1000
0100
0010
0001
1000
,
0001
0100
0001
0010
0001
1000
0010
1000
0001
0100
0010
1000
0100
0010
0001
1000
,
0001
0100
0001
0010
0001
1000
0010
1000
0001
0100
0010
1000
0100
0010
0001
1000
,
0001
0100
0001
0010
0001
1000
0010
1000
0001
0000
1000
0002
2000
0000
3003
0000
,
0001
0010
0001
0100
0001
1000
0100
1000
0001
0010
0100
1000
0010
0100
0001
1000
,
0001
0010
0001
0100
0001
1000
0100
1000
0001
0010
0100
1000
0010
0100
0001
1000
,
0001
0010
0001
0100
0001
1000
0100
1000
0001
0010
0100
1000
0010
0100
0001
1000
,
0001
0010
0001
0100
0001
1000
0100
1000
0001
0010
0100
1000
0010
0100
0001
1000
,
0001
0100
0001
0010
0001
1000
0010
1000
0001
0100
0010
1000
0100
0010
0001
1000
,
0001
0100
0001
0010
0001
1000
0010
1000
0001
0100
0010
1000
0100
0010
0001
1000
,
0001
0100
0001
0010
0001
1000
0010
1000
0001
0100
0010
1000
0100
0010
0001
1000
,
0001
0100
0001
0010
0001
1000
0010
1000
0001
0100
0010
1000
0100
0010
0001
1000
,
0001
1000
0100
0010
0001
1000
0001
0100
0001
1000
0100
0010
0001
1000
0001
0100
,
0010
1000
0100
0010
0100
1000
0010
0100
0001
1000
0010
1000
0100
1000
0010
1000
,
0001
0010
0001
1000
0010
0100
0001
0100
0001
0010
0001
1000
0010
0100
0001
0100
,
0001
0010
0001
0100
0010
1000
0100
0010
0001
1000
0010
1000
0100
1000
0010
1000
,
0001
1000
0010
0100
0001
1000
0001
0010
0001
1000
0010
0100
0001
1000
0001
0010
,
0100
1000
0010
0100
0010
1000
0100
0010
0001
1000
0100
1000
0010
1000
0100
1000
,
0001
0100
0001
1000
0100
0010
0001
0010
0001
0100
0001
1000
0100
0010
0001
0010
,
0001
0100
0001
0010
0100
1000
0010
0100
0001
1000
0100
1000
0010
1000
0100
1000
,
0001
1000
0100
0010
0001
1000
0001
0100
0001
1000
0100
0010
0001
1000
0001
0100
,
0010
1000
0100
0010
0100
1000
0010
0100
0001
1000
0010
1000
0100
1000
0010
1000
,
0001
0010
0001
1000
0010
0100
0001
0100
0001
0010
0001
1000
0010
0100
0001
0100
,
0001
0010
0001
0100
0010
1000
0100
0010
0001
1000
0010
1000
0100
1000
0010
1000
,
0001
1000
0010
0100
0001
1000
0001
0010
0001
1000
0010
0100
0001
1000
0001
0010
,
0100
1000
0010
0100
0010
1000
0100
0010
0001
1000
0100
1000
0010
1000
0100
1000
,
0001
0100
0001
1000
0100
0010
0001
0010
0001
0100
0001
1000
0100
0010
0001
0010
,
0001
0100
0001
0010
0100
1000
0010
0100
0001
1000
0100
1000
0010
1000
0100
1000
,
0001
1000
0100
0010
0001
1000
0001
0100
0001
1000
0100
0010
0001
1000
0001
0100
,
0010
1000
0100
0010
0100
1000
0010
0100
0001
1000
0010
1000
0100
1000
0010
1000
,
0001
0010
0001
1000
0010
0100
0001
0100
0001
0010
0001
1000
0010
0100
0001
0100
,
0001
0010
0001
0100
0010
1000
0100
0010
0001
1000
0010
1000
0100
1000
0010
1000
,
0001
1000
0010
0100
0001
1000
0001
0010
0001
1000
0010
0100
0001
1000
0001
0010
,
0100
1000
0010
0100
0010
1000
0100
0010
0001
1000
0100
1000
0010
1000
0100
1000
,
0001
0100
0001
1000
0100
0010
0001
0010
0001
0100
0001
1000
0100
0010
0001
0010
,
0001
0100
0001
0010
0100
1000
0010
0100
0001
1000
0100
1000
0010
1000
0100
1000
,
0001
1000
0100
0010
0001
1000
0001
0100
0001
1000
0100
0010
0001
1000
0001
0100
,
0010
1000
0100
0010
0100
1000
0010
0100
0001
1000
0010
1000
0100
1000
0010
1000
,
0001
0010
0001
1000
0010
0100
0001
0100
0001
0010
0001
1000
0010
0100
0001
0100
,
0001
0010
0001
0100
0010
1000
0100
0010
0001
1000
0010
1000
0100
1000
0010
1000
,
0001
1000
0010
0100
0001
1000
0001
0010
0001
1000
0010
0100
0001
1000
0001
0010
,
0100
1000
0010
0100
0010
1000
0100
0010
0001
1000
0100
1000
0010
1000
0100
1000
,
0001
0100
0001
1000
0100
0010
0001
0010
0001
0100
0001
1000
0100
0010
0001
0010
,
0001
0100
0001
0010
0100
1000
0010
0100
0001
1000
0100
1000
0010
1000
0100
1000
,
0002
0000
0203
0000
0310
1000
0002
0000
,
1003
0000
0000
0000
0000
0000
0000
0000
0010
0000
0000
0000
0100
0000
0000
0000
0001
0000
0000
0000
0010
0000
0000
0000
0001
0000
0000
0000
0000
0000
0000
0000
2000
0000
0000
0000
0000
0000
0000
0000
0000
0000
0000
0000
0000
0000
0000
0000
3020
0030
0000
0000
0000
0000
0000
0000
0000
0000
0000
0000
0000
0000
0000
0000
;
