#TITLE:Bad Girl;
#SUBTITLE:(Edit);
#ARTIST:m1dy;
#TITLETRANSLIT:;
#SUBTITLETRANSLIT:;
#ARTISTTRANSLIT:;
#CREDIT:Rynker;
#BANNER:Bn-Bad.png;
#BACKGROUND:Bg-Bad.png;
#LYRICSPATH:;
#CDTITLE:;
#MUSIC:Bad Girl (Edit) - m1dy.ogg;
#OFFSET:0.230;
#SAMPLESTART:100.041;
#SAMPLELENGTH:12.000;
#SELECTABLE:YES;
#BPMS:0.000=185.000;
#STOPS:;
#BGCHANGES:;
// cache tags:
#FIRSTBEAT:28.000;
#LASTBEAT:437.000;
#SONGFILENAME:Songs/SPEEEDCOOOORE 3/Bad Girl (Edit) - [Rynker]/badgirl.sm;
#HASMUSIC:1;
#HASBANNER:1;
#MUSICLENGTH:143.620;
// end cache tags

//---------------dance-single - Rynker----------------
#NOTES:
     dance-single:
     Rynker:
     Challenge:
     12:
     1.000,1.000,0.014,0.007,0.992,1028.000,2.000,1.000,0.000,0.000:
0000
0000
0000
0000
,
0000
0000
0000
0000
,
0000
0000
0000
0000
,
0000
0000
0000
0000
,
0000
0000
0000
0000
,
0000
0000
0000
0000
,
0000
0000
0000
0000
,
0100
0001
1000
0000
0100
0000
0010
0100
1000
0000
0001
0000
0100
0000
0001
0000
,
1000
0010
0100
0000
0001
0000
1000
0100
0010
0000
0100
0000
0100
0000
1000
0000
,
0001
0000
0100
0000
0010
1000
0001
0010
,
0100
0000
0010
0000
0001
1000
0001
0100
,
0010
0100
0010
0000
1000
0001
0010
0100
,
1000
0001
0100
0000
0001
1000
0010
0100
,
0010
0000
0100
0000
0001
1000
0100
0010
,
0001
0000
0010
0000
0001
1000
0010
0100
,
0001
1000
0100
0000
1000
0001
0100
0010
,
1000
0000
0001
0000
0100
0000
0000
0000
0001
1000
0100
0010
0001
1000
0001
0100
,
0010
0000
0000
1000
0000
0000
0001
0000
0010
0100
1000
0000
0001
0000
0100
0010
,
1000
0000
0000
0001
0000
0000
0010
0000
0100
1000
0001
0000
0010
0000
0001
0010
,
0100
0000
0000
1000
0000
0000
0010
0000
1000
0010
0100
0000
0001
0000
0100
0010
,
1000
0000
0001
0000
0010
0100
0010
0000
0100
1000
0100
0010
0001
1000
0010
0100
,
0010
0000
0000
1000
0000
0000
0001
0000
0010
0100
1000
0000
0001
0000
0100
0010
,
1000
0000
0000
0001
0000
0000
0010
0000
0100
1000
0001
0000
0010
0000
0001
0010
,
0100
0000
0000
1000
0000
0000
0010
0000
1000
0010
0100
0000
0001
0000
0100
0010
,
1000
0000
0001
0000
0010
0001
0010
0000
0001
0000
0001
0000
1000
0000
1000
0000
,
0001
0000
0100
0000
0010
0000
0100
0000
0001
1000
0100
0000
0010
0000
0001
0010
,
0001
0000
1000
0001
0000
0000
0100
0000
0010
1000
0001
0000
0010
0000
0100
1000
,
0001
0000
0010
0100
0000
0000
1000
0000
0001
0100
0010
0000
0100
0000
0010
1000
,
0100
0000
0010
0000
0100
0010
0100
0000
0010
0001
0010
0100
1000
0100
0010
0001
,
1000
0000
0001
0100
0000
0000
0010
0000
1000
0010
0100
0000
0001
0000
1000
0100
,
1000
0000
0001
0010
0000
0000
0001
0000
1000
0001
0100
0000
0010
0000
1000
0001
,
0010
0000
0100
1000
0000
0000
0001
0000
1000
0001
0100
0000
0010
0000
0100
0001
,
1000
0001
0010
0000
0011
0000
0000
0000
0000
0000
0000
0000
0000
0000
0000
0000
,
0001
1000
0010
0000
0100
0000
0001
0010
0100
0000
1000
0000
0001
0000
0010
0000
,
0100
1000
0001
0000
0100
0000
0001
1000
0010
0000
0100
0000
0001
0000
1000
0000
,
0001
0010
0100
0000
1000
0000
0001
0010
0100
0000
1000
0000
0001
0000
0100
0000
,
0001
1000
0010
0000
0100
0000
0001
1000
0010
0000
0100
0000
0001
0000
1000
0001
,
0010
0100
1000
0000
0001
0000
1000
0100
0010
0000
0001
0000
1000
0000
0010
0000
,
1000
0001
0100
0000
0010
0000
1000
0001
0100
0000
0010
0000
1000
0000
0001
0000
,
0010
0100
1000
0000
0001
0000
0010
0100
1000
0000
0001
0000
1000
0000
0010
0000
,
4000
0000
0000
0000
0000
0000
0000
3000
,
0001
0000
0100
0000
0001
0000
1000
0100
0010
0000
0001
0000
0100
0000
0010
1000
,
0010
0000
0100
0000
0001
0010
0001
0010
0100
0000
1000
0000
0010
0000
0100
0001
,
1000
0000
0001
0000
0010
0000
0100
1000
0001
0000
0100
0000
0010
0000
1000
0010
,
1000
0000
0001
0000
0010
0100
1000
0001
0000
0000
0000
0000
0000
0000
0000
0000
,
1000
0000
0100
0000
0010
0000
0001
1000
0100
0000
1000
0000
0001
0000
0100
0001
,
1000
0000
0001
0000
0100
0010
1000
0010
1000
0000
0010
0000
0100
0000
0001
0010
,
0100
0000
1000
0000
0001
0000
0010
0100
1000
0000
0001
0000
0100
0000
0001
1000
,
0010
0000
0100
0000
0001
1000
0001
1000
0010
0000
0100
0000
0001
0000
1000
0001
,
0010
0000
0001
0000
1000
0000
0100
0010
0001
0000
1000
0000
0001
0000
0100
0010
,
1000
0000
0010
0000
0100
0001
1000
0001
0010
0000
0100
0000
1000
0000
0001
0100
,
0001
0000
1000
0000
0100
0000
1000
0100
0010
0000
0001
0000
1000
0100
1000
0100
,
0010
0000
0001
0000
1000
0100
1000
0004
0000
0000
0000
0000
0000
0000
0000
0003
,
1000
0000
0010
0000
0100
0000
0001
0010
0001
0000
1000
0000
0100
0000
0010
0000
,
0100
0000
1000
0000
0001
0000
0100
0001
1000
0000
0010
0000
0100
0000
0010
0000
,
1000
0000
0001
0000
0010
0000
0100
1000
0001
0000
0010
0000
0001
0000
1000
0000
,
0001
0000
0100
0000
0010
0000
1000
0010
0100
0000
0010
0000
1000
0000
0001
0000
,
0010
0000
0100
0000
1000
0000
0001
0010
0001
0000
1000
0000
0001
0000
0100
0000
,
0010
0000
1000
0000
0010
0000
0100
0010
1000
0000
0010
0000
0100
0000
0001
0000
,
1000
0000
0001
0000
0010
0000
0100
1000
0001
0000
0010
0000
0001
1000
0004
0003
,
1000
0000
0010
0100
0010
0000
0100
0000
0010
0000
0100
0010
0100
0000
0001
0000
,
1001
0000
1000
0100
1000
0000
0001
0000
0010
0000
0001
0100
0001
0000
1000
0000
,
0100
0000
1000
0010
1000
0000
0001
0000
0100
0000
0010
1000
0010
0000
0100
0000
,
0001
0000
0010
0100
0010
0000
0100
0000
1000
0000
0001
0100
0001
0000
0100
0000
,
0010
0000
1000
0100
1000
0000
0001
0000
0010
0000
0100
0010
0100
0000
1000
0000
,
0001
0000
0010
0100
1000
0000
0001
0000
0100
0000
0001
1000
0100
0000
1000
0000
,
0001
0000
1000
0100
0010
0000
0001
0000
0100
0000
0001
1000
0010
0000
0100
0000
,
0001
0000
0010
0100
1000
0000
0001
0000
0100
0000
0010
1000
0001
0000
1000
0000
,
0001
0000
1000
0100
0010
0000
0100
1000
0001
1000
0001
0100
0010
1000
0001
1000
,
0010
0100
0010
1000
0001
0100
0010
1000
0010
0100
0001
1000
0100
0010
0100
1000
,
0001
0010
0100
1000
0001
0100
0010
0100
0001
1000
0100
0010
0100
1000
0010
0100
,
0001
0100
0010
1000
0001
0010
0100
0010
0001
1000
0001
0100
0010
0100
0001
0010
,
0100
1000
0100
0010
0001
1000
0001
0100
0010
0100
0001
1000
0100
0010
0001
0010
,
0100
1000
0001
1000
0001
0100
0010
0100
0001
1000
0100
1000
0001
0010
0001
1000
,
0010
1000
0001
0100
0010
0100
0001
1000
0100
0010
0001
1000
0001
0100
0010
0100
,
0001
0010
0100
1000
0100
0010
0001
1000
0001
0100
0010
1000
0100
1000
0001
0100
,
0010
0100
0001
1000
0001
1000
0001
0000
0000
0000
0000
0000
1000
0000
0000
0000
,
0001
0000
0100
0000
0010
0000
0100
0000
0001
1000
0100
0000
0010
0000
0001
0010
,
0001
0000
1000
0001
0000
0000
0100
0000
0010
1000
0001
0000
0010
0000
0100
1000
,
0001
0000
0010
0100
0000
0000
1000
0000
0001
0100
0010
0000
0100
0000
0010
1000
,
0100
0000
0010
0000
0100
0010
0100
0000
0010
0001
0010
0100
1000
0100
0010
0001
,
1000
0000
0001
0100
0000
0000
0010
0000
1000
0010
0100
0000
0001
0000
1000
0100
,
1000
0000
0001
0010
0000
0000
0001
0000
1000
0001
0100
0000
0010
0000
1000
0001
,
0010
0000
0100
1000
0000
0000
0001
0000
1000
0001
0100
0000
0010
0000
0100
0001
,
4000
0000
0000
0000
0000
0000
0000
3000
0001
0100
0010
1000
0001
0100
0010
0000
,
1000
0000
0010
0000
0100
0000
0010
0000
1000
0001
0010
0000
0100
0000
1000
0100
,
1000
0000
0001
1000
0000
0000
0010
0000
0100
0001
1000
0000
0100
0000
0010
0001
,
1000
0000
0100
0010
0000
0000
0001
0000
1000
0010
0100
0000
0010
0000
0100
0001
,
0010
0000
0100
0000
0010
0100
0010
0000
0100
1000
0100
0010
0001
0010
0100
1000
,
0001
0000
1000
0010
0000
0000
0100
0000
0001
0100
0010
0000
1000
0000
0001
0010
,
0001
0000
1000
0100
0000
0000
1000
0000
0001
1000
0010
0000
0100
0000
0001
1000
,
0100
0000
0010
0001
0000
0000
1000
0000
0001
1000
0010
0000
0100
0000
0010
1000
,
0001
1000
0100
0010
0001
1000
0001
0100
0010
0100
0001
1000
0001
0000
0000
0000
,
1000
0000
0100
0000
0010
0000
0001
1000
0100
0000
1000
0000
0001
0000
0100
0001
,
1000
0000
0001
0000
0100
0010
1000
0010
1000
0000
0010
0000
0100
0000
0001
0010
,
0100
0000
1000
0000
0001
0000
0010
0100
1000
0000
0001
0000
0100
0000
0001
1000
,
0010
0000
0100
0000
0001
1000
0001
1000
0010
0000
0100
0000
0001
0000
1000
0001
,
0010
0000
0001
0000
1000
0000
0100
0010
0001
0000
1000
0000
0001
0000
0100
0010
,
1000
0000
0010
0000
0100
0001
1000
0001
1000
0000
0100
0000
0010
0000
0001
1000
,
0100
0000
1000
0000
0001
0000
0100
0001
1000
0000
0001
0000
0010
0000
0001
1000
,
0100
1000
0100
0000
1000
0001
1000
0001
0100
0010
1000
0001
1000
0001
0010
0000
,
0001
0000
0010
0000
0100
0000
1000
0001
0010
0000
0001
0000
1000
0000
0010
1000
,
0001
0000
1000
0000
0010
0100
0001
0100
0001
0000
0100
0000
0010
0000
1000
0100
,
0010
0000
0001
0000
1000
0000
0100
0010
0001
0000
1000
0000
0010
0000
1000
0001
,
0100
0000
0010
0000
1000
0001
1000
0001
0100
0000
0010
0000
1000
0000
0001
1000
,
0100
0000
1000
0000
0001
0000
0010
0100
1000
0000
0001
0000
1000
0000
0010
0100
,
0001
0000
0100
0000
0010
1000
0001
1000
0001
0000
0010
0000
0100
0000
1000
0001
,
0010
0000
0001
0000
1000
0000
0100
0010
0001
0000
1000
0000
0010
0000
1000
0001
,
0100
0000
0010
0000
1000
0001
1000
0001
0100
0000
0010
0000
2000
0000
0000
0000
,
0000
3000
0000
0000
;
