#TITLE:Highscore;
#SUBTITLE:;
#ARTIST:Teminite & Panda Eyes;
#TITLETRANSLIT:;
#SUBTITLETRANSLIT:;
#ARTISTTRANSLIT:;
#CREDIT:owenviau1;
#BANNER:../BN.PNG;
#BACKGROUND:;
#LYRICSPATH:;
#CDTITLE:;
#MUSIC:Teminite & Panda Eyes - Highscore.ogg;
#OFFSET:-4.803;
#SAMPLESTART:133.530;
#SAMPLELENGTH:29.999;
#SELECTABLE:YES;
#BPMS:0.000=110.000;
#STOPS:;
#BGCHANGES:;
// cache tags:
#FIRSTBEAT:8.000;
#LASTBEAT:463.000;
#SONGFILENAME:Songs/owenviau1 Simfiles 07_final/Highscore - [Braeden47] - v1.0.1/Highscore.sm;
#HASMUSIC:1;
#HASBANNER:1;
#MUSICLENGTH:259.683;
// end cache tags

//---------------dance-single - ----------------
#NOTES:
     dance-single:
     :
     Challenge:
     12:
     0.729,0.780,0.528,0.320,0.764,1091.000,137.000,83.000,0.000,2.000:

0000
0000
0000
0000
,
0000
0000
0000
0000
,
1100
0000
0000
0000
,
1001
0000
0000
0000
1000
0010
1000
0010
1000
0000
0010
0000
0100
0000
0001
0000
,
0101
0000
0000
0000
0001
0100
0001
0100
0001
0000
0100
0000
0010
0000
1000
0000
,
1010
0000
0000
0000
0100
0001
0100
0010
1000
0000
0100
0000
0110
0000
0010
0000
,
0011
0000
0000
0000
0000
0001
0100
0010
1000
0000
0000
0000
0001
0000
0000
0000
,
1001
0000
0000
0000
0000
1000
0001
0100
0020
0000
0000
0000
2030
0000
3000
0000
,
1001
0000
0000
0000
0000
0001
0100
0010
2000
0000
0000
0000
3200
0000
0300
0000
,
0011
0000
0000
0000
0000
0001
0100
0010
2000
0000
0000
0000
3200
0000
0300
0000
,
0011
0000
0002
0203
0320
2030
3200
0310
,
0011
0000
0000
0000
0001
1000
0100
1000
0002
0000
0203
0000
0302
0000
0103
0000
,
0101
0000
0000
0000
1000
0100
1000
0001
2000
0000
3020
0000
0230
0000
0301
0000
,
0011
0000
0000
0000
0001
0100
0001
0100
0001
0000
0010
0000
0110
0000
0100
0000
,
1100
0000
0000
0000
0000
0001
0100
0010
1000
0000
0000
0000
0020
0000
0000
0000
,
0430
0000
0000
0000
0300
0001
1000
0010
0200
0000
0000
0000
0302
0000
0000
0000
,
0043
0000
0000
0000
0030
0100
1000
0001
0200
0000
0000
0000
0320
0000
0000
0000
,
4030
0000
0000
0000
3000
0001
0100
0010
4000
0000
3000
0000
1002
0000
0003
0000
,
1001
0000
0000
0000
1000
0010
0100
0100
0001
0100
0010
0010
1000
0100
0010
0010
,
0004
0000
0000
0000
1003
0010
0100
0100
0001
0010
0100
0100
1000
0001
0100
0100
,
0040
0000
0000
0000
0130
0001
1000
1000
0010
0100
0001
0001
0100
0010
1000
1000
,
0004
0000
0000
0000
1003
0010
0100
0100
0001
1000
0100
0100
0010
0001
0100
0010
,
4000
0000
0000
0000
3001
0010
0100
1000
0001
0001
0100
0100
0010
0010
1000
1000
,
0040
0000
0000
0000
1030
0100
1000
0100
0010
0010
0001
0001
0010
0010
0001
0001
,
4000
0000
0000
0000
3001
0010
0001
0010
0100
0100
1000
1000
0100
0100
0010
0010
,
0004
0000
0000
0000
1003
0010
0100
0001
1001
0000
0000
0000
0000
0000
0000
0000
,
1001
0000
1000
0001
0010
0010
0010
0010
0010
0010
0010
0010
0100
0100
0100
0100
,
1000
0000
0001
1000
0001
0001
0001
0001
0001
0001
0001
0001
1000
1000
1000
1000
,
0010
0000
0100
0001
1000
1000
1000
1000
1000
1000
1000
1000
0001
0001
0001
0001
,
0100
1001
0101
1001
,
1011
0000
0100
0010
1000
1000
1000
1000
1000
1000
0100
0100
0010
0010
0010
0010
,
0100
0000
0001
0100
0010
0000
1000
1000
1000
1000
0001
0100
0010
0010
1000
1000
,
0001
0000
1000
0010
0100
0000
0001
0001
0001
0001
0100
0010
1000
1000
0001
0001
,
0100
0110
1001
0101
,
1011
0000
1000
0001
0100
0000
0010
1000
0000
1000
0010
0000
0010
0100
0000
0001
,
1001
0000
0010
0100
0010
0000
0000
1000
0000
0000
0010
0000
1000
0100
0000
0010
,
0110
0000
0001
0100
0010
0000
1000
0100
0000
0010
0001
0000
0100
0010
0000
1000
,
0410
0304
0043
0130
,
1001
0000
0001
0100
0010
0000
1000
0100
0000
0010
0001
0000
0100
0010
0000
1000
,
0110
0000
0001
0100
0010
0000
1000
0100
0000
0010
0001
0000
0010
0100
0000
1000
,
0011
0000
0001
0100
0010
0000
1000
0100
0000
0010
0001
0000
0100
0010
1000
0100
,
0011
0000
0101
0000
1000
0100
0010
0001
,
0202
0303
0202
0303
0102
0103
2020
3030
,
2001
3001
0102
0103
0210
0310
2010
3010
,
0202
0303
0022
0033
2001
3010
0022
0033
,
2010
3010
1020
1030
2010
3010
0220
0330
,
0202
0303
0202
0303
0210
0310
2020
3030
,
2100
3100
0210
0310
0120
0130
2100
3010
,
0202
0303
2002
3003
2010
3010
0202
0303
,
1001
0001
0011
0010
0100
1000
0100
1000
,
0001
0100
0010
1000
0100
1000
0001
0100
0010
1000
0100
0010
0002
0000
0103
0010
,
1000
0000
0001
0000
0100
0000
0010
0000
2000
0000
0000
0000
3001
0000
0100
0000
0010
0000
1000
0000
0010
0000
0100
0000
0001
0000
1000
0000
0001
1000
0001
1000
,
0001
0100
0010
1000
0100
0010
0200
0000
1300
0001
0100
0010
1000
0010
0200
0000
,
0301
0000
0100
0000
0010
0000
1000
0000
0100
0000
0010
0000
0001
0000
0100
0000
0040
0000
0000
0000
1030
0001
1000
0001
1000
0000
0000
0000
0010
0000
0000
0000
,
1001
0000
1000
0000
0001
0100
0010
1000
0100
0000
0010
0000
0011
0000
0001
0000
,
0011
0000
0010
0000
0001
0100
0010
1000
0100
0000
0010
0000
0011
0000
0001
0000
,
0101
0000
0010
0000
1000
0001
0100
0010
1000
0000
0010
0000
0110
0000
0100
0000
,
0101
0001
0001
0001
,
1000
1000
1000
1000
0010
0100
0001
0100
,
0040
0000
0000
0000
0130
0100
0100
0100
1000
1000
1000
1000
0001
0001
0001
0001
,
0400
0000
0000
0000
0310
0010
0010
0010
1000
1000
1000
1000
0001
0001
0001
0001
,
0400
0000
0000
0000
0310
0010
0010
0010
1000
1000
1000
1000
0100
0010
0100
0010
,
0004
0000
0000
0000
1003
0010
1000
0010
0100
0100
0100
0100
0001
1000
0001
1000
,
0040
0000
0000
0000
1030
0100
0010
0001
1000
1000
0010
0010
0100
0100
0001
0001
,
4000
0000
0000
0000
3001
0010
0100
1000
0001
0001
0100
0100
0010
0010
1000
1000
,
0400
0000
0000
0000
0310
0001
0010
0001
1000
1000
0010
0010
0100
0100
0001
0001
,
0400
0000
0000
0000
0310
1000
0010
1000
0001
0100
0001
0100
0010
1000
0100
0010
,
1001
0000
0400
0000
0310
0000
1000
0010
0000
0100
0100
0100
0001
0000
1000
0010
,
0100
0000
0001
0100
0010
1000
0100
0010
0001
0100
0010
1000
0200
0000
0320
0000
,
0031
0000
4000
0000
3010
0000
0100
0001
0000
0010
0010
0010
0100
0000
1000
0001
,
0040
0000
0130
1000
0001
0100
0010
1000
1100
0000
0010
0001
0100
0010
1000
0000
,
1001
0000
0040
0000
0130
0000
0001
1000
0000
0010
0010
0010
0100
0000
0001
1000
,
0004
0000
0103
0010
1000
0100
1000
0001
0100
0010
1000
0100
0020
0000
0032
0000
,
1003
0000
0100
0000
0100
0000
0001
0100
0000
0010
0010
0010
1000
0000
0001
0100
,
0010
0000
1000
0010
0100
0001
1000
0100
0010
0000
0001
0100
0010
1000
0100
0000
,
1001
0000
0004
0000
1003
0000
0010
0100
0000
0001
0010
0100
0000
1000
0010
0100
,
0001
0000
0010
0010
0010
0010
0010
0010
0100
1000
0001
0100
0040
0000
4030
0000
,
3040
0000
0430
0000
0301
0000
0010
0100
0000
0100
0010
0100
0000
0100
0001
0000
,
2000
0000
3001
0100
0010
1000
0100
0010
0002
0000
0103
0010
1000
0100
0010
0000
,
1001
0000
0040
0000
0130
0000
1000
0001
0000
0001
0001
0001
0000
0010
1000
0010
,
0400
0000
0301
0010
0100
1000
0100
0010
0001
0100
0010
1000
0200
0000
0320
0000
,
0031
0000
4000
0000
3001
0000
0100
0010
0000
1000
0001
0100
0000
0010
1000
0000
,
0004
0000
0103
0010
1000
0100
1000
0001
1000
0000
0010
0100
0001
1000
0100
0000
,
1001
0000
0001
0000
0000
0001
0000
0000
0001
0000
0000
0000
1001
0000
1010
0000
,
0101
0000
0010
0000
0000
1000
0000
0000
0001
0000
0000
0000
1010
0000
1001
0000
,
0011
0000
0001
0010
0100
0000
0100
0010
0004
0000
0003
0000
0101
0000
0110
0000
,
1010
0000
1000
0000
0000
0010
0000
0000
0400
0000
0300
0000
0004
0000
0003
0000
,
1001
0000
1000
0000
0000
0010
0000
0000
0400
0000
0300
0000
0011
0000
1001
0000
,
0011
0000
1000
0000
0000
0001
0000
0000
1000
0000
0000
0000
1001
0000
0101
0000
,
0011
0000
1000
0000
0000
0010
0000
0000
1000
0000
0000
0000
1100
0000
1001
0000
,
0011
0000
0001
0000
0000
0100
0000
0000
0110
0000
0000
0000
1010
0000
0000
0000
,
1001
0000
0000
0000
,
1002
0000
0000
0000
0103
0010
0100
0010
0100
0010
0100
0010
0100
0010
0100
0010
,
0200
0000
0000
0000
0301
0010
0001
0010
0001
1000
0001
1000
0001
0100
0001
0100
,
0002
0000
0000
0000
0013
0100
0010
0100
1000
0100
1000
0100
0010
0100
0010
0100
,
2000
0000
0000
0000
3001
0100
0001
0100
0010
1000
0010
1000
0001
0100
0001
0100
,
0020
0000
0000
0000
1030
0100
1000
0001
1000
0100
1000
0001
1000
0100
0010
0100
,
0020
0000
0000
0000
0031
0100
0010
1000
0100
0010
0100
1000
0001
0100
0010
1000
,
0020
0000
0000
0000
0130
0001
1000
0100
1000
0001
1000
0010
0100
0010
0100
0001
,
0011
0000
0000
0000
0001
0100
0010
1000
0010
0000
0000
0000
0100
0000
0000
0000
,
1010
0000
0000
0000
0001
0001
0001
0001
0001
0001
0001
0001
0001
0001
0001
0001
,
4000
0000
0000
0000
3010
0010
0010
0010
0010
0010
0010
0010
0010
0010
0010
0010
,
0400
0000
0000
0000
0301
0001
0001
0001
0001
0001
0001
0001
0001
0001
0001
0001
,
4000
0000
0000
0000
3010
0010
0010
0010
0010
0010
0010
0010
0100
0100
0100
0100
,
4000
0000
0000
0000
3100
0100
0100
0100
0100
0100
0100
0100
0100
0100
0100
0100
,
4000
0000
0000
0000
3010
0010
0010
0010
0010
0010
0010
0010
0010
0010
0010
0010
,
0004
0000
0000
0000
0103
0100
0100
0100
0010
0010
0010
0010
1000
1000
1000
1000
,
0040
0000
0000
0000
0130
0100
0100
0100
0001
0001
0001
0001
1000
0000
0000
0000
,
0001
0100
0001
0100
0010
1000
0010
1000
,
0001
0010
0001
0010
0100
1000
0100
1000
,
0001
0100
0001
0100
0010
1000
0010
1000
,
0001
0100
0001
0100
0010
1000
0010
1000
,
0001
0100
0001
0100
0100
1000
0100
1000
,
0001
0010
0001
0010
0100
1000
0100
1000
,
0001
0100
0001
0100
0100
1000
0100
1000
,
0001
0010
0001
0010
0010
1000
0010
0000
;
