#TITLE:[2-4] Pennywise Tribute;
#SUBTITLE:;
#ARTIST:Bassnectar;
#TITLETRANSLIT:;
#SUBTITLETRANSLIT:;
#ARTISTTRANSLIT:;
#CREDIT:;
#BANNER:../Beast 4 - bn.png;
#BACKGROUND:../Beast 4 - bg.png;
#LYRICSPATH:;
#CDTITLE:;
#MUSIC:Pennywise Tribute.ogg;
#OFFSET:0.009;
#SAMPLESTART:63.118;
#SAMPLELENGTH:12.000;
#SELECTABLE:YES;
#BPMS:0.000=176.000;
#STOPS:;
#BGCHANGES:;
// cache tags:
#FIRSTBEAT:28.000;
#LASTBEAT:712.000;
#SONGFILENAME:Songs/Beast Aoreo BEAST! 4/Pennywise Tribute - [Aoreo]/Pennywise Tribute.sm;
#HASMUSIC:1;
#HASBANNER:1;
#MUSICLENGTH:249.863;
// end cache tags

//---------------dance-single - J. Nero----------------
#NOTES:
     dance-single:
     J. Nero:
     Challenge:
     15:
     1.000,1.000,0.220,0.180,1.000,2117.000,55.000,45.000,0.000,0.000:
0000
0000
0000
0000
,
0000
0000
0000
0000
,
0000
0000
0000
0000
,
0000
0000
0000
0000
,
0000
0000
0000
0000
,
0000
0000
0000
0000
,
0000
0000
0000
0000
,
0002
0003
0000
0000
0000
0000
0000
0000
0002
0003
0000
0000
0000
0000
0000
0000
0002
0003
0000
0000
0000
0000
0000
0000
0002
0003
0000
0000
0000
0000
0000
0000
,
1000
0010
0110
0100
0001
1000
1100
0001
,
0001
0100
0110
0010
1000
0000
1000
0000
,
0001
0010
0110
0100
1000
0001
1001
1000
,
0010
0100
0101
0001
1000
0100
1100
1000
,
0001
0010
0110
0100
1000
0001
0101
0100
,
0010
1000
1100
0100
0010
0000
0010
0000
,
0001
0100
0101
0001
0010
0100
1100
1000
,
0001
0100
0110
0010
1000
0001
0101
0100
,
0001
1000
1100
0100
0010
0001
1001
1000
,
0010
0100
0101
0001
1000
0000
1000
0000
,
0010
0100
0101
0001
0010
0100
1100
1000
,
0001
0000
0100
0000
0101
0000
0001
0000
1000
0000
0100
0000
1100
0000
1000
0001
,
0100
0001
0010
0100
1000
0010
0100
0001
,
0010
0001
1000
0010
1000
0100
0010
0001
,
1000
0010
0100
0010
1000
0100
0010
0001
1000
0010
0100
0001
0010
0100
1000
0001
,
1000
0010
0100
0001
1000
0100
1000
0001
0100
0010
0100
0001
0010
0100
1000
0010
,
1000
0001
1000
0100
1000
0001
0100
0001
1000
0001
0010
0100
1000
0001
1000
0001
,
1000
0010
0100
0001
1000
0001
0010
0100
1000
0001
0100
0001
0010
0100
1000
0001
,
1000
0100
1000
0001
0100
0001
0100
0010
1000
0010
0100
0001
1000
0001
0010
0100
,
1000
0001
0010
0001
1000
0010
0100
0001
0100
0010
1000
0010
0100
0001
1000
0100
,
1000
0001
0100
0001
1000
0100
0010
0001
1000
0100
1000
0001
1000
0010
0100
0001
,
1000
0001
0100
0001
1000
0100
1000
0001
1000
0001
0010
0100
1000
0001
0100
0001
,
1000
0010
1000
0001
1000
0100
1000
0001
0010
0100
1000
0001
0010
0001
1000
0100
,
0010
0001
1000
0001
0100
0010
1000
0001
1000
0100
1000
0001
0100
0001
1000
0100
,
0010
0001
1000
0001
0100
0010
0100
0001
1000
0100
0010
0100
1000
0001
0100
0010
,
0100
0001
1000
0100
1000
0001
0100
0001
1000
0100
1000
0001
0010
0100
1000
0001
,
1000
0010
0100
0010
1000
0001
1000
0010
0100
0001
0100
0001
0010
0100
1000
0001
,
1000
0010
0100
0001
1000
0010
1000
0001
0010
0100
1000
0001
0010
0001
1000
0100
,
0010
0001
1000
0001
0100
0001
1000
0100
1000
0001
1000
0001
0100
0010
1000
0010
,
1000
0001
0010
0001
1000
0001
0010
0001
1000
0010
0100
0001
0100
0010
1000
0001
,
1000
0100
0010
0001
1000
0001
1000
0100
1000
0001
1000
0001
0010
0100
1000
0001
,
1000
0000
0010
0000
1000
0000
0001
0000
1000
0001
0010
0100
1000
0001
0100
0001
,
2000
0000
3001
0100
0010
0100
0001
0010
,
0100
0000
0000
0000
0000
0000
0000
0000
1000
0000
0000
0000
0000
0000
0000
0000
0001
0000
0000
0000
0000
0000
0000
0000
1000
0000
0000
0000
0000
0000
0000
0000
0002
0000
0000
0000
0000
0000
0000
0000
0000
0000
0000
0000
0000
0000
0000
0003
0020
0000
0000
0000
0000
0000
0000
0000
0000
0000
0000
0000
0000
0000
0000
0000
,
0230
0000
1300
0010
0100
0010
1000
0001
,
0010
0100
1000
0010
0100
0001
1000
0100
,
2100
0000
3001
0010
0100
0010
0001
1000
,
1020
0000
0130
0001
0020
0000
0230
0000
,
2300
0000
0000
0000
3001
0000
0100
0000
0010
0000
0100
0000
0001
0000
1000
0100
,
0010
0000
0001
0000
0100
0000
0010
0000
1000
0001
0100
0001
0010
0100
1000
0010
,
2000
0000
3001
0100
0010
0100
0001
1000
,
0100
0010
0001
1000
0020
0000
0230
0000
,
0302
0000
1003
0100
0010
0100
1000
0001
,
0100
0010
0100
0001
1000
0001
0010
0100
,
2100
0000
3001
0100
0010
0100
0001
1000
,
1020
0000
0130
0001
0020
0000
0230
0000
,
2300
0000
0000
0000
3001
0000
0100
0000
0001
0000
1000
0000
0100
0000
1000
0001
,
0100
0000
0001
0000
0100
0000
0010
0000
1000
0001
0010
0100
1000
0010
0100
0001
,
1000
0001
1000
0100
1000
0001
0100
0001
1000
0001
0010
0100
1000
0001
1000
0001
,
1000
0010
0100
0001
1000
0001
0010
0100
1000
0001
0100
0001
0010
0100
1000
0001
,
1000
0100
1000
0001
0100
0001
0100
0010
1000
0010
0100
0001
1000
0001
0010
0100
,
1000
0001
0010
0001
1000
0010
0100
0001
0100
0010
1000
0010
0100
0001
1000
0100
,
1000
0001
0100
0001
1000
0100
0010
0001
1000
0100
1000
0001
1000
0010
0100
0001
,
1000
0001
0100
0001
1000
0100
1000
0001
1000
0001
0010
0100
1000
0001
0100
0001
,
1000
0010
1000
0001
1000
0100
1000
0001
0010
0100
1000
0001
0010
0001
1000
0100
,
0010
0001
1000
0001
0100
0010
1000
0001
1000
0100
1000
0001
0100
0001
1000
0100
,
0010
0001
1000
0001
0100
0010
0100
0001
1000
0100
0010
0100
1000
0001
0100
0010
,
0100
0001
1000
0100
1000
0001
0100
0001
1000
0100
1000
0001
0010
0100
1000
0001
,
1000
0010
0100
0010
1000
0001
1000
0010
0100
0001
0100
0001
0010
0100
1000
0001
,
1000
0010
0100
0001
1000
0010
1000
0001
0010
0100
1000
0001
0010
0001
1000
0100
,
0010
0001
1000
0001
0100
0001
1000
0100
1000
0001
1000
0001
0100
0010
1000
0010
,
1000
0001
0010
0001
1000
0001
0010
0001
1000
0010
0100
0001
0100
0010
1000
0001
,
1000
0100
0010
0001
0100
0001
1000
0100
0010
0001
1000
0010
0100
0001
2000
0000
,
0000
0000
0000
0000
0000
0000
0000
0000
0000
0000
0000
0000
0000
0000
0000
3000
,
1001
0001
0010
0100
1100
1000
0010
0100
,
0101
0000
0001
0000
1000
0000
0100
0000
2000
3000
0010
0000
0200
0300
0001
0000
,
0020
0030
0100
0000
1000
0000
0100
0000
1100
0000
1000
0000
0001
0100
0010
0000
,
1000
1000
0001
0010
0100
0100
1000
1000
,
0020
0030
0100
0000
0001
0000
1000
0000
1100
0000
0100
0000
1000
0000
0001
0000
,
0101
0000
0100
0000
0010
0000
0100
0000
0002
0003
0010
0000
0200
0300
1000
0000
,
0020
0030
0100
0000
0001
0000
1000
0000
0100
1000
0001
0000
0100
0000
0001
0000
,
1000
0000
0100
0000
0010
0000
0100
0000
1000
0000
0001
0000
0100
0001
0100
0001
,
0010
0100
1000
0001
0101
0100
0010
1000
,
1001
0000
0001
0000
0010
0000
0100
0000
2000
3000
0010
0000
0200
0300
0001
0000
,
0020
0030
0100
0000
1000
0000
0010
0000
0100
0001
1000
0000
0010
0000
0010
0000
,
0100
0000
0001
0000
0010
0000
0100
0000
1100
0000
1000
0000
0001
1000
0010
0000
,
0100
0001
0100
0010
0100
0001
1000
0001
,
0010
0100
0010
0001
0010
0100
1000
0001
,
1000
0100
1000
0001
0010
0100
1000
0001
1000
0010
0100
0001
1000
0100
0010
0001
,
1000
0001
0010
0100
1000
0010
0100
0001
1000
0000
0010
0000
0100
0000
0001
0000
,
2000
0000
3001
0100
0001
0100
0010
2000
,
0000
3100
0010
0100
0020
0030
0002
0003
,
2000
0000
0000
3000
0010
0000
0100
0000
0010
0000
0100
0000
0001
0000
0020
0000
,
0030
0001
0010
0100
1000
0001
1000
0001
,
0200
0000
0310
1000
0010
1000
0010
0100
,
0002
0000
0013
0100
2000
0000
3002
0000
,
0203
0000
0000
0000
0310
0000
0100
0000
0001
0000
0100
0000
0001
0000
1000
0100
,
0010
0001
0100
0010
1000
0001
0010
0010
,
0100
1000
1001
0001
0100
0001
0101
1000
,
0010
0100
0110
0001
1000
0000
1000
0000
,
0001
0100
0101
0010
1000
0100
1100
1000
,
0100
0010
0011
0001
0100
0010
1010
1000
,
0001
0100
0110
0001
1000
0100
1100
1000
,
0001
0100
0101
0001
0010
0000
0010
0000
,
0100
0000
1000
0000
1001
0000
0001
0100
0010
0000
0100
0000
0101
0000
0001
0000
,
0010
0100
1100
1000
0001
0010
0110
0000
,
0100
1000
1001
0001
0100
0001
0101
1000
,
0010
0100
0101
0001
0010
0000
0010
0000
,
0100
1000
1001
0001
0100
0010
1010
1000
,
0100
0010
0011
0001
0100
0010
1010
1000
,
0001
0100
0001
1000
0001
0100
0001
1000
,
0001
0010
0100
1000
0001
0100
0010
0100
,
0001
1000
0001
0010
0100
1000
0001
0100
0001
1000
0100
0010
0001
1000
0001
0100
,
0010
1000
0010
0100
0001
0010
0100
1000
0100
0010
0001
0100
0010
1000
0001
0100
,
0001
1000
0100
1000
0001
0100
0001
0100
0010
1000
0001
0010
0100
1000
0001
0010
,
0001
1000
0010
0100
0010
1000
0001
1000
0100
0010
0001
1000
0100
1000
0001
0100
,
0010
0100
0001
1000
0100
1000
0001
0100
0010
0100
0001
1000
0001
0010
0100
1000
,
0001
0100
0010
0100
0001
1000
0100
0010
0100
1000
0001
0100
0010
0100
0001
1000
,
0001
0100
0010
0100
0001
1000
0100
0010
0001
1000
0001
0100
0001
1000
0010
0100
,
0010
1000
0001
1000
0100
0010
0100
0010
0001
1000
0100
1000
0001
0100
0010
0100
,
0001
1000
0001
0010
0100
1000
0001
0100
0001
1000
0010
0100
0010
1000
0001
0100
,
0001
0010
0100
0010
0100
1000
0001
0100
0001
0010
0100
0010
0100
1000
0001
0100
,
0010
0100
0001
1000
0001
0100
0010
0100
0001
1000
0100
0010
0001
1000
0100
1000
,
0001
0100
0010
0100
0001
1000
0001
0010
0100
1000
0001
0100
0001
1000
0100
1000
,
0001
1000
0010
0100
0010
1000
0001
0100
0001
1000
0100
0010
0100
1000
0001
0100
,
0001
1000
0010
0100
0010
1000
0001
0010
0100
1000
0001
0100
0001
1000
0001
0100
,
0010
0100
0001
1000
0100
0010
0100
1000
0001
0010
0001
1000
0100
1000
0001
1000
,
0010
0100
0010
1000
0001
0100
0001
1000
0100
0010
0100
1000
0001
0100
0010
0100
,
0001
1000
0100
1000
0001
0010
0100
1000
0001
1000
0001
0100
0010
1000
0001
0100
,
0001
1000
0100
1000
0001
0100
0010
0100
0001
1000
0100
0010
0001
1000
0010
0100
,
0001
1000
0001
0010
0001
0100
0001
1000
0100
1000
0010
1000
0001
0100
0010
1000
,
0010
0100
0001
0100
0010
1000
0001
1000
0100
0010
0001
1000
0001
0100
0010
1000
,
0010
0100
0001
1000
0100
1000
0100
0010
0001
1000
0100
1000
0001
0100
0001
1000
,
0010
0100
0001
1000
0001
0100
0001
1000
0001
1000
0010
1000
0001
1000
0100
0010
,
0001
1000
0100
1000
0001
0010
0100
0010
0001
1000
0010
0100
0010
1000
0001
1000
,
0100
0010
0001
1000
0001
0100
0001
1000
0010
1000
0001
0100
0001
1000
0001
1000
,
0100
0010
0001
1000
0001
0010
0100
1000
0001
1000
0001
0100
0001
1000
0010
1000
,
0001
0010
0100
0010
0100
1000
0001
0100
0001
0010
0100
0010
0100
1000
0001
0010
,
0001
1000
0001
0100
0001
1000
0001
0100
0010
1000
0001
1000
0100
0010
0001
1000
,
0100
1000
0001
0010
0001
1000
0001
0100
0001
1000
0010
0100
0001
1000
0001
1000
,
0100
1000
0001
0010
0100
1000
0001
0100
0001
1000
0010
1000
0001
1000
0100
0010
,
0001
1000
0001
0010
0100
0010
0001
1000
0010
1000
0010
0100
0001
0100
0010
1000
,
0010
0100
0001
1000
0100
0010
0001
1000
0001
0010
0100
0010
0001
1000
0010
0100
,
0001
1000
0010
0100
0001
0100
0010
1000
0010
0100
0001
0100
0001
0010
0100
1000
,
0100
0010
0001
0010
0001
1000
0010
1000
0010
0100
0001
0100
0010
1000
0001
0010
,
0100
1000
0001
0100
0010
0100
0001
0010
0100
1000
0100
0010
0001
0100
0010
1000
,
0001
0100
0001
1000
0100
0010
0001
1000
0001
0100
0010
0100
0001
1000
0100
0010
,
0001
1000
0100
1000
0001
0100
0010
0100
0001
1000
0001
0010
0100
1000
0001
0100
,
0001
1000
0100
1000
0001
1000
0010
0100
0001
1000
0100
1000
0001
0100
0010
0100
,
0001
1000
0100
1000
0001
1000
0010
0100
0010
1000
0001
0010
0100
0010
0001
1000
,
0100
0010
0001
1000
0100
1000
0001
1000
0010
0100
0001
1000
0001
1000
0100
1000
,
0001
0100
0010
0100
0001
1000
0100
1000
0001
0100
0010
0100
0001
1000
0001
0010
,
0100
1000
0001
0100
0001
1000
0010
0100
0010
1000
0001
0100
0010
0100
0001
1000
,
0100
0010
0100
0010
0001
1000
0010
1000
0100
0010
0100
0010
0001
1000
0001
0100
,
0010
0100
0001
1000
0001
0010
0100
1000
0001
0100
0010
0100
0001
1000
0100
1000
,
0001
0100
0010
0100
0001
1000
0001
0010
0100
1000
0001
0100
0001
1000
0100
1000
,
0001
0100
0010
0100
0001
1000
0100
0010
0100
1000
0001
0100
0010
0100
0001
1000
,
0001
0010
0100
1000
0001
0100
0001
1000
0100
1000
0001
1000
0010
0100
0010
1000
,
0001
0100
0001
1000
0001
0010
0100
1000
0001
0100
0010
0100
0001
1000
0100
0010
,
0001
1000
0100
1000
0001
0100
0010
0100
0001
1000
0001
0100
0010
0100
0001
1000
,
0001
0100
0010
1000
0001
0010
0100
1000
0001
1000
0100
0010
0001
1000
0010
0100
,
0001
0100
0010
1000
0001
0010
0100
1000
0001
0100
0010
1000
0001
1000
0100
0010
,
0001
1000
0010
1000
0001
0100
0001
1000
0001
0100
0010
1000
0001
1000
0100
0010
,
0001
1000
0010
0100
0001
1000
0001
0010
0100
1000
0001
0010
0001
1000
0010
1000
,
0001
0100
0001
1000
0100
0010
0001
1000
0010
1000
0001
0010
0100
1000
0010
1000
,
0001
0100
0001
1000
0010
1000
0001
0010
0100
1000
0001
0100
0010
1000
0010
0100
,
0001
1000
0001
0010
0100
1000
0100
0010
0001
1000
0010
1000
0001
0100
0001
1000
,
0010
0100
0001
1000
0001
0010
0100
1000
0001
1000
0100
1000
0001
0010
0100
1000
,
0001
0010
0001
1000
0010
0100
0001
0100
0010
1000
0001
1000
0010
1000
0001
0100
,
0001
1000
0100
0010
0100
0010
0001
1000
0010
1000
0100
0010
0100
0010
0001
1000
,
0010
1000
0001
0010
0100
1000
0001
0100
0010
0100
0001
1000
0100
0010
0001
0010
,
0100
1000
0001
1000
0001
0010
0001
1000
0001
0010
0001
1000
0100
0010
0001
1000
,
0001
0100
0010
1000
0010
1000
0001
0100
0010
1000
0001
0010
0001
1000
0100
0010
,
0001
1000
0001
1000
0010
1000
0001
0010
0001
1000
0100
1000
0001
0010
0100
1000
,
0001
1000
0010
1000
0001
0100
0001
1000
0010
1000
0001
0010
0001
1000
0010
0100
,
0001
1000
0001
1000
0100
0010
0001
1000
0001
0010
0100
1000
0001
0100
0010
1000
,
0001
0100
0001
1000
0010
0100
0010
1000
0001
0100
0001
1000
0001
0010
0100
1000
,
0001
0010
0001
1000
0100
1000
0001
1000
0001
0100
0001
0100
0010
1000
0100
0010
,
0002
0000
0000
0000
,
0000
0000
0000
0000
,
0003
0000
0000
0000
;

//---------------dance-single - J. Nero----------------
#NOTES:
     dance-single:
     J. Nero:
     Hard:
     14:
     1.000,1.000,0.224,0.272,1.000,1790.000,56.000,68.000,0.000,0.000:
0000
0000
0000
0000
,
0000
0000
0000
0000
,
0000
0000
0000
0000
,
0000
0000
0000
0000
,
0000
0000
0000
0000
,
0000
0000
0000
0000
,
0000
0000
0000
0000
,
0002
0003
0000
0000
0000
0000
0000
0000
0002
0003
0000
0000
0000
0000
0000
0000
0002
0003
0000
0000
0000
0000
0000
0000
0002
0003
0000
0000
0000
0000
0000
0000
,
1000
0010
0110
0100
0001
1000
1100
0001
,
0001
0100
0110
0010
1000
0000
1000
0000
,
0001
0010
0110
0100
1000
0001
1001
1000
,
0010
0100
0101
0001
1000
0100
1100
1000
,
0001
0010
0110
0100
1000
0001
0101
0100
,
0010
1000
1100
0100
0010
0000
0010
0000
,
0001
0100
0101
0001
0010
0100
1100
1000
,
0001
0100
0110
0010
1000
0001
0101
0100
,
0001
1000
1100
0100
0010
0001
1001
1000
,
0010
0100
0101
0001
1000
0000
1000
0000
,
0010
0100
0101
0001
0010
0100
1100
1000
,
0001
0000
0100
0000
0101
0000
0001
0000
1000
0000
0100
0000
1100
0000
1000
0001
,
0100
0001
0010
0100
1000
0010
0100
0001
,
0010
0001
1000
0010
1000
0100
0010
0001
,
1000
0010
0100
0010
1000
0100
0010
0001
1000
0010
0100
0001
0010
0100
1000
0001
,
1000
0010
0100
0001
1000
0100
1000
0001
0100
0010
0100
0001
0010
0100
1000
0010
,
1000
0001
1000
0100
1000
0001
0100
0001
1000
0001
0010
0100
1000
0001
1000
0001
,
1000
0010
0100
0001
1000
0001
0010
0100
1000
0001
0100
0001
0010
0100
1000
0001
,
1000
0100
1000
0001
0100
0001
0100
0010
1000
0010
0100
0001
1000
0001
0010
0100
,
1000
0001
0010
0001
1000
0010
0100
0001
0100
0010
1000
0010
0100
0001
1000
0100
,
1000
0001
0100
0001
1000
0100
0010
0001
1000
0100
1000
0001
1000
0010
0100
0001
,
1000
0001
0100
0001
1000
0100
1000
0001
1000
0001
0010
0100
1000
0001
0100
0001
,
1000
0010
1000
0001
1000
0100
1000
0001
0010
0100
1000
0001
0010
0001
1000
0100
,
0010
0001
1000
0001
0100
0010
1000
0001
1000
0100
1000
0001
0100
0001
1000
0100
,
0010
0001
1000
0001
0100
0010
0100
0001
1000
0100
0010
0100
1000
0001
0100
0010
,
0100
0001
1000
0100
1000
0001
0100
0001
1000
0100
1000
0001
0010
0100
1000
0001
,
1000
0010
0100
0010
1000
0001
1000
0010
0100
0001
0100
0001
0010
0100
1000
0001
,
1000
0010
0100
0001
1000
0010
1000
0001
0010
0100
1000
0001
0010
0001
1000
0100
,
0010
0001
1000
0001
0100
0001
1000
0100
1000
0001
1000
0001
0100
0010
1000
0010
,
1000
0001
0010
0001
1000
0001
0010
0001
1000
0010
0100
0001
0100
0010
1000
0001
,
1000
0100
0010
0001
1000
0001
1000
0100
1000
0001
1000
0001
0010
0100
1000
0001
,
1000
0000
0010
0000
1000
0000
0001
0000
1000
0001
0010
0100
1000
0001
0100
0001
,
2000
0000
3001
0100
0010
0100
0001
0010
,
0100
0000
0000
0000
0000
0000
0000
0000
1000
0000
0000
0000
0000
0000
0000
0000
0001
0000
0000
0000
0000
0000
0000
0000
1000
0000
0000
0000
0000
0000
0000
0000
0002
0000
0000
0000
0000
0000
0000
0000
0000
0000
0000
0000
0000
0000
0000
0003
0020
0000
0000
0000
0000
0000
0000
0000
0000
0000
0000
0000
0000
0000
0000
0000
,
0230
0000
1300
0010
0100
0010
1000
0001
,
0010
0100
1000
0010
0100
0001
1000
0100
,
2100
0000
3001
0010
0100
0010
0001
1000
,
1020
0000
0130
0001
0020
0000
0230
0000
,
2300
0000
0000
0000
3001
0000
0100
0000
0010
0000
0100
0000
0001
0000
1000
0100
,
0010
0000
0001
0000
0100
0000
0010
0000
1000
0001
0100
0001
0010
0100
1000
0010
,
2000
0000
3001
0100
0010
0100
0001
1000
,
0100
0010
0001
1000
0020
0000
0230
0000
,
0302
0000
1003
0100
0010
0100
1000
0001
,
0100
0010
0100
0001
1000
0001
0010
0100
,
2100
0000
3001
0100
0010
0100
0001
1000
,
1020
0000
0130
0001
0020
0000
0230
0000
,
2300
0000
0000
0000
3001
0000
0100
0000
0001
0000
1000
0000
0100
0000
1000
0001
,
0100
0000
0001
0000
0100
0000
0010
0000
1000
0001
0010
0100
1000
0010
0100
0001
,
1000
0001
1000
0100
1000
0001
0100
0001
1000
0001
0010
0100
1000
0001
1000
0001
,
1000
0010
0100
0001
1000
0001
0010
0100
1000
0001
0100
0001
0010
0100
1000
0001
,
1000
0100
1000
0001
0100
0001
0100
0010
1000
0010
0100
0001
1000
0001
0010
0100
,
1000
0001
0010
0001
1000
0010
0100
0001
0100
0010
1000
0010
0100
0001
1000
0100
,
1000
0001
0100
0001
1000
0100
0010
0001
1000
0100
1000
0001
1000
0010
0100
0001
,
1000
0001
0100
0001
1000
0100
1000
0001
1000
0001
0010
0100
1000
0001
0100
0001
,
1000
0010
1000
0001
1000
0100
1000
0001
0010
0100
1000
0001
0010
0001
1000
0100
,
0010
0001
1000
0001
0100
0010
1000
0001
1000
0100
1000
0001
0100
0001
1000
0100
,
0010
0001
1000
0001
0100
0010
0100
0001
1000
0100
0010
0100
1000
0001
0100
0010
,
0100
0001
1000
0100
1000
0001
0100
0001
1000
0100
1000
0001
0010
0100
1000
0001
,
1000
0010
0100
0010
1000
0001
1000
0010
0100
0001
0100
0001
0010
0100
1000
0001
,
1000
0010
0100
0001
1000
0010
1000
0001
0010
0100
1000
0001
0010
0001
1000
0100
,
0010
0001
1000
0001
0100
0001
1000
0100
1000
0001
1000
0001
0100
0010
1000
0010
,
1000
0001
0010
0001
1000
0001
0010
0001
1000
0010
0100
0001
0100
0010
1000
0001
,
1000
0100
0010
0001
0100
0001
1000
0100
0010
0001
1000
0010
0100
0001
2000
0000
,
0000
0000
0000
0000
0000
0000
0000
0000
0000
0000
0000
0000
0000
0000
0000
3000
,
1001
0001
0010
0100
1100
1000
0010
0100
,
0101
0000
0001
0000
1000
0000
0100
0000
2000
3000
0010
0000
0200
0300
0001
0000
,
0020
0030
0100
0000
1000
0000
0100
0000
1100
0000
1000
0000
0001
0100
0010
0000
,
1000
1000
0001
0010
0100
0100
1000
1000
,
0020
0030
0100
0000
0001
0000
1000
0000
1100
0000
0100
0000
1000
0000
0001
0000
,
0101
0000
0100
0000
0010
0000
0100
0000
0002
0003
0010
0000
0200
0300
1000
0000
,
0020
0030
0100
0000
0001
0000
1000
0000
0100
1000
0001
0000
0100
0000
0001
0000
,
1000
0000
0100
0000
0010
0000
0100
0000
1000
0000
0001
0000
0100
0001
0100
0001
,
0010
0100
1000
0001
0101
0100
0010
1000
,
1001
0000
0001
0000
0010
0000
0100
0000
2000
3000
0010
0000
0200
0300
0001
0000
,
0020
0030
0100
0000
1000
0000
0010
0000
0100
0001
1000
0000
0010
0000
0010
0000
,
0100
0000
0001
0000
0010
0000
0100
0000
1100
0000
1000
0000
0001
1000
0010
0000
,
0100
0001
0100
0010
0100
0001
1000
0001
,
0010
0100
0010
0001
0010
0100
1000
0001
,
1000
0100
1000
0001
0010
0100
1000
0001
1000
0010
0100
0001
1000
0100
0010
0001
,
1000
0001
0010
0100
1000
0010
0100
0001
1000
0000
0010
0000
0100
0000
0001
0000
,
2000
0000
3001
0100
0001
0100
0010
2000
,
0000
3100
0010
0100
0020
0030
0002
0003
,
2000
0000
0000
3000
0010
0000
0100
0000
0010
0000
0100
0000
0001
0000
0020
0000
,
0030
0001
0010
0100
1000
0001
1000
0001
,
0200
0000
0310
1000
0010
1000
0010
0100
,
0002
0000
0013
0100
2000
0000
3002
0000
,
0203
0000
0000
0000
0310
0000
0100
0000
0001
0000
0100
0000
0001
0000
1000
0100
,
0010
0001
0100
0010
1000
0001
0010
0010
,
0100
1000
1001
0001
0100
0001
0101
1000
,
0010
0100
0110
0001
1000
0000
1000
0000
,
0001
0100
0101
0010
1000
0100
1100
1000
,
0100
0010
0011
0001
0100
0010
1010
1000
,
0001
0100
0110
0001
1000
0100
1100
1000
,
0001
0100
0101
0001
0010
0000
0010
0000
,
0100
0000
1000
0000
1001
0000
0001
0100
0010
0000
0100
0000
0101
0000
0001
0000
,
0010
0100
1100
1000
0001
0010
0110
0000
,
0100
1000
1001
0001
0100
0001
0101
1000
,
0010
0100
0101
0001
0010
0000
0010
0000
,
0100
1000
1001
0001
0100
0010
1010
1000
,
0100
0010
0011
0001
0100
0010
1010
1000
,
0001
0100
0001
1000
0001
0100
0001
1000
,
0001
0010
0100
1000
0001
0100
0010
0100
,
0001
1000
0001
0010
0100
1000
0001
0100
0001
1000
0100
0010
0001
1000
0001
0100
,
0010
1000
0010
0100
0001
0010
0100
1000
0100
0010
0001
0100
0010
1000
0001
0100
,
0002
0000
0000
0000
1003
0000
0100
0000
1000
0000
0040
0030
0000
0000
0040
0030
,
0000
0000
0400
0300
0000
0000
0004
0003
0020
0000
0400
0330
2000
0000
0004
3003
,
0200
0000
0000
0000
0310
0000
1000
0000
0001
0000
0040
0030
0000
0000
0040
0030
,
0000
0000
0400
0300
0000
0000
4000
3000
0000
0000
0040
0030
0000
0000
0400
0300
,
0002
0000
1003
0100
0010
0100
1000
0001
,
0200
0000
0000
0000
0310
0000
1000
0000
0001
0000
0040
0030
0100
0000
4000
3000
,
0010
0000
0400
0300
0001
0000
0040
0030
0001
0000
0400
0300
0010
0000
4000
3000
,
0200
0000
0340
0030
0000
0000
0001
0000
0200
0000
0340
0030
0000
0000
1000
0000
,
1002
0000
0000
0000
0103
0000
0010
0000
0100
0000
0004
0003
0010
0000
0400
0300
,
1000
0000
0040
0030
0100
0000
0002
0000
0013
0000
0400
0300
1000
0000
0040
0030
,
0200
0000
0000
0000
0301
0000
1000
0000
0100
0000
4000
3000
0000
0000
4000
3000
,
0000
0000
0040
0030
0000
0000
0400
0300
0000
0000
0004
0003
0000
0000
0040
0030
,
0200
0000
1300
0001
0010
0100
1000
0001
,
0200
0000
0000
0000
0301
0000
1000
0000
0100
0000
4000
3000
0010
0000
0400
0300
,
0001
1000
0100
1000
0001
0010
0100
1000
0001
1000
0001
0100
0010
1000
0001
0100
,
0001
1000
0100
1000
0001
0100
0010
0100
0001
1000
0100
0010
0001
1000
0010
0100
,
0001
1000
0001
0010
0001
0100
0001
1000
0100
1000
0010
1000
0001
0100
0010
1000
,
0010
0100
0001
0100
0010
1000
0001
1000
0100
0010
0001
1000
0001
0100
0010
1000
,
0010
0100
0001
1000
0100
1000
0100
0010
0001
1000
0100
1000
0001
0100
0001
1000
,
0010
0100
0001
1000
0001
0100
0001
1000
0001
1000
0010
1000
0001
1000
0100
0010
,
0001
1000
0100
1000
0001
0010
0100
0010
0001
1000
0010
0100
0010
1000
0001
1000
,
0100
0010
0001
1000
0001
0100
0001
1000
0010
1000
0001
0100
0001
1000
0001
1000
,
0100
0010
0001
1000
0001
0010
0100
1000
0001
1000
0001
0100
0001
1000
0010
1000
,
0001
0010
0100
0010
0100
1000
0001
0100
0001
0010
0100
0010
0100
1000
0001
0100
,
0001
1000
0001
0100
0001
1000
0001
0100
0010
1000
0001
1000
0100
0010
0001
1000
,
0100
1000
0001
0010
0001
1000
0001
0100
0001
1000
0010
0100
0001
1000
0001
1000
,
0100
1000
0001
0010
0100
1000
0001
0100
0001
1000
0010
1000
0001
1000
0100
0010
,
0001
1000
0001
0010
0100
0010
0001
1000
0010
1000
0010
0100
0001
0100
0010
1000
,
0010
0100
0001
1000
0100
0010
0001
1000
0001
0010
0100
0010
0001
1000
0010
0100
,
0001
1000
0010
0100
0001
0100
0010
1000
0010
0100
0001
0100
0001
0010
0100
1000
,
0100
0010
0001
0010
0001
1000
0010
1000
0010
0100
0001
0100
0010
1000
0001
0010
,
0100
1000
0001
0100
0010
0100
0001
0010
0100
1000
0100
0010
0001
0100
0010
1000
,
0002
0000
0000
0000
1003
0000
0100
0000
1000
0000
0004
0003
0010
0000
0400
0300
,
1000
0000
0040
0030
0100
0000
0004
0003
0010
0000
0400
0300
0010
0000
0400
0300
,
2000
0000
0000
0000
3001
0000
0100
0000
0010
0000
0400
0300
0001
0000
0040
0030
,
0100
0000
4000
3000
0001
0000
0400
0300
0010
0000
0400
0300
0001
0000
0040
0030
,
0200
0000
1300
0010
0100
0010
1000
0010
,
0200
0000
0000
0000
0301
0000
0010
0000
0100
0000
4000
3000
0001
0000
0400
0300
,
0010
0000
0400
0300
0001
0000
0400
0300
0010
0000
0400
0300
0001
0000
0040
0030
,
0200
0000
4300
3000
0000
0000
0001
0000
0200
0000
0340
0030
0000
0000
0100
0000
,
0002
0000
0000
0000
1003
0000
0100
0000
1000
0000
0040
0030
0000
0000
0400
0300
,
0000
0000
0004
0003
0000
0000
0040
0030
0100
0000
4000
3000
0001
0000
0400
0300
,
0020
0000
0000
0000
1030
0000
0100
0000
1000
0000
0004
0003
0010
0000
0400
0300
,
1000
0000
0040
0030
0100
0000
0004
0003
1000
0000
0400
0300
1000
0000
0040
0030
,
0200
0000
0301
0010
0100
1000
0010
0100
,
0002
0000
0000
0000
1003
0000
0100
0000
1000
0000
0040
0030
0100
0000
0004
0003
,
1000
0010
0100
0001
1000
0100
0010
0001
1000
0001
0010
0100
1000
0001
0100
0010
,
1000
0010
0100
0001
1000
0100
0010
0001
1000
0010
0100
0001
1000
0001
0010
0100
,
1000
0001
0100
0001
1000
0010
1000
0001
1000
0010
0100
0001
1000
0001
0010
0100
,
1000
0001
0100
0010
1000
0001
1000
0100
0010
0001
1000
0100
1000
0001
0100
0001
,
1000
0010
1000
0001
0010
0100
1000
0001
0100
0001
1000
0100
0010
0001
0100
0001
,
1000
0010
1000
0001
0100
0001
1000
0100
0010
0001
1000
0010
0100
0001
0100
0010
,
1000
0001
1000
0100
0010
0001
0010
0100
1000
0001
0100
0001
1000
0010
1000
0001
,
0100
0010
1000
0001
1000
0100
0010
0001
1000
0001
0010
0001
1000
0100
0010
0001
,
1000
0100
1000
0001
0100
0010
1000
0010
0100
0001
1000
0001
0100
0001
1000
0010
,
1000
0100
0010
0100
0010
0001
1000
0010
1000
0100
0010
0100
0010
0001
1000
0010
,
1000
0001
0010
0100
1000
0001
1000
0010
0100
0010
1000
0001
0010
0100
1000
0100
,
0010
0001
1000
0001
1000
0100
1000
0001
1000
0100
1000
0001
0010
0100
1000
0001
,
1000
0010
0100
0001
0100
0001
1000
0010
0100
0001
1000
0100
1000
0001
0010
0100
,
1000
0001
1000
0001
0100
0001
1000
0100
1000
0001
0010
0001
1000
0100
0010
0001
,
1000
0001
0100
0001
1000
0010
1000
0001
0100
0001
1000
0100
1000
0001
0100
0010
,
1000
0001
1000
0001
0010
0100
1000
0001
1000
0100
0010
0001
1000
0010
0100
0001
,
1000
0010
1000
0001
0100
0010
0100
0001
1000
0010
1000
0001
1000
0100
0010
0001
,
1000
0100
1000
0001
0010
0001
1000
0001
1000
0010
1000
0010
0100
0001
0010
0100
,
2000
0000
0000
0000
,
0000
0000
0000
0000
,
3000
0000
0000
0000
;
