#TITLE:Payon;
#SUBTITLE:(Theme Of);
#ARTIST:Ragnarok Online;
#TITLETRANSLIT:;
#SUBTITLETRANSLIT:;
#ARTISTTRANSLIT:;
#CREDIT:;
#BANNER:payon-bn.png;
#BACKGROUND:payon-bg.png;
#LYRICSPATH:;
#CDTITLE:!mm989cdtitle.png;
#MUSIC:Payon.mp3;
#OFFSET:2.399;
#SAMPLESTART:80.280;
#SAMPLELENGTH:16.000;
#SELECTABLE:YES;
#BPMS:0.000=90.000,171.000=85.000,172.000=90.000,210.500=85.000;
#STOPS:;
#BGCHANGES:;
// cache tags:
#FIRSTBEAT:3.500;
#LASTBEAT:214.000;
#SONGFILENAME:Songs/Fresh Flock of Fantastic Files F4/(MM989) Payon/Payon.sm;
#HASMUSIC:1;
#HASBANNER:1;
#MUSICLENGTH:143.229;
// end cache tags

//---------------dance-single - ----------------
#NOTES:
     dance-single:
     :
     Challenge:
     12:
     0.904,1.000,0.649,0.105,1.000,798.000,93.000,15.000,0.000,0.000:  // measure 1
0000
0000
0000
0000
0000
0000
0000
0000
0000
0000
0000
0000
0000
0000
0000
0000
0000
0000
0000
0000
0000
0000
0000
0000
0000
0000
0000
0000
0001
1000
0100
0010
,  // measure 2
1001
0001
0010
0100
1010
0000
0100
0000
0100
0000
1001
0000
0011
0000
0100
0001
,  // measure 3
0101
0000
1100
0000
0000
0000
0010
0000
1001
0000
0100
0010
1100
0000
0001
0001
,  // measure 4
1100
0000
0000
0000
0010
1000
0010
1000
0002
0000
0100
0000
0010
0000
1000
0000
0203
0000
0000
0000
0000
0000
0000
0000
0310
0000
0000
0000
0000
0000
0000
0000
,  // measure 5
1001
0100
1000
0000
0011
0000
0000
0000
1001
0000
0000
0000
0010
0000
0000
0000
0010
0000
0000
0000
1001
0000
0000
0000
0101
0000
0000
0000
1001
0000
0000
0000
,  // measure 6
1100
0000
0010
0000
0101
0000
0000
0000
0000
0000
0000
0000
0010
0000
0000
0000
0001
0100
0001
0100
0001
0000
1000
0000
0100
0000
0000
0000
0001
0000
0001
0000
,  // measure 7
0010
0000
0100
0000
1000
0000
0100
0010
0002
0000
0000
0000
0003
0000
0100
0010
,  // measure 8
1010
0100
1000
0000
0001
0000
0010
0000
0101
0000
0000
0000
1000
0000
0000
0000
1000
0000
0000
0000
0011
0000
0000
0000
0011
0000
0100
0000
0001
0000
0100
0000
,  // measure 9
1000
0000
1000
0000
0010
0000
0101
0000
0110
0000
1010
0001
1001
0000
1100
0010
,  // measure 10
0011
0000
1000
0100
1001
0010
0100
1000
0101
0000
0010
0000
1000
0000
0100
0000
,  // measure 11
1001
0100
0001
0000
0000
0000
0000
0000
1100
0000
0000
0000
0010
0000
0000
0000
0010
0000
0000
0000
1001
0000
0000
0010
0100
0001
1000
0000
0010
0000
1000
0000
,  // measure 12
0101
0000
0100
0000
0001
0000
0000
0100
1002
0000
2003
0100
3002
0000
2003
0100
,  // measure 13
3002
0000
0000
0000
0203
0000
0010
0010
0320
0000
0000
0000
0000
0000
0000
0000
0000
0000
0000
0000
1000
0000
0001
0000
1000
0000
0000
0000
0130
0000
0000
0000
,  // measure 14
0110
0000
0000
0010
1010
0000
0000
0000
0001
0000
1000
0000
1100
0000
0010
0000
,  // measure 15
0001
0000
0100
0000
0010
0000
0000
0001
1000
0000
0000
0000
0000
0000
0000
0000
,  // measure 16
0000
2002
0000
0000
0000
0000
3003
0000
,  // measure 17
0100
0010
0100
0010
0100
0010
0100
0010
1000
0010
1000
0010
1000
0010
1000
0010
1000
0010
1000
0010
1000
0100
1000
0100
0010
0001
0010
0001
1000
0001
1000
0001
,  // measure 18
1000
0001
1000
0001
1000
0001
1000
0001
1000
0001
1000
0001
0010
0100
0010
0100
1000
0100
1000
0100
1000
0100
1000
0100
0010
0001
0010
0001
0010
0001
0010
0001
,  // measure 19
1000
0010
1000
0010
0100
0001
0100
0001
1000
0100
1000
0100
1000
0100
1000
0100
1000
0100
1000
0100
1000
0100
1000
0100
1000
0100
1000
0100
1000
0100
1000
0100
,  // measure 20
0010
0001
0010
0001
0010
0001
0010
0001
0010
0100
0010
0100
0010
0100
0010
0100
0010
0100
0010
0100
1000
0001
1000
0001
0100
0001
0100
0001
1000
0010
1000
0010
,  // measure 21
1000
0001
1000
0001
1000
0001
1000
0001
1000
0001
1000
0001
0100
0010
0100
0010
1000
0100
1000
0100
1000
0100
1000
0100
0010
0001
0010
0001
0100
0010
0100
0010
,  // measure 22
1000
0010
1000
0010
0100
0001
0100
0001
0100
0010
0100
0010
0100
0010
0100
0010
0100
0010
0100
0010
0100
0010
0100
0010
0100
0010
0100
0010
0100
0010
0100
0010
,  // measure 23
1000
0010
1000
0010
1000
0010
1000
0010
1000
0001
1000
0001
1000
0001
1000
0001
1000
0001
1000
0001
0100
0001
0100
0001
1000
0100
1000
0100
0010
0001
0010
0001
,  // measure 24
1000
0010
1000
0010
1000
0010
1000
0010
1000
0010
1000
0010
0100
0010
0100
0010
1000
0001
1000
0001
0010
0100
0010
0100
1000
0100
1000
0100
0010
0001
0010
0001
,  // measure 25
1000
0001
1000
0001
1000
0001
1000
0001
0100
0001
0100
0001
0100
0001
0100
0001
0100
0001
0100
0001
0100
0001
0100
0001
0100
0001
0100
0001
0100
0001
0100
0001
,  // measure 26
0010
0100
0010
0100
0010
0100
0010
0100
1000
0010
1000
0010
1000
0010
1000
0010
1000
0010
1000
0010
0100
0010
0100
0010
1000
0001
1000
0001
1000
0001
1000
0001
,  // measure 27
0100
0001
0100
0001
0100
0001
0100
0001
1000
0010
1000
0010
1000
0010
1000
0010
1000
0001
1000
0001
1000
0001
1000
0001
1000
0001
1000
0001
1000
0001
1000
0001
,  // measure 28
1000
0001
1000
0001
1000
0001
1000
0001
1000
0001
1000
0001
1000
0001
1000
0001
1000
0001
1000
0001
1000
0001
1000
0001
1000
0001
1000
0001
1000
0001
1000
0001
,  // measure 29
0010
0001
0010
0001
0010
0001
0010
0001
1000
0100
1000
0100
1000
0100
1000
0100
1000
0100
1000
0100
1000
0001
1000
0001
0100
0001
0100
0001
0100
0001
0100
0001
,  // measure 30
1000
0100
1000
0100
1000
0100
1000
0100
1000
0100
1000
0100
1000
0001
1000
0001
0010
0100
0010
0100
0010
0100
0010
0100
0010
0100
0010
0100
0010
0100
0010
0100
,  // measure 31
0010
0100
0010
0100
0010
0100
0010
0100
0010
0100
0010
0100
0010
0100
0010
0100
0010
0100
0010
0100
0010
0100
0010
0100
0010
0100
0010
0100
0010
0100
0010
0100
,  // measure 32
1001
0000
0000
0000
0011
0100
0001
0000
0100
0000
0010
0100
1001
0000
0000
0000
,  // measure 33
1010
0100
1000
0000
0001
0000
0100
0001
0110
0000
0000
0000
1001
0100
0010
0000
,  // measure 34
0100
0000
1001
0000
0011
0000
1010
0000
0011
0000
0100
0000
1000
0000
1000
1000
,  // measure 35
0101
0000
0000
0000
1100
1000
0001
0000
0001
0000
1000
0000
0001
0000
0010
0000
,  // measure 36
0100
1000
0001
0000
0101
0010
1000
0100
,  // measure 37
1000
0000
0010
0100
0100
0001
0010
0100
1000
0100
0010
0001
0100
0010
1000
0100
,  // measure 38
1001
0000
0000
0000
1010
0100
0100
0000
0011
0000
0010
0100
0110
0000
0000
0000
,  // measure 39
1001
0000
0100
0000
0011
0000
0100
1000
1001
0000
0000
0000
0011
0000
0000
0000
,  // measure 40
1001
0000
0010
0000
1100
0000
0100
0000
1001
0100
0001
0000
0100
0000
0000
0000
,  // measure 41
1001
0100
1010
0001
0001
1100
1010
0001
,  // measure 42
0010
0000
0100
0000
1000
0000
0000
0001
0001
0000
0110
0000
0101
0000
1010
0000
,  // measure 43
0011
0000
0101
0000
1001
0000
0010
0000
0100
0001
0100
0000
0100
0000
0000
0000
,  // measure 44
1010
0110
1001
0110
0001
0110
0011
0100
,  // measure 45
1010
1001
0101
1100
1100
0001
0110
0001
,  // measure 46
1100
0001
1001
0100
0100
1100
0001
0000
,  // measure 47
0100
0010
0001
0100
0001
1000
0100
0010
,  // measure 48
0100
0001
0010
0100
1000
0000
0100
0000
,  // measure 49
1000
0000
0010
0000
0100
0000
0001
0000
0000
0100
0000
0000
0020
0000
0000
0000
0000
0000
0000
0000
0000
0030
0000
0000
,  // measure 50
1001
0000
0000
0001
0000
0000
0100
0000
0000
0000
0000
0000
0010
0000
1000
0000
0001
0000
0100
0000
0000
0002
0000
0000
,  // measure 51
0000
0000
0000
0003
0110
0100
1000
0001
,  // measure 52
0100
0000
0010
0000
1010
0000
0000
0000
0101
0000
0000
0000
1001
0000
0000
0100
,  // measure 53
1001
0000
0000
0000
0000
0000
0000
0000
1000
0000
0000
0000
0100
0000
0000
0000
0001
0000
0000
0000
0010
0000
0000
0000
0000
0000
0100
0010
2000
0000
0000
0000
,  // measure 54
0000
0000
3000
0000
;

//---------------dance-single - ----------------
#NOTES:
     dance-single:
     :
     Hard:
     9:
     0.369,0.448,0.182,0.335,0.087,296.000,26.000,48.000,0.000,0.000:  // measure 1
0000
0000
0000
0000
,  // measure 2
1001
0000
0000
0000
1010
0000
0100
0000
0100
0000
0010
0000
1001
0000
0100
0010
,  // measure 3
0100
0000
0000
0010
1001
0000
0011
0000
,  // measure 4
0110
1100
1001
0000
,  // measure 5
0100
1000
0001
0000
0000
0001
0100
0010
,  // measure 6
1000
0000
0000
0000
0000
0000
0010
0000
1000
0001
1000
0000
0100
0000
0010
0000
,  // measure 7
0100
0000
1000
0000
0010
0000
0000
0000
0000
0000
0000
0000
0000
0000
0010
0100
,  // measure 8
1000
0000
0010
0100
0001
0000
0000
0000
0000
0000
0010
0000
1000
0000
0100
0000
,  // measure 9
0100
0000
0000
0010
0001
0100
0001
1000
,  // measure 10
0100
0000
0010
0001
0100
0000
0000
0000
1000
0000
0000
0000
0000
0000
0100
0000
,  // measure 11
0100
0000
0001
0000
0000
0010
1000
0000
,  // measure 12
0100
0000
0000
0000
0010
0000
0000
0001
1001
0000
0100
0000
0010
0000
0100
0000
,  // measure 13
0010
0100
0010
1000
0100
0010
0001
1000
,  // measure 14
0110
0000
0001
0000
0000
0010
1000
0100
,  // measure 15
0010
0000
0100
0000
1000
0000
0000
0010
0100
0000
0000
0000
0000
0000
0000
0000
,  // measure 16
0000
2002
0000
0000
0000
0000
3003
0000
,  // measure 17
2000
0000
3002
0000
0000
2003
3020
0032
,  // measure 18
0000
0000
0000
0023
2030
0000
3020
0000
,  // measure 19
0230
0302
2003
0000
0000
0000
0000
0000
,  // measure 20
3200
0000
0320
0000
0000
0032
0023
0230
,  // measure 21
2300
0000
0000
3002
0203
0000
0320
2030
,  // measure 22
3200
0302
0203
0000
0000
0000
0000
0000
,  // measure 23
2300
0000
3002
0000
0000
0023
2030
3200
,  // measure 24
0320
0000
0000
0031
1000
0100
0010
0001
,  // measure 25
0010
0000
0100
1000
0001
0000
0200
0000
0000
0000
0000
0000
0000
0000
0000
0000
,  // measure 26
0302
0000
0203
0000
0000
0302
2003
0000
,  // measure 27
3200
0000
0000
0000
0320
0000
0000
0031
1000
0000
0010
0000
0100
0000
0001
0000
,  // measure 28
0010
0000
0000
0100
0000
0000
1000
0000
0000
0100
0000
0000
0001
0000
0000
0100
0000
0000
1000
0000
0001
0000
0010
0000
,  // measure 29
0200
0000
2300
0000
0000
3002
0203
0000
,  // measure 30
0302
0000
0000
0023
0230
0000
0010
1000
,  // measure 31
0010
1000
0010
0010
0010
0010
0010
0300
,  // measure 32
1001
0000
1010
0000
0100
0001
1001
0000
,  // measure 33
0011
0000
0100
0010
1001
0000
1010
0000
,  // measure 34
0100
0000
1000
0000
0001
0000
0100
0000
0001
0000
0000
0000
0000
0000
0000
0001
,  // measure 35
0010
0000
0010
0000
0100
1000
0001
0010
,  // measure 36
0100
0010
0001
0000
1000
0010
0100
0001
,  // measure 37
1000
0000
0100
0000
0010
0001
1000
0100
0010
0001
1000
0100
0010
0001
1000
0100
,  // measure 38
1001
0000
0110
0000
0100
0001
1001
0000
,  // measure 39
0110
0000
0000
0000
1000
0000
0100
1000
1001
0000
0000
0000
0110
0000
0000
0000
,  // measure 40
0010
1000
0001
0100
0001
0000
0000
0000
,  // measure 41
0010
0000
0010
0000
0000
1000
0100
0001
,  // measure 42
0010
0000
0100
0000
1000
0000
0000
0001
0001
0000
0100
0000
1000
0000
0100
0000
,  // measure 43
0001
1000
0001
0000
0000
0000
0000
0000
,  // measure 44
0010
0100
0010
0100
0001
0010
1000
0001
,  // measure 45
0100
0001
1000
0100
0001
0000
0100
0000
,  // measure 46
0010
0000
1000
0000
0000
0001
0100
0000
,  // measure 47
0010
1000
0001
0100
0010
0100
0001
0010
,  // measure 48
0100
1000
0100
0010
0001
0000
0100
0000
,  // measure 49
0001
0000
0010
0000
0100
0000
1000
0000
0000
0100
0000
0000
0010
0000
0000
0000
0000
0000
0000
0000
0000
0000
0000
0000
,  // measure 50
1001
0000
0000
0100
0000
0000
0001
0000
0000
0000
0000
0000
0001
0000
0100
0000
0010
0000
1000
0000
0000
0100
0000
0000
,  // measure 51
0000
0000
0000
0000
1001
0100
0010
1000
,  // measure 52
0100
0000
0010
0000
0001
0000
0000
0000
0010
0000
0000
0000
1000
0000
0000
0001
,  // measure 53
1000
0010
0100
0010
1000
0100
0000
2002
,  // measure 54
0000
0000
3003
0000
;
