#TITLE:Beautiful Fighter;
#SUBTITLE:Shikabane Hime Aka OP theme;
#ARTIST:Angela;
#TITLETRANSLIT:;
#SUBTITLETRANSLIT:;
#ARTISTTRANSLIT:;
#CREDIT:ALICE_;
#BANNER:beautiful fighter.png;
#BACKGROUND:beautiful fighter.jpg;
#LYRICSPATH:;
#CDTITLE:cdtitle.png;
#MUSIC:beautiful fighter.mp3;
#OFFSET:0.817;
#SAMPLESTART:35.499;
#SAMPLELENGTH:12.000;
#SELECTABLE:YES;
#BPMS:0.000=165.020,243.500=82.510,243.750=41.255,244.000=660.080,252.000=330.040;
#STOPS:;
#BGCHANGES:2.313=beautiful fighter.avi=1.000=0=0=1,
99999=-nosongbg-=1.000=0=0=0 // don't automatically add -songbackground-
;
// cache tags:
#FIRSTBEAT:4.000;
#LASTBEAT:252.000;
#SONGFILENAME:Songs/alice 4th complete step/beautiful fighter/beautiful fighter.sm;
#HASMUSIC:1;
#HASBANNER:1;
#MUSICLENGTH:90.052;
// end cache tags

//---------------dance-single - ----------------
#NOTES:
     dance-single:
     :
     Hard:
     8:
     0.757,0.735,0.566,0.200,0.061,408.000,51.000,18.000,0.000,0.000:
0000
0000
0000
0000
,
2000
3001
0001
0010
0001
0100
0010
1000
,
0200
0310
0010
0100
1000
0010
0100
0001
,
0020
0130
1000
0100
0020
0031
0100
0001
,
0200
0310
1000
0010
0200
0301
0010
0001
,
0101
0101
0000
0000
0000
0000
0000
0000
,
2002
0000
0000
0000
0000
0000
0000
3003
,
1100
1100
0000
0000
0000
0000
0000
0000
,
0210
0000
0000
0001
0300
1000
0010
0000
,
2002
0000
0000
0000
0000
0000
0000
3003
,
0001
0000
1000
0000
0100
0000
1000
0000
0010
0100
0010
0000
1000
0000
0001
0000
,
1100
0100
0010
0001
0000
0100
0010
1000
,
0000
0010
0100
0001
0000
0010
0100
0000
,
1001
0000
1001
0000
0110
0000
1000
0100
,
0000
1000
0010
0200
0001
0301
0010
0001
,
0101
0100
0010
1000
0000
0100
0010
0001
,
0000
0010
0100
1000
0000
0010
0100
0000
,
0110
0000
0110
0000
1001
0000
0010
0001
,
0000
0100
0010
0010
1000
0100
1000
0001
,
1100
0010
0001
0100
0000
0100
0010
0000
,
1010
0100
0001
0010
0000
0010
0100
0000
,
1001
0100
0001
0010
0000
1000
0100
0000
,
0001
0010
0001
0100
1000
0100
0001
0010
,
0100
0100
1000
0001
0001
0100
0010
1000
,
0100
0100
1000
0010
0010
0100
0001
0010
,
0100
0100
1000
0001
0001
0100
1000
0010
,
0100
0000
0001
0000
1000
0000
1000
0000
0001
0100
0001
0100
0001
0100
0001
0000
,
0011
0100
1000
0100
0010
1000
0010
0100
,
1000
0010
0100
1000
0100
0010
0100
0001
,
0101
0010
0001
0010
0100
0001
0100
0010
,
0001
0100
0010
0001
0010
1000
0100
1000
,
0110
0010
0100
0001
1000
0010
0100
0010
,
1000
0001
0010
1000
0100
0010
0001
0010
,
0001
0100
0001
0100
0010
1000
0100
0001
,
0100
0000
0100
0000
1000
0000
0100
0000
1001
0000
1001
0000
0010
0100
0010
0100
,
0001
0000
1000
1100
0000
0001
0101
0000
,
0010
0000
0100
1100
0000
0001
0101
0000
,
1000
0010
1000
0200
0300
0010
0001
0010
,
0100
0010
0000
0101
1000
0001
0100
0010
,
0100
0000
0001
0101
0000
1000
1100
0000
,
0001
0000
1000
1010
0000
0001
0011
0100
,
1000
0001
1000
0001
0100
0010
0100
0001
,
0010
0000
1000
0000
0001
0000
0100
0000
1000
0010
1000
0010
1000
0010
1000
0000
,
1100
0010
0001
0010
0100
0001
0100
0010
,
0001
0100
0010
1000
0001
0100
1000
0100
,
1010
0100
1000
0100
0010
1000
0010
0100
,
1000
0010
0100
1000
0100
0001
0010
0001
,
1010
0100
0010
0001
0100
1000
0010
0100
,
0010
1000
0100
0001
0010
0100
1000
0100
,
1000
0010
1000
0010
0100
0001
0010
1000
,
0010
0000
0010
0000
0001
0000
0010
0000
1001
0000
1001
0000
0100
0010
0100
0010
,
1000
0000
0100
2100
0000
0010
3010
0000
,
0101
0000
0000
0021
0000
0100
0130
0000
,
1000
0001
0100
0001
0000
0001
1000
0100
,
0010
0100
1000
0010
0100
0001
1000
0001
,
0101
0000
0000
1100
0000
0210
0301
0000
,
1100
0000
0001
0101
0000
0210
1300
0000
,
0110
1001
1100
0011
,
0001
0010
0010
0100
0100
1000
1000
0010
,
0100
0001
1000
0100
0001
0100
1000
0010
,
0001
1000
0100
0001
0010
0100
1000
0010
,
0102
0000
0000
0000
,
0000
0000
0000
0000
,
0003
0000
0000
0000
;

//---------------dance-single - Copied from----------------
#NOTES:
     dance-single:
     Copied from:
     Medium:
     7:
     0.662,0.654,0.433,0.355,0.006,346.000,39.000,32.000,0.000,0.000:
0000
0000
0000
0000
,
1000
0001
0010
0100
0010
0100
1000
0010
,
0100
0001
1000
0100
1000
0010
0100
0001
,
1000
0010
0100
0010
1000
0001
0100
0010
,
1000
0001
0100
1000
0100
0001
0010
0100
,
1001
1001
0000
0000
1000
0001
0100
0000
,
0220
0330
0100
0010
0100
0010
0100
0000
,
1001
1001
0000
0000
0001
1000
0100
0000
,
0220
0330
0010
0100
0000
0100
1000
0010
,
0202
0000
0000
0000
0000
0000
0000
0303
,
0002
0000
1003
0000
0020
0000
1030
0000
0100
1000
0100
0000
2000
0000
3010
0000
,
0100
0001
0010
0100
0000
1000
0010
0001
,
0000
1000
0100
0001
0000
0010
0100
0000
,
2001
0000
3200
0000
0320
0000
0031
1001
,
0000
0100
0010
0100
0001
1000
0100
0000
,
0100
1000
0010
0100
0000
0001
0010
1000
,
0000
0001
0100
1000
0000
0010
0100
0000
,
1002
0000
0203
0000
0320
0000
1030
1001
,
0000
0100
0010
0100
0001
1000
0010
0100
,
1001
0000
1000
0100
0000
0010
0100
0000
,
1000
0000
0001
0100
0000
0010
0100
0000
,
0001
0000
0010
0100
0000
1000
0100
0000
,
2000
0000
3010
0100
0001
0010
0100
1000
,
1001
0001
0100
0010
0000
0010
1000
0100
,
0000
0100
1000
0001
0000
0010
0001
0000
,
0100
0010
1000
0001
0000
0110
0000
1001
,
0000
0100
0010
1000
0001
0010
0100
0010
,
0002
0000
0100
0000
1000
0000
0010
0003
,
1000
0100
1000
0010
1000
0100
1000
0000
,
2010
0000
0100
0000
0001
0000
0010
3000
,
0001
0100
0001
0010
0001
0100
0001
0000
,
0010
0100
1000
0010
0000
1000
0001
0000
,
0010
0100
0001
0010
0000
0001
1000
0000
,
0100
0000
1001
0100
0001
0100
0010
0000
,
1000
0100
0010
0000
1001
1001
0000
0000
,
0100
0000
0000
1100
0000
0010
0001
0000
,
0100
0000
0000
0101
0000
0010
1000
0000
,
0010
1000
0010
0100
0000
0010
0100
0001
,
1000
0100
0000
0010
0100
1000
0010
1000
,
0001
0000
0000
0101
0000
0100
0010
0000
,
1000
0000
0100
1100
0000
0100
0010
0000
,
0001
0100
1000
0100
0001
0010
0000
0100
,
2000
0000
0010
0000
0001
0000
0100
3000
,
0021
0230
2300
3020
,
0230
0000
0301
1000
0010
0000
0010
1000
,
0200
2300
3020
0230
,
0302
0000
0013
0100
0010
0000
0100
1000
,
0010
0000
0110
0000
0001
0010
0100
0000
,
1001
0000
0010
1000
0100
0010
0001
0000
,
1000
0000
0101
0000
0010
0100
1000
0000
,
0002
0000
0103
1000
0010
0110
0000
0000
,
0011
0000
0010
0100
0000
1000
1100
0000
,
1010
0000
0010
0100
0000
0001
0101
0000
,
1000
0010
1000
0001
0000
0010
0100
0010
,
0001
0002
0000
0103
0010
1000
0001
0100
,
0001
0000
0000
0101
0000
0100
0010
0000
,
1000
0000
0100
1100
0000
0010
0001
0000
,
1001
0000
1001
0000
0100
0010
1000
0100
,
0010
1100
0110
1001
,
0001
0100
0010
0100
1000
0100
0010
1000
,
0001
0100
0010
0001
1000
0100
0001
0010
,
0200
0000
0000
0000
,
0300
0000
0000
0000
;

//---------------dance-single - ----------------
#NOTES:
     dance-single:
     :
     Challenge:
     13:
     1.000,1.000,1.000,0.633,1.000,645.000,172.000,57.000,0.000,23.000:
0000
0000
0000
0000
,
2020
3030
0000
0000
0000
0000
0000
0000
0001
0000
0000
0000
0000
0000
0000
0000
0100
0000
0000
0000
0000
0000
0000
0000
0010
0000
0000
0000
0000
0000
0000
0000
1000
0000
0000
0000
0000
0000
0000
0000
0001
0000
0000
0000
0000
0000
0000
0000
0100
0000
0000
0000
0000
0000
0000
0000
0010
0000
0000
0000
0000
0000
0000
0000
,
2200
3300
0000
0000
0000
0000
0000
0000
0001
0000
0000
0000
0000
0000
0000
0000
0100
0000
0000
0000
0000
0000
0000
0000
0010
0000
0000
0000
0000
0000
0000
0000
1000
0000
0000
0000
0000
0000
0000
0000
0001
0000
0000
0000
0000
0000
0000
0000
0100
0000
0000
0000
0000
0000
0000
0000
0010
0000
0000
0000
0000
0000
0000
0000
,
2002
3003
0000
0000
0000
0000
0000
0000
0010
0000
0000
0000
0000
0000
0000
0000
0100
0000
0000
0000
0000
0000
0000
0000
0010
0000
0000
0000
0000
0000
0000
0000
2200
3300
0000
0000
0000
0000
0000
0000
0001
0000
0000
0000
0000
0000
0000
0000
0010
0000
0000
0000
0000
0000
0000
0000
0001
0000
0000
0000
0000
0000
0000
0000
,
0220
0330
0000
0000
0000
0000
0000
0000
0010
0000
0000
0000
0000
0000
0000
0000
0100
0000
0000
0000
0000
0000
0000
0000
1001
0000
0000
0000
0000
0000
0000
0000
1000
0000
0100
0000
0010
0000
0001
0000
1000
0000
0100
0000
0010
0000
0001
0000
1000
0000
0100
0000
0010
0000
0001
0000
1000
0000
0100
0000
0010
0000
0001
0000
,
2200
3311
1000
0001
1000
0001
0100
0000
,
2002
0000
0010
0100
0100
0010
0100
3003
,
0022
1133
0001
1000
0001
1000
0100
0000
,
2002
0000
0100
0010
0000
0010
0100
3003
,
1001
0100
1000
0100
0010
0001
0010
0001
0010
0100
1000
0100
0010
0001
0100
0010
,
2001
0000
3100
0000
0021
0000
0130
0000
1001
0100
0010
0000
2012
0000
3003
0000
,
1001
0000
1001
0000
0100
0000
0011
0000
0100
0010
0001
0000
1100
0000
0010
0000
,
0001
1000
0100
0000
0011
0000
1000
0000
0010
0100
1000
0000
0011
0000
0100
0000
,
1001
0010
0001
0000
0110
0000
1000
0100
0010
0000
1100
0000
0001
0010
0100
0000
,
1000
0001
0100
0010
1000
0001
0200
0000
0010
0001
0310
0000
1001
0000
0110
0000
,
1001
0000
1001
0000
0010
0000
1100
0000
0010
1000
0100
0000
0011
0000
0100
0000
,
1000
0010
0001
0000
1100
0000
0010
0000
0001
0100
0010
0000
1100
0000
0010
0000
,
1001
0100
1000
0000
0110
0000
0001
0010
0100
0000
0011
0000
1000
0010
0100
0000
,
2010
3011
0110
1010
1100
1001
0110
1001
,
1100
0100
0011
0102
0000
0010
1000
0103
,
0011
1000
0110
2100
0000
0010
0100
3001
,
0110
0100
1010
0102
0000
0010
1000
0103
,
1100
0010
1000
0101
0011
1010
1100
0101
,
1001
0001
1001
0110
0010
0110
1001
0100
,
1010
1000
1010
0110
0010
0110
0101
1000
,
1001
0000
0010
0001
0100
0000
0101
0000
0010
1000
0100
0000
1010
0000
0010
0001
,
0100
0000
0011
0000
1010
0000
1102
0000
1003
0100
0010
0001
1000
0100
0010
0001
,
1100
0010
1000
0100
0011
1000
0010
0100
0010
1000
0100
1000
0011
0100
1000
0010
,
1000
0010
0100
0010
1001
0100
0010
1000
0010
0100
1000
0010
0101
0010
1000
0100
,
0001
0010
0100
0001
1010
0001
0100
0010
0001
0100
0010
0100
1001
0010
0100
0010
,
0001
0100
0010
0001
1100
0001
0010
0100
0001
0010
0001
0100
1010
0001
0010
0100
,
0001
1000
0010
0001
1100
0010
0100
0001
0010
1000
0100
0001
0110
1000
0010
0100
,
0001
0010
1000
0001
0110
1000
0001
0100
0010
0001
1000
0010
0101
0010
1000
0001
,
0010
0001
0100
1000
0011
0100
1000
0100
0001
0010
1000
0100
0011
1000
0010
0100
,
0001
1000
0010
0100
0011
1000
0100
0010
1001
0000
0110
0000
0010
0010
1001
0100
,
1100
1000
1000
1010
1000
1100
1010
1000
,
0101
0001
0011
0101
0001
0101
0011
0001
,
1001
0100
1010
0101
0100
0011
1100
0010
,
1001
1001
0100
1010
0002
0203
0320
0230
,
1301
0001
1001
0101
0010
0101
0110
0010
,
1001
1000
1001
1010
0100
1010
0110
1000
,
0120
0000
0032
0000
0203
0000
0320
0000
2030
0000
3002
0000
0203
0000
0320
0030
,
1001
0000
0100
0100
1001
0000
0000
0000
0010
0100
0010
0001
1000
0010
0100
0001
,
2000
0100
0001
3000
0020
0001
1000
0030
0200
1000
0010
0300
0002
1000
0100
0003
,
0020
0001
1000
0100
1000
0030
2100
3000
0210
0001
0010
0001
1000
0010
1000
0300
,
0002
0010
0100
0003
2000
0100
0010
3000
0020
0100
1000
0030
0200
1000
0010
0300
,
0012
0100
0010
1000
0100
0003
1200
0300
0021
1000
0100
0001
1000
0001
0100
0031
,
1000
0100
1000
0100
0011
0100
1000
0010
0001
0100
0010
1000
0110
0001
0100
0010
,
1000
0001
0010
0001
1100
0010
1000
0100
0001
0010
0100
1000
0101
0010
1000
0001
,
0100
0010
0001
0010
1100
0010
1000
0100
0001
0010
0001
0100
1001
0010
0100
1000
,
0100
0010
0100
0001
0100
1000
0100
0010
0110
0000
0110
0000
0001
0001
1000
0001
,
0101
0010
1100
0001
0010
0100
1001
0110
,
1000
0100
0011
1000
0100
0010
0110
1001
,
0100
0010
1010
0100
0010
1000
0101
0011
,
0100
0001
0110
0010
0101
1010
0101
1010
,
1001
0001
0011
0101
0001
1101
0111
0001
,
1001
1000
1010
1100
1000
1101
1110
1000
,
1011
0000
1110
0000
1101
0000
0112
1003
,
0011
0001
0001
0100
0010
0010
1100
1100
1100
0001
0010
0001
,
1000
0010
1000
0100
0010
0100
0001
0010
1000
0100
1000
0010
0100
0001
0010
0100
,
0001
0010
0001
0100
0010
1000
0100
0010
1000
0100
0001
0100
1000
0010
0100
0000
,
2002
0000
0000
0000
,
0000
0000
0000
0000
,
3003
0000
0000
0000
;

//---------------dance-single - ----------------
#NOTES:
     dance-single:
     :
     Easy:
     3:
     0.317,0.373,0.067,0.289,0.000,168.000,6.000,26.000,2.000,0.000:
0000
0000
0000
0000
,
1000
0010
0010
0100
,
0001
0010
0010
0100
,
1000
0000
0001
0000
,
0100
0000
0010
0000
,
0220
0330
0000
0000
0000
0000
0000
0000
,
2002
3003
0000
0000
0000
0000
0000
0000
,
0022
0030
0000
0000
0200
0300
0000
0000
,
2003
0000
0000
0000
3020
0030
0000
0000
,
0202
0000
0000
0303
,
1000
0001
0100
0010
,
1000
0100
0001
0100
,
1000
0001
0100
0010
,
1000
0000
0001
0000
,
0100
0010
0200
0300
,
0001
0100
1000
0100
,
0001
1000
0100
0010
,
1000
0000
0001
0000
,
0010
0100
0020
0030
,
1000
0100
0001
0000
,
1000
0010
0001
0000
,
0100
0001
0010
1000
,
0100
0000
0000
0000
,
1000
0000
0000
0001
0000
0000
0100
0000
,
0001
0000
0000
1000
0000
0000
0100
0000
,
0010
0000
0000
0010
0000
0000
0010
0000
,
1000
0001
1001
0010
,
0100
0001
0010
1000
,
0200
0000
1300
0000
,
0010
0001
0100
1000
,
0020
0000
0031
0000
,
1000
0100
0001
0100
,
1000
0010
0001
0010
,
1000
0001
1000
0010
,
0100
0001
1000
0000
,
0100
0000
0000
0100
0000
0000
0100
0000
,
0002
0000
0000
0003
,
1000
0010
0001
0010
,
0200
0000
0000
0300
,
1000
0000
0000
1000
0000
0000
1000
0000
,
0020
0000
0000
0030
,
1000
0100
0001
0100
,
1000
0010
0200
0300
,
0001
0010
0001
0100
,
0002
0000
0103
0000
,
1000
0010
1000
0100
,
2000
0000
3010
0000
,
0100
1000
0100
0000
,
0001
0010
1000
0000
,
0100
0010
1000
0001
,
0010
0000
2002
3003
,
0100
0000
0000
0100
0000
0000
0100
0000
,
0002
0000
0000
0003
,
1000
0001
1000
0100
,
1000
0001
0010
0000
,
1000
0000
0000
1000
0000
0000
1000
0000
,
0020
0000
0000
0030
,
0001
0100
1000
0010
,
1000
0100
0001
0010
,
0200
0000
0000
0000
,
0000
0000
0000
0300
,
0MM0
0000
0000
0000
;
