#TITLE:Lost Connections;
#SUBTITLE:;
#ARTIST:DJ Sharpnel;
#TITLETRANSLIT:;
#SUBTITLETRANSLIT:;
#ARTISTTRANSLIT:;
#CREDIT:;
#BANNER:lost connections bn.png;
#BACKGROUND:lost connections bg.png;
#LYRICSPATH:;
#CDTITLE:;
#MUSIC:Lost Connections.ogg;
#OFFSET:-1.517;
#SAMPLESTART:157.724;
#SAMPLELENGTH:20.739;
#SELECTABLE:YES;
#DISPLAYBPM:185.000;
#BPMS:0.000=185.150;
#STOPS:;
#BGCHANGES:;
// cache tags:
#FIRSTBEAT:4.000;
#LASTBEAT:940.000;
#SONGFILENAME:Songs/SHARPNELSTREAMZ v2/Lost Connections/Lost Connections.sm;
#HASMUSIC:1;
#HASBANNER:1;
#MUSICLENGTH:308.166;
// end cache tags

//---------------dance-single - 16+ (TYLR)----------------
#NOTES:
     dance-single:
     16+ (TYLR):
     Medium:
     16:
     1.000,1.000,0.042,0.130,1.000,2852.000,13.000,40.000,64.000,0.000:
0000
0000
0000
0000
,
0000
0000
0000
0000
,
0000
0000
0000
0000
,
0000
0000
0000
0000
,
0000
0000
0000
0000
,
0000
0000
0000
0000
,
0000
0000
0000
0000
,
0000
0000
0000
0000
,
0000
0000
0000
0000
,
0000
0000
0000
0000
,
0000
0000
0000
0000
,
0000
0000
0000
0000
,
0000
0000
0000
0000
,
0000
0000
0000
0000
,
0010
0001
0010
0001
0100
0001
1000
0001
0010
0100
1000
0100
0010
0001
1000
0001
,
1000
0010
0100
0001
0010
0001
0100
0010
1000
0100
1000
0100
0010
0001
0010
0001
,
4000
0004
0000
0000
0000
0000
0000
0000
0000
0000
0000
0000
0000
0000
0000
0000
0000
0000
0000
0000
0000
0000
0000
3000
,
0013
0000
0100
1000
0100
1000
0010
0000
1000
0000
0001
0010
0100
0010
0001
0000
,
0100
0000
0010
1000
0010
1000
0100
0000
0010
0000
0100
1000
0010
1000
0001
0000
,
0010
0000
0100
1000
0100
1000
0010
0000
1000
0000
0001
0010
0100
0010
0001
0000
,
0100
0000
0010
1000
0010
1000
0100
0000
0010
0000
0001
0010
0100
0000
0010
0000
,
1001
0000
0010
0001
0010
0001
0100
0000
0010
0000
1000
0100
0010
0100
1000
0000
,
0010
0000
0100
0001
0100
0001
0010
0000
0100
0000
0010
0001
0100
0001
1000
0000
,
0100
0000
0010
0001
0010
0001
0100
0000
0001
0000
1000
0100
0010
0100
1000
0000
,
0010
0000
0100
0001
0100
0001
0010
0000
0100
0000
1000
0100
0010
0001
0010
0001
,
0100
0000
0010
1000
0010
1000
0100
0000
1000
0000
0001
0100
0010
0100
0001
0000
,
0010
0000
0100
1000
0100
1000
0010
0000
0100
0000
0010
1000
0100
1000
0001
0000
,
0100
0000
0010
1000
0010
1000
0100
0000
1000
0000
0001
0100
0010
0100
0001
0000
,
0010
0000
0100
1000
0100
1000
0010
0000
0100
0000
0001
0100
0010
0000
0100
0000
,
1001
0000
0100
0001
0100
0001
0010
0000
0100
0000
1000
0010
0100
0010
1000
0000
,
0100
0010
0001
0010
0001
0010
0100
1000
0001
1000
0001
1000
0010
1000
0001
1000
,
0001
0010
0100
1000
0001
1000
0100
0010
0001
1000
0100
1000
0001
1000
0100
0010
,
0004
4000
0000
0000
0000
0000
0000
0000
0000
0000
0000
0000
0000
0000
0000
0000
0000
0000
0000
0000
0000
0000
0000
0003
,
3010
0100
0000
0001
1000
0000
0001
0100
0010
1000
0100
0010
0000
0001
1000
0000
,
0010
0000
1000
0001
0010
0000
0001
1000
0010
0100
0001
0010
0000
0100
1000
0000
,
0010
1000
0000
0001
0010
0000
0100
0010
0001
1000
0010
0100
0000
0001
1000
0000
,
0001
0100
0000
0010
0100
0000
0001
1000
0100
0010
0001
1000
0100
1000
0010
0100
,
0001
1000
0010
1000
0001
0000
1000
0001
0100
0001
0010
0100
0000
1000
0001
0000
,
0100
0000
0001
1000
0100
0000
1000
0001
0100
0010
1000
0100
0000
0010
0001
0000
,
0100
0001
0000
1000
0100
0000
0010
0100
1000
0001
0100
0010
0000
1000
0001
0000
,
1000
0010
0000
0100
0010
0000
1000
0001
0010
0100
1000
0001
0010
0001
0100
0010
,
1000
0001
0100
0001
1000
0000
0001
0100
0010
1000
0100
0010
0000
0001
1000
0000
,
0010
0000
1000
0001
0010
0000
0001
1000
0010
0100
0001
0010
0000
0100
1000
0000
,
0010
1000
0000
0001
0010
0000
0100
0010
0001
1000
0010
0100
0000
0001
1000
0000
,
0001
0100
0000
0010
0100
0000
0001
1000
0100
0010
0001
1000
0100
1000
0010
0100
,
0001
1000
0010
1000
0001
0000
0100
0001
1000
0100
1000
0010
0000
0100
0001
0000
,
1000
0100
0010
0100
1000
0000
0001
0010
0100
1000
0010
0100
0000
0001
1000
0000
,
0001
0100
0010
1000
0001
1000
0010
0100
0001
0010
0100
1000
0010
1000
0100
0010
,
0004
4000
0000
0000
0000
0000
0000
0000
0000
0000
0000
0000
0000
0000
0000
0000
0000
0000
0000
0000
0000
0000
0000
0003
,
3010
0100
0000
0001
1000
0000
0001
0010
0100
1000
0010
0100
0000
0001
1000
0000
,
0100
0000
1000
0001
0100
0000
0001
1000
0100
0010
0001
0100
0000
0010
1000
0000
,
0100
1000
0000
0001
0100
0000
0010
0100
0001
1000
0100
0010
0000
0001
1000
0000
,
0001
0010
0000
0100
0010
0000
0001
1000
0010
0100
0001
1000
0010
1000
0100
0010
,
0001
1000
0100
1000
0001
0000
1000
0001
0010
0001
0100
0010
0000
1000
0001
0000
,
0010
0000
0001
1000
0010
0000
1000
0001
0010
0100
1000
0010
0000
0100
0001
0000
,
0010
0001
0000
1000
0010
0000
0100
0010
1000
0001
0010
0100
0000
1000
0001
0000
,
1000
0100
0000
0010
0100
0000
1000
0001
0100
0010
1000
0001
0100
0001
0010
0100
,
1000
0001
0010
0001
1000
0000
0001
0010
0100
1000
0010
0100
0000
0001
1000
0000
,
0100
0000
1000
0001
0100
0000
0001
1000
0100
0010
0001
0100
0000
0010
1000
0000
,
0100
1000
0000
0001
0100
0000
0010
0100
0001
1000
0100
0010
0000
0001
1000
0000
,
0001
0010
0000
0100
0010
0000
0001
1000
0010
0100
0001
1000
0010
1000
0100
0010
,
0001
1000
0100
1000
0001
0000
0010
0001
1000
0010
1000
0100
0000
0010
0001
0000
,
1000
0010
0100
0010
1000
0000
0001
0100
0010
1000
0100
0010
0000
0001
1000
0000
,
0001
0010
0100
1000
0001
1000
0100
0010
0001
0100
0010
1000
0100
1000
0010
0100
,
0004
4000
0000
0000
0000
0000
0000
0000
0000
0000
0000
0000
0000
0000
0000
0000
0000
0000
0000
0000
0000
0000
0000
0003
,
3010
0100
0000
0010
1000
0000
0001
0100
0010
1000
0100
0010
0000
0001
1000
0000
,
0010
0000
1000
0001
0010
0000
0001
1000
0010
0100
0001
0010
0000
0100
1000
0000
,
0010
1000
0000
0001
0010
0000
0100
0010
0001
1000
0010
0100
0000
0001
1000
0000
,
0001
0100
0000
0010
0100
0000
0001
1000
0100
0010
0001
1000
0100
1000
0010
0100
,
0001
1000
0010
1000
0001
0000
1000
0001
0100
0001
0010
0100
0000
1000
0001
0000
,
0100
0000
0001
1000
0100
0000
1000
0001
0100
0010
1000
0100
0000
0010
0001
0000
,
0100
0001
0000
1000
0100
0000
0010
0100
1000
0001
0100
0010
0000
1000
0001
0000
,
1000
0010
0000
0100
0010
0000
1000
0001
0010
0100
1000
0001
0010
0001
0100
0010
,
1000
0001
0100
0001
1000
0000
0001
0100
0010
1000
0100
0010
0000
0001
1000
0000
,
0010
0000
1000
0001
0010
0000
0001
1000
0010
0100
0001
0010
0000
0100
1000
0000
,
0010
1000
0000
0001
0010
0000
0100
0010
0001
1000
0010
0100
0000
0001
1000
0000
,
0001
0100
0000
0010
0100
0000
0001
1000
0100
0010
0001
1000
0100
1000
0010
0100
,
0001
1000
0010
1000
0001
0000
0100
0001
1000
0100
1000
0010
0000
0100
0001
0000
,
1000
0100
0010
0100
1000
0000
0001
0010
0100
1000
0010
0100
0000
0001
1000
0000
,
0001
0100
0010
1000
0001
1000
0010
0100
0001
0010
0100
1000
0010
1000
0100
0010
,
0004
4000
0000
0000
0000
0000
0000
0000
0000
0000
0000
0000
0000
0000
0000
0000
0000
0000
0000
0000
0000
0000
0000
0003
,
3010
0100
0001
1000
0010
0100
0001
1000
0010
0100
0001
0010
0100
1000
0001
1000
,
0100
0010
0001
1000
0100
0010
0001
1000
0100
0010
0001
0100
0010
1000
0001
1000
,
0010
0100
0001
1000
0010
0100
0001
1000
0010
0100
0001
0010
0001
1000
0100
1000
,
0010
0100
0001
1000
0010
0100
0001
1000
0010
1000
0100
0010
0001
0100
0010
1000
,
0001
0010
0100
1000
0001
0010
0100
1000
0001
0010
0001
0100
0010
1000
0001
1000
,
0010
0100
0001
1000
0010
0100
0001
1000
0010
0100
0001
0010
0001
0100
0010
1000
,
0100
1000
0001
0010
0100
1000
0001
0010
0100
1000
0001
0100
0010
1000
0001
1000
,
0010
1000
0001
0100
0010
1000
0001
0100
0010
1000
0100
0010
0001
0100
0010
1000
,
0001
1000
0100
1000
0001
1000
0100
1000
0001
0010
0001
0100
0010
1000
0001
1000
,
0010
0100
0001
1000
0010
0100
0001
1000
0010
0100
0001
0010
0100
1000
0001
1000
,
0100
0010
0001
1000
0100
0010
0001
1000
0100
0010
0001
0100
0001
1000
0010
1000
,
0100
0010
0001
1000
0100
0010
0001
1000
0100
1000
0010
0100
0001
0010
0100
1000
,
0001
0100
0010
1000
0001
0100
0010
1000
0001
0100
0001
0010
0100
1000
0001
1000
,
0100
0010
0001
1000
0100
0010
0001
1000
0100
0010
0001
0100
0001
0010
0100
1000
,
0010
1000
0001
0100
0010
1000
0001
0100
0010
1000
0001
0010
0100
1000
0001
0010
,
0100
0000
0000
1000
0100
1000
0100
0000
0000
0010
0001
0010
0001
0000
0000
1000
0010
1000
0010
0000
0000
1000
0001
1000
,
0002
0000
0000
0000
,
0000
0000
0000
0000
,
0000
0000
0000
0000
,
0000
0000
0000
0000
,
M003
0M00
M000
000M
0M00
00M0
0M00
000M
,
M000
00M0
M000
000M
00M0
0M00
00M0
000M
,
M000
00M0
0M00
000M
00M0
000M
0M00
00M0
,
M000
000M
00M0
0M00
000M
0M00
M000
00M0
,
0M00
000M
00M0
0M00
000M
M000
000M
0M00
,
00M0
000M
M000
00M0
0M00
M000
0M00
00M0
,
000M
00M0
0M00
000M
M000
0M00
00M0
000M
,
M000
00M0
M000
0M00
000M
0M00
000M
00M0
,
1000
0001
1000
0001
,
0100
0010
1000
0010
,
0100
0001
0010
0001
,
0100
0000
0000
0000
0010
0000
0000
0000
1000
0000
0000
0001
0000
0000
0010
0000
,
0100
1000
0100
0100
,
0001
0100
0010
0001
,
1000
0010
0100
0001
,
0010
0000
0000
0000
0010
0000
0000
0000
0100
0000
0000
0100
0000
0000
0100
0000
,
2100
0000
0000
0000
,
3004
0000
4003
0000
3004
0000
4003
0000
3002
0000
0000
0000
0000
0000
0000
0000
1000
0003
0002
0000
0000
0000
0000
0000
0103
0000
0000
0000
0000
0000
0000
0000
,
0040
4000
0000
0000
0000
0030
3001
0000
0000
0000
0000
0000
0001
0000
0000
0000
0000
0000
0010
0000
0000
0001
0000
0000
,
0000
0010
0100
1000
0002
2003
3020
0230
,
0301
0010
0001
0010
0100
1000
0001
0100
0010
1000
0100
0010
0001
1000
0001
0100
,
0010
1000
0100
0010
0001
1000
0010
1000
0001
0010
0100
1000
0001
0010
0100
1000
,
0001
0100
0001
0100
0010
1000
0001
0010
0100
1000
0010
0100
0001
1000
0001
0010
,
0100
1000
0010
1000
0100
0010
0001
1000
0010
1000
0001
0100
0001
1000
0100
0010
,
0001
1000
0001
1000
0010
1000
0001
0010
0100
1000
0010
0100
0001
1000
0001
0010
,
0100
1000
0010
0100
0001
1000
0100
1000
0001
0100
0010
1000
0001
0100
0010
1000
,
0001
1000
0010
1000
0001
0100
0001
1000
0001
0100
0010
1000
0100
0010
0001
1000
,
0001
0100
0010
1000
0100
1000
0010
0100
0001
0010
0100
1000
0010
1000
0100
0010
,
0001
1000
0001
1000
0100
1000
0001
0100
0010
1000
0100
0010
0001
1000
0001
0100
,
0010
1000
0100
0010
0001
1000
0010
1000
0001
0010
0100
1000
0001
0010
0100
1000
,
0001
0100
0001
0100
0010
1000
0001
0010
0100
1000
0010
0100
0001
1000
0100
1000
,
0010
0100
0001
0100
0001
1000
0100
0010
0001
1000
0100
1000
0001
1000
0010
0100
,
0001
0100
0010
1000
0100
0010
0001
1000
0100
0010
0001
1000
0010
1000
0010
0100
,
0001
1000
0010
1000
0001
1000
0001
0010
0100
1000
0010
1000
0001
1000
0010
1000
,
0100
0010
0001
1000
0100
1000
0001
0010
0100
0010
0001
1000
0100
0010
0100
1000
,
0001
0100
0010
1000
0100
1000
0010
0100
0001
0010
0100
1000
0010
0100
0001
1000
,
0200
0320
0032
2003
3200
0320
0230
2300
3020
0230
0302
0023
0230
2300
3020
2030
,
3002
0203
0320
2030
3200
0320
0032
0203
0320
0230
0302
0023
0230
2300
3020
2030
,
3001
0010
0001
0010
0100
1000
0001
0100
0010
1000
0100
0010
0001
1000
0001
0100
,
0010
1000
0100
1000
0010
0100
0001
1000
0100
1000
0001
0010
0001
1000
0010
0100
,
0001
1000
0001
1000
0100
1000
0001
0100
0010
1000
0100
0010
0001
1000
0001
0100
,
0010
1000
0100
0010
0001
1000
0010
1000
0001
0010
0100
1000
0001
0010
0100
1000
,
0001
1000
0100
1000
0001
0010
0001
1000
0001
0010
0100
1000
0010
0100
0001
1000
,
0001
0100
0010
1000
0100
1000
0010
0100
0001
0010
0100
1000
0010
1000
0100
0010
,
0001
1000
0001
1000
0010
1000
0001
0010
0100
1000
0010
0100
0001
1000
0001
0010
,
0100
1000
0010
0100
0001
1000
0100
1000
0001
0100
0010
1000
0001
0100
0010
1000
,
0001
0010
0001
0010
0100
1000
0001
0100
0010
1000
0100
0010
0001
1000
0010
1000
,
0100
0010
0001
0010
0001
1000
0010
0100
0001
1000
0010
1000
0001
1000
0100
0010
,
0001
0010
0100
1000
0010
0100
0001
1000
0010
0100
0001
1000
0100
1000
0100
0010
,
0001
1000
0100
1000
0001
1000
0001
0100
0010
1000
0100
1000
0001
1000
0100
1000
,
0010
0100
0001
1000
0010
1000
0001
0100
0010
0100
0001
1000
0010
0100
0010
1000
,
0001
0010
0100
1000
0001
1000
0100
0010
0001
0100
0010
1000
0100
1000
0010
0100
,
0001
1000
0100
1000
0001
1000
0010
0100
0001
0100
0001
0010
0100
1000
0001
1000
,
0100
0010
0100
1000
0001
1000
0100
1000
0001
0010
0001
0100
0010
1000
0001
1000
,
0001
0100
0010
1000
0001
1000
0010
1000
0001
0100
0001
0010
0100
1000
0001
1000
,
0100
0010
0100
1000
0001
1000
0100
0010
0001
1000
0001
0010
0001
0100
0010
1000
,
0001
0010
0100
1000
0001
1000
0100
0010
0001
0010
0001
0100
0010
1000
0001
1000
,
0010
0100
0010
1000
0001
1000
0010
1000
0001
0100
0001
0010
0100
1000
0001
1000
,
0001
0010
0100
1000
0001
1000
0100
1000
0001
0010
0001
0100
0010
1000
0001
1000
,
0010
0100
0010
1000
0001
1000
0010
0100
0001
1000
0001
0100
0001
0010
0100
1000
,
0001
0100
0010
1000
0001
1000
0010
0100
0001
0100
0001
0010
0100
1000
0001
1000
,
0100
0010
0100
1000
0001
1000
0100
1000
0001
0010
0001
0100
0010
1000
0001
1000
,
0001
0100
0010
1000
0001
1000
0010
1000
0001
0100
0001
0010
0100
1000
0001
1000
,
0100
0010
0100
1000
0001
1000
0100
0010
0001
1000
0001
0010
0001
0100
0010
1000
,
0001
0010
0100
1000
0001
1000
0100
0010
0001
0010
0001
0100
0010
1000
0001
1000
,
0010
0100
0010
1000
0001
1000
0010
1000
0001
0100
0001
0010
0100
1000
0001
1000
,
0001
0010
0100
1000
0001
1000
0100
1000
0001
0010
0001
0100
0010
1000
0001
1000
,
0004
4000
0000
0000
0000
0000
0000
0000
0000
0000
0000
0000
0000
0000
0000
0000
0000
0000
0000
0000
0000
0000
0000
0003
,
3010
0100
0010
1000
0001
1000
0010
0100
0001
0100
0001
0010
0100
1000
0001
1000
,
0010
0100
0010
1000
0001
1000
0010
1000
0001
0100
0001
0010
0100
1000
0001
1000
,
0001
0010
0100
1000
0001
1000
0100
1000
0001
0010
0001
0100
0010
1000
0001
1000
,
0100
0010
0100
1000
0001
1000
0100
0010
0001
1000
0001
0010
0001
0100
0010
1000
,
0001
0010
0100
1000
0001
1000
0100
0010
0001
0010
0001
0100
0010
1000
0001
1000
,
0100
0010
0100
1000
0001
1000
0100
1000
0001
0010
0001
0100
0010
1000
0001
1000
,
0001
0100
0010
1000
0001
1000
0010
1000
0001
0100
0001
0010
0100
1000
0001
1000
,
0010
0100
0010
1000
0001
1000
0010
0100
0001
1000
0001
0100
0001
0010
0100
1000
,
0001
0100
0010
1000
0001
1000
0010
0100
0001
0100
0001
0010
0100
1000
0001
1000
,
0100
0010
0100
1000
0001
1000
0100
1000
0001
0010
0001
0100
0010
1000
0001
1000
,
0001
0100
0010
1000
0001
1000
0010
1000
0001
0100
0001
0010
0100
1000
0001
1000
,
0100
0010
0100
1000
0001
1000
0100
0010
0001
1000
0001
0010
0001
0100
0010
1000
,
0001
0010
0100
1000
0001
1000
0100
0010
0001
0010
0001
0100
0010
1000
0001
1000
,
0010
0100
0010
1000
0001
1000
0010
1000
0001
0100
0001
0010
0100
1000
0001
1000
,
0001
0010
0100
1000
0001
1000
0100
1000
0001
0010
0001
0100
0010
1000
0001
1000
,
0400
0040
0000
0000
0000
0000
0000
0000
0000
0000
0000
0000
0000
0000
0000
0000
0000
0000
0000
0000
0000
0000
0000
0300
,
0031
1000
0001
0100
0010
1000
0001
1000
0100
0010
0001
1000
0100
1000
0001
1000
,
0010
0100
0001
1000
0010
1000
0001
0010
0100
1000
0010
1000
0100
0010
0001
1000
,
0010
0100
0001
1000
0010
1000
0001
0010
0100
1000
0010
1000
0100
0010
0001
1000
,
0010
1000
0001
0010
0100
1000
0001
1000
0100
0010
0001
0010
0100
1000
0001
1000
,
0001
0100
0010
1000
0001
1000
0010
0100
0001
1000
0010
1000
0001
0010
0100
1000
,
0001
1000
0010
0100
0010
1000
0100
0010
0001
1000
0010
1000
0001
1000
0010
0100
,
0001
1000
0001
0010
0001
1000
0100
1000
0001
1000
0010
0100
0001
0010
0100
1000
,
0010
0100
0001
0100
0010
1000
0001
1000
0100
0010
0001
0010
0100
1000
0010
1000
,
0001
1000
0010
0100
0001
1000
0001
0010
0100
1000
0010
0100
0001
1000
0001
0010
,
0100
1000
0010
0100
0001
1000
0100
1000
0001
0100
0010
1000
0001
0100
0010
1000
,
0001
0010
0001
0010
0100
1000
0001
0100
0010
1000
0100
0010
0001
1000
0010
1000
,
0100
0010
0001
0010
0001
1000
0010
0100
0001
1000
0010
1000
0001
1000
0100
0010
,
0001
0010
0100
1000
0010
0100
0001
1000
0010
0100
0001
1000
0100
1000
0100
0010
,
0001
1000
0100
1000
0001
1000
0001
0100
0010
1000
0100
1000
0001
1000
0100
1000
,
0010
0100
0001
1000
0010
1000
0001
0100
0010
0100
0001
1000
0010
0100
0010
1000
,
0100
0010
0001
0010
0100
1000
0001
1000
0010
0100
0010
1000
0100
0010
0100
1000
,
0001
0100
0001
0100
0010
1000
0001
0100
0010
1000
0100
0010
0001
1000
0001
0100
,
0010
1000
0100
0010
0001
1000
0010
1000
0001
0010
0100
1000
0001
0010
0100
1000
,
0001
0100
0001
0100
0010
1000
0001
0010
0100
1000
0010
0100
0001
1000
0001
0010
,
0100
1000
0010
1000
0100
0010
0001
1000
0010
1000
0001
0100
0001
1000
0100
0010
,
0001
1000
0001
1000
0010
1000
0001
0010
0100
1000
0010
0100
0001
1000
0001
0010
,
0100
1000
0010
0100
0001
1000
0100
1000
0001
0100
0010
1000
0001
0100
0010
1000
,
0001
1000
0010
1000
0001
0100
0001
1000
0001
0100
0010
1000
0100
0010
0001
1000
,
0010
0100
0001
1000
0100
1000
0001
0100
0010
1000
0100
0010
0001
0010
0100
1000
,
0001
0100
0001
0100
0010
1000
0001
0010
0100
1000
0010
0100
0001
1000
0001
0010
,
0100
1000
0010
0100
0001
1000
0100
1000
0001
0100
0010
1000
0001
0100
0010
1000
,
0001
0010
0001
0010
0100
1000
0001
0100
0010
1000
0100
0010
0001
1000
0010
1000
,
0100
0010
0001
0010
0001
1000
0010
0100
0001
1000
0010
1000
0001
1000
0100
0010
,
0001
0010
0100
1000
0010
0100
0001
1000
0010
0100
0001
1000
0010
1000
0100
0010
,
0001
1000
0100
1000
0001
1000
0001
0100
0010
1000
0100
1000
0001
1000
0100
1000
,
0010
0100
0001
1000
0010
1000
0001
0100
0010
0100
0001
1000
0010
0100
0010
1000
,
0100
0010
0001
0010
0100
1000
0001
0100
0010
1000
0001
1000
0010
0100
0001
0010
,
0100
1000
0001
1000
0100
1000
0001
0100
0001
0100
0001
0010
0100
1000
0001
1000
,
0100
0010
0100
1000
0001
1000
0100
1000
0001
0010
0001
0100
0010
1000
0001
1000
,
0001
0100
0010
1000
0001
1000
0010
1000
0001
0100
0001
0010
0100
1000
0001
1000
,
0100
0010
0100
1000
0001
1000
0100
0010
0001
1000
0001
0010
0001
0100
0010
1000
,
0001
0010
0100
1000
0001
1000
0100
0010
0001
0010
0001
0100
0010
1000
0001
1000
,
0010
0100
0010
1000
0001
1000
0010
1000
0001
0100
0001
0010
0100
1000
0001
1000
,
0001
0010
0100
1000
0001
1000
0100
1000
0001
0010
0001
0100
0010
1000
0001
1000
,
0010
0100
0010
1000
0001
1000
0010
0100
0001
1000
0001
0100
0001
0010
0100
1000
,
0001
0100
0010
1000
0001
1000
0010
0100
0001
0100
0001
0010
0100
1000
0001
1000
,
0100
0010
0100
1000
0001
1000
0100
1000
0001
0010
0001
0100
0010
1000
0001
1000
,
0001
0100
0010
1000
0001
1000
0010
1000
0001
0100
0001
0010
0100
1000
0001
1000
,
0100
0010
0100
1000
0001
1000
0100
0010
0001
1000
0001
0010
0001
0100
0010
1000
,
0001
0010
0100
1000
0001
1000
0100
0010
0001
0010
0001
0100
0010
1000
0001
1000
,
0010
0100
0010
1000
0001
1000
0010
1000
0001
0100
0001
0010
0100
1000
0001
1000
,
0001
0010
0100
1000
0001
1000
0100
1000
0001
0010
0001
0100
0010
1000
0001
1000
,
0400
0040
0000
0000
0000
0000
0000
0000
0000
0000
0000
0000
0000
0000
0000
0000
0000
0000
0000
0000
0000
0000
0000
0000
,
0330
0000
0000
0000
;

//---------------dance-single - 17- (TYLR)----------------
#NOTES:
     dance-single:
     17- (TYLR):
     Hard:
     17:
     1.000,1.000,0.013,0.133,1.000,2993.000,4.000,41.000,64.000,0.000:
0000
0000
0000
0000
,
0000
0000
0000
0000
,
0000
0000
0000
0000
,
0000
0000
0000
0000
,
0000
0000
0000
0000
,
0000
0000
0000
0000
,
0000
0000
0000
0000
,
0000
0000
0000
0000
,
0000
0000
0000
0000
,
0000
0000
0000
0000
,
0000
0000
0000
0000
,
0000
0000
0000
0000
,
0000
0000
0000
0000
,
0000
0000
0000
0000
,
0001
1000
0001
1000
0010
1000
0001
1000
0100
0010
0001
0010
0100
1000
0001
1000
,
0001
0100
0010
1000
0100
1000
0010
0100
0001
0010
0001
0010
0100
1000
0100
1000
,
0010
0100
0001
0010
0100
1000
0001
0100
0010
1000
0100
0010
0001
0100
0010
1000
,
0100
0000
0010
0001
0010
0001
0100
0000
0001
0000
1000
0100
0010
0100
1000
0000
,
0010
0000
0100
0001
0100
0001
0010
0000
0100
0000
0010
0001
0100
0001
1000
0000
,
0100
0000
0010
0001
0010
0001
0100
0000
0001
0000
1000
0100
0010
0100
1000
0000
,
0010
0000
0100
0001
0100
0001
0010
0000
0100
0000
1000
0100
0010
0000
0001
0000
,
1001
0000
1000
0010
1000
0010
0100
0000
0001
0000
1000
0100
0010
0100
1000
0000
,
0010
0000
0100
0001
0100
0001
0010
0000
0100
0000
0010
0001
0100
0001
1000
0000
,
0100
0000
0010
0001
0010
0001
0100
0000
0001
0000
1000
0100
0010
0100
1000
0000
,
0010
0000
0100
0001
0100
0001
0010
0000
0100
0000
1000
0100
0010
0001
0010
0001
,
0100
0000
0010
1000
0010
1000
0100
0000
1000
0000
0001
0100
0010
0100
0001
0000
,
0010
0000
0100
1000
0100
1000
0010
0000
0100
0000
0010
1000
0100
1000
0001
0000
,
0100
0000
0010
1000
0010
1000
0100
0000
1000
0000
0001
0100
0010
0100
0001
0000
,
0010
0000
0100
1000
0100
1000
0010
0000
0100
0000
0001
0100
0010
0000
0100
0000
,
1001
0000
1000
0001
1000
0001
0010
0000
0100
0000
1000
0010
0100
0010
1000
0000
,
0100
0010
0001
0010
0001
0010
0100
1000
0001
1000
0001
1000
0010
1000
0001
1000
,
0001
0010
0100
1000
0001
1000
0100
0010
0001
1000
0100
1000
0001
1000
0100
0010
,
0001
0100
0010
1000
0100
0010
0100
1000
0010
0100
0001
0010
0100
0010
0001
0100
,
0010
1000
0000
0001
1000
0000
0001
0100
0010
1000
0100
0010
0000
0001
1000
0000
,
0010
0000
1000
0001
0010
0000
0001
1000
0010
0100
0001
0010
0000
0100
1000
0000
,
0010
1000
0000
0001
0010
0000
0100
0010
0001
1000
0010
0100
0000
0001
1000
0000
,
0001
0100
0000
0010
0100
0000
0001
1000
0100
0010
0001
1000
0100
1000
0010
0100
,
0001
1000
0010
1000
0001
0000
1000
0001
0100
0001
0010
0100
0000
1000
0001
0000
,
0100
0000
0001
1000
0100
0000
1000
0001
0100
0010
1000
0100
0000
0010
0001
0000
,
0100
0001
0000
1000
0100
0000
0010
0100
1000
0001
0100
0010
0000
1000
0001
0000
,
1000
0010
0000
0100
0010
0000
1000
0001
0010
0100
1000
0001
0010
0001
0100
0010
,
1000
0001
0100
0001
1000
0000
0001
0100
0010
1000
0100
0010
0000
0001
1000
0000
,
0010
0000
1000
0001
0010
0000
0001
1000
0010
0100
0001
0010
0000
0100
1000
0000
,
0010
1000
0000
0001
0010
0000
0100
0010
0001
1000
0010
0100
0000
0001
1000
0000
,
0001
0100
0000
0010
0100
0000
0001
1000
0100
0010
0001
1000
0100
1000
0010
0100
,
0001
1000
0010
1000
0001
0000
0100
0001
1000
0100
1000
0010
0000
0100
0001
0000
,
1000
0100
0010
0100
1000
0000
0001
0010
0100
1000
0010
0100
0000
0001
1000
0000
,
0001
0100
0010
1000
0001
1000
0010
0100
0001
0010
0100
1000
0010
1000
0100
0010
,
0001
0100
0010
1000
0100
1000
0010
0100
0001
0010
0100
1000
0010
0100
0001
1000
,
0100
0010
0000
0001
1000
0000
0001
0010
0100
1000
0010
0100
0000
0001
1000
0000
,
0100
0000
1000
0001
0100
0000
0001
1000
0100
0010
0001
0100
0000
0010
1000
0000
,
0100
1000
0000
0001
0100
0000
0010
0100
0001
1000
0100
0010
0000
0001
1000
0000
,
0001
0010
0000
0100
0010
0000
0001
1000
0010
0100
0001
1000
0010
1000
0100
0010
,
0001
1000
0100
1000
0001
0000
1000
0001
0010
0001
0100
0010
0000
1000
0001
0000
,
0010
0000
0001
1000
0010
0000
1000
0001
0010
0100
1000
0010
0000
0100
0001
0000
,
0010
0001
0000
1000
0010
0000
0100
0010
1000
0001
0010
0100
0000
1000
0001
0000
,
1000
0100
0000
0010
0100
0000
1000
0001
0100
0010
1000
0001
0100
0001
0010
0100
,
1000
0001
0010
0001
1000
0000
0001
0010
0100
1000
0010
0100
0000
0001
1000
0000
,
0100
0000
1000
0001
0100
0000
0001
1000
0100
0010
0001
0100
0000
0010
1000
0000
,
0100
1000
0000
0001
0100
0000
0010
0100
0001
1000
0100
0010
0000
0001
1000
0000
,
0001
0010
0000
0100
0010
0000
0001
1000
0010
0100
0001
1000
0010
1000
0100
0010
,
0001
1000
0100
1000
0001
0000
0010
0001
1000
0010
1000
0100
0000
0010
0001
0000
,
1000
0010
0100
0010
1000
0000
0001
0100
0010
1000
0100
0010
0000
0001
1000
0000
,
0001
0010
0100
1000
0001
1000
0100
0010
0001
0100
0010
1000
0100
1000
0010
0100
,
0001
0100
0010
1000
0100
0010
0100
1000
0010
0100
0001
0010
0100
1000
0100
0010
,
0001
1000
0000
0010
0100
0000
0001
1000
0100
0010
0001
0100
0000
0001
1000
0000
,
0010
0000
1000
0001
0010
0000
0001
1000
0010
0100
0001
0010
0000
0100
1000
0000
,
0010
1000
0000
0001
0010
0000
0100
0010
0001
1000
0010
0100
0000
0001
1000
0000
,
0001
0100
0000
0010
0100
0000
0001
1000
0100
0010
0001
1000
0100
1000
0010
0100
,
0001
1000
0010
1000
0001
0000
1000
0001
0100
0001
0010
0100
0000
1000
0001
0000
,
0100
0000
0001
1000
0100
0000
1000
0001
0100
0010
1000
0100
0000
0010
0001
0000
,
0100
0001
0000
1000
0100
0000
0010
0100
1000
0001
0100
0010
0000
1000
0001
0000
,
1000
0010
0000
0100
0010
0000
1000
0001
0010
0100
1000
0001
0010
0001
0100
0010
,
1000
0001
0100
0001
1000
0000
0001
0100
0010
1000
0100
0010
0000
0001
1000
0000
,
0010
0000
1000
0001
0010
0000
0001
1000
0010
0100
0001
0010
0000
0100
1000
0000
,
0010
1000
0000
0001
0010
0000
0100
0010
0001
1000
0010
0100
0000
0001
1000
0000
,
0001
0100
0000
0010
0100
0000
0001
1000
0100
0010
0001
1000
0100
1000
0010
0100
,
0001
1000
0010
1000
0001
0000
0100
0001
1000
0100
1000
0010
0000
0100
0001
0000
,
1000
0100
0010
0100
1000
0000
0001
0010
0100
1000
0010
0100
0000
0001
1000
0000
,
0001
0100
0010
1000
0001
1000
0010
0100
0001
0010
0100
1000
0010
1000
0100
0010
,
0001
0100
0010
1000
0100
0010
0001
0100
0010
0100
0001
0010
0100
1000
0010
0100
,
0001
0100
0010
1000
0001
0100
0001
1000
0010
0100
0001
0010
0100
1000
0001
1000
,
0100
0010
0001
1000
0100
0010
0001
1000
0100
0010
0001
0100
0010
1000
0001
1000
,
0010
0100
0001
1000
0010
0100
0001
1000
0010
0100
0001
0010
0001
1000
0100
1000
,
0010
0100
0001
1000
0010
0100
0001
1000
0010
1000
0100
0010
0001
0100
0010
1000
,
0001
0010
0100
1000
0001
0010
0100
1000
0001
0010
0001
0100
0010
1000
0001
1000
,
0010
0100
0001
1000
0010
0100
0001
1000
0010
0100
0001
0010
0001
0100
0010
1000
,
0100
1000
0001
0010
0100
1000
0001
0010
0100
1000
0001
0100
0010
1000
0001
1000
,
0010
1000
0001
0100
0010
1000
0001
0100
0010
1000
0100
0010
0001
0100
0010
1000
,
0001
1000
0100
1000
0001
1000
0100
1000
0001
0010
0001
0100
0010
1000
0001
1000
,
0010
0100
0001
1000
0010
0100
0001
1000
0010
0100
0001
0010
0100
1000
0001
1000
,
0100
0010
0001
1000
0100
0010
0001
1000
0100
0010
0001
0100
0001
1000
0010
1000
,
0100
0010
0001
1000
0100
0010
0001
1000
0100
1000
0010
0100
0001
0010
0100
1000
,
0001
0100
0010
1000
0001
0100
0010
1000
0001
0100
0001
0010
0100
1000
0001
1000
,
0100
0010
0001
1000
0100
0010
0001
1000
0100
0010
0001
0100
0001
0010
0100
1000
,
0010
1000
0001
0100
0010
1000
0001
0100
0010
1000
0001
0010
0100
1000
0001
0010
,
0100
0000
0000
1000
0100
1000
0100
0000
0000
0010
0001
0010
0001
0000
0000
1000
0010
1000
0010
0000
0000
1000
0001
1000
,
0002
0000
0000
0000
,
0000
0000
0000
0000
,
0000
0000
0000
0000
,
0000
0000
0000
0000
,
M003
0M00
M000
000M
0M00
00M0
0M00
000M
,
M000
00M0
M000
000M
00M0
0M00
00M0
000M
,
M000
00M0
0M00
000M
00M0
000M
0M00
00M0
,
M000
000M
00M0
0M00
000M
0M00
M000
00M0
,
0M00
000M
00M0
0M00
000M
M000
000M
0M00
,
00M0
000M
M000
00M0
0M00
M000
0M00
00M0
,
000M
00M0
0M00
000M
M000
0M00
00M0
000M
,
M000
00M0
M000
0M00
000M
0M00
000M
00M0
,
1000
0001
1000
0001
,
0100
0010
1000
0010
,
0100
0001
0010
0001
,
0100
0000
0000
0000
0010
0000
0000
0000
1000
0000
0000
0001
0000
0000
0010
0000
,
0100
1000
0100
0100
,
0010
0100
1000
0010
,
0100
0001
0100
0010
1000
0001
1000
0100
0010
0001
1000
0001
1000
0010
0100
0001
,
1000
0000
0000
0000
1000
0000
0000
0000
0010
0000
0000
0100
0000
0000
0001
0000
,
2001
0000
0000
0000
,
3004
0000
4003
0000
3004
0000
4003
0000
3002
0000
0000
0000
0000
0000
0000
0000
1000
0003
0002
0000
0000
0000
0000
0000
0103
0000
0000
0000
0000
0000
0000
0000
,
0040
4000
0000
0000
0030
3000
0001
0000
0000
0000
0000
0000
0001
0000
0000
0000
0000
0000
0010
0000
0000
0001
0000
0000
,
0000
0010
0100
1000
0002
2003
3020
0230
,
0301
0010
0001
0010
0100
1000
0001
0100
0010
1000
0100
0010
0001
1000
0001
0100
,
0010
1000
0100
0010
0001
1000
0010
1000
0001
0010
0100
1000
0001
0010
0100
1000
,
0001
0100
0001
0100
0010
1000
0001
0010
0100
1000
0010
0100
0001
1000
0001
0010
,
0100
1000
0010
1000
0100
0010
0001
1000
0010
1000
0001
0100
0001
1000
0100
0010
,
0001
1000
0001
1000
0010
1000
0001
0010
0100
1000
0010
0100
0001
1000
0001
0010
,
0100
1000
0010
0100
0001
1000
0100
1000
0001
0100
0010
1000
0001
0100
0010
1000
,
0001
1000
0010
1000
0001
0100
0001
1000
0001
0100
0010
1000
0100
0010
0001
1000
,
0001
0100
0010
1000
0100
1000
0010
0100
0001
0010
0100
1000
0010
1000
0100
0010
,
0001
1000
0001
1000
0100
1000
0001
0100
0010
1000
0100
0010
0001
1000
0001
0100
,
0010
1000
0100
0010
0001
1000
0010
1000
0001
0010
0100
1000
0001
0010
0100
1000
,
0001
0100
0001
0100
0010
1000
0001
0010
0100
1000
0010
0100
0001
1000
0100
1000
,
0010
0100
0001
0100
0001
1000
0100
0010
0001
1000
0100
1000
0001
1000
0010
0100
,
0001
0100
0010
1000
0100
0010
0001
1000
0100
0010
0001
1000
0010
1000
0010
0100
,
0001
1000
0010
1000
0001
1000
0001
0010
0100
1000
0010
1000
0001
1000
0010
1000
,
0100
0010
0001
1000
0100
1000
0001
0010
0100
0010
0001
1000
0100
0010
0100
1000
,
0001
0100
0010
1000
0100
1000
0010
0100
0001
0010
0100
1000
0010
0100
0001
1000
,
0200
0320
0032
2003
3200
0320
0230
2300
3020
0230
0302
0023
0230
2300
3020
2030
,
3002
0203
0320
2030
3200
0320
0032
0203
0320
0230
0302
0023
0230
2300
3020
2030
,
3001
0010
0001
0010
0100
1000
0001
0100
0010
1000
0100
0010
0001
1000
0001
0100
,
0010
1000
0100
1000
0010
0100
0001
1000
0100
1000
0001
0010
0001
1000
0010
0100
,
0001
1000
0001
1000
0100
1000
0001
0100
0010
1000
0100
0010
0001
1000
0001
0100
,
0010
1000
0100
0010
0001
1000
0010
1000
0001
0010
0100
1000
0001
0010
0100
1000
,
0001
1000
0100
1000
0001
0010
0001
1000
0001
0010
0100
1000
0010
0100
0001
1000
,
0001
0100
0010
1000
0100
1000
0010
0100
0001
0010
0100
1000
0010
1000
0100
0010
,
0001
1000
0001
1000
0010
1000
0001
0010
0100
1000
0010
0100
0001
1000
0001
0010
,
0100
1000
0010
0100
0001
1000
0100
1000
0001
0100
0010
1000
0001
0100
0010
1000
,
0001
0010
0001
0010
0100
1000
0001
0100
0010
1000
0100
0010
0001
1000
0010
1000
,
0100
0010
0001
0010
0001
1000
0010
0100
0001
1000
0010
1000
0001
1000
0100
0010
,
0001
0010
0100
1000
0010
0100
0001
1000
0010
0100
0001
1000
0100
1000
0100
0010
,
0001
1000
0100
1000
0001
1000
0001
0100
0010
1000
0100
1000
0001
1000
0100
1000
,
0010
0100
0001
1000
0010
1000
0001
0100
0010
0100
0001
1000
0010
0100
0010
1000
,
0001
0010
0100
1000
0001
1000
0100
0010
0001
0100
0010
1000
0100
1000
0010
0100
,
0001
1000
0100
1000
0001
1000
0010
0100
0001
0100
0001
0010
0100
1000
0001
1000
,
0100
0010
0100
1000
0001
1000
0100
1000
0001
0010
0001
0100
0010
1000
0001
1000
,
0001
0100
0010
1000
0001
1000
0010
1000
0001
0100
0001
0010
0100
1000
0001
1000
,
0100
0010
0100
1000
0001
1000
0100
0010
0001
1000
0001
0010
0001
0100
0010
1000
,
0001
0010
0100
1000
0001
1000
0100
0010
0001
0010
0001
0100
0010
1000
0001
1000
,
0010
0100
0010
1000
0001
1000
0010
1000
0001
0100
0001
0010
0100
1000
0001
1000
,
0001
0010
0100
1000
0001
1000
0100
1000
0001
0010
0001
0100
0010
1000
0001
1000
,
0010
0100
0010
1000
0001
1000
0010
0100
0001
1000
0001
0100
0001
0010
0100
1000
,
0001
0100
0010
1000
0001
1000
0010
0100
0001
0100
0001
0010
0100
1000
0001
1000
,
0100
0010
0100
1000
0001
1000
0100
1000
0001
0010
0001
0100
0010
1000
0001
1000
,
0001
0100
0010
1000
0001
1000
0010
1000
0001
0100
0001
0010
0100
1000
0001
1000
,
0100
0010
0100
1000
0001
1000
0100
0010
0001
1000
0001
0010
0001
0100
0010
1000
,
0001
0010
0100
1000
0001
1000
0100
0010
0001
0010
0001
0100
0010
1000
0001
1000
,
0010
0100
0010
1000
0001
1000
0010
1000
0001
0100
0001
0010
0100
1000
0001
1000
,
0001
0010
0100
1000
0001
1000
0100
1000
0001
0010
0001
0100
0010
1000
0001
1000
,
0001
0010
0100
1000
0010
0100
0001
0010
0100
1000
0010
0100
0010
1000
0100
0010
,
0001
0100
0010
1000
0001
1000
0010
0100
0001
0100
0001
0010
0100
1000
0001
1000
,
0010
0100
0010
1000
0001
1000
0010
1000
0001
0100
0001
0010
0100
1000
0001
1000
,
0001
0010
0100
1000
0001
1000
0100
1000
0001
0010
0001
0100
0010
1000
0001
1000
,
0100
0010
0100
1000
0001
1000
0100
0010
0001
1000
0001
0010
0001
0100
0010
1000
,
0001
0010
0100
1000
0001
1000
0100
0010
0001
0010
0001
0100
0010
1000
0001
1000
,
0100
0010
0100
1000
0001
1000
0100
1000
0001
0010
0001
0100
0010
1000
0001
1000
,
0001
0100
0010
1000
0001
1000
0010
1000
0001
0100
0001
0010
0100
1000
0001
1000
,
0010
0100
0010
1000
0001
1000
0010
0100
0001
1000
0001
0100
0001
0010
0100
1000
,
0001
0100
0010
1000
0001
1000
0010
0100
0001
0100
0001
0010
0100
1000
0001
1000
,
0100
0010
0100
1000
0001
1000
0100
1000
0001
0010
0001
0100
0010
1000
0001
1000
,
0001
0100
0010
1000
0001
1000
0010
1000
0001
0100
0001
0010
0100
1000
0001
1000
,
0100
0010
0100
1000
0001
1000
0100
0010
0001
1000
0001
0010
0001
0100
0010
1000
,
0001
0010
0100
1000
0001
1000
0100
0010
0001
0010
0001
0100
0010
1000
0001
1000
,
0010
0100
0010
1000
0001
1000
0010
1000
0001
0100
0001
0010
0100
1000
0001
1000
,
0001
0010
0100
1000
0001
1000
0100
1000
0001
0010
0001
0100
0010
1000
0001
1000
,
0100
0010
0001
0100
0010
1000
0001
0010
0100
1000
0010
0100
0010
1000
0100
0010
,
0001
1000
0001
0100
0010
1000
0001
1000
0100
0010
0001
1000
0100
1000
0001
1000
,
0010
0100
0001
1000
0010
1000
0001
0010
0100
1000
0010
1000
0100
0010
0001
1000
,
0010
0100
0001
1000
0010
1000
0001
0010
0100
1000
0010
1000
0100
0010
0001
1000
,
0010
1000
0001
0010
0100
1000
0001
1000
0100
0010
0001
0010
0100
1000
0001
1000
,
0001
0100
0010
1000
0001
1000
0010
0100
0001
1000
0010
1000
0001
0010
0100
1000
,
0001
1000
0010
0100
0010
1000
0100
0010
0001
1000
0010
1000
0001
1000
0010
0100
,
0001
1000
0001
0010
0001
1000
0100
1000
0001
1000
0010
0100
0001
0010
0100
1000
,
0010
0100
0001
0100
0010
1000
0001
1000
0100
0010
0001
0010
0100
1000
0010
1000
,
0001
1000
0010
0100
0001
1000
0001
0010
0100
1000
0010
0100
0001
1000
0001
0010
,
0100
1000
0010
0100
0001
1000
0100
1000
0001
0100
0010
1000
0001
0100
0010
1000
,
0001
0010
0001
0010
0100
1000
0001
0100
0010
1000
0100
0010
0001
1000
0010
1000
,
0100
0010
0001
0010
0001
1000
0010
0100
0001
1000
0010
1000
0001
1000
0100
0010
,
0001
0010
0100
1000
0010
0100
0001
1000
0010
0100
0001
1000
0100
1000
0100
0010
,
0001
1000
0100
1000
0001
1000
0001
0100
0010
1000
0100
1000
0001
1000
0100
1000
,
0010
0100
0001
1000
0010
1000
0001
0100
0010
0100
0001
1000
0010
0100
0010
1000
,
0100
0010
0001
0010
0100
1000
0001
1000
0010
0100
0010
1000
0100
0010
0100
1000
,
0001
0100
0001
0100
0010
1000
0001
0100
0010
1000
0100
0010
0001
1000
0001
0100
,
0010
1000
0100
0010
0001
1000
0010
1000
0001
0010
0100
1000
0001
0010
0100
1000
,
0001
0100
0001
0100
0010
1000
0001
0010
0100
1000
0010
0100
0001
1000
0001
0010
,
0100
1000
0010
1000
0100
0010
0001
1000
0010
1000
0001
0100
0001
1000
0100
0010
,
0001
1000
0001
1000
0010
1000
0001
0010
0100
1000
0010
0100
0001
1000
0001
0010
,
0100
1000
0010
0100
0001
1000
0100
1000
0001
0100
0010
1000
0001
0100
0010
1000
,
0001
1000
0010
1000
0001
0100
0001
1000
0001
0100
0010
1000
0100
0010
0001
1000
,
0010
0100
0001
1000
0100
1000
0001
0100
0010
1000
0100
0010
0001
0010
0100
1000
,
0001
0100
0001
0100
0010
1000
0001
0010
0100
1000
0010
0100
0001
1000
0001
0010
,
0100
1000
0010
0100
0001
1000
0100
1000
0001
0100
0010
1000
0001
0100
0010
1000
,
0001
0010
0001
0010
0100
1000
0001
0100
0010
1000
0100
0010
0001
1000
0010
1000
,
0100
0010
0001
0010
0001
1000
0010
0100
0001
1000
0010
1000
0001
1000
0100
0010
,
0001
0010
0100
1000
0010
0100
0001
1000
0010
0100
0001
1000
0010
1000
0100
0010
,
0001
1000
0100
1000
0001
1000
0001
0100
0010
1000
0100
1000
0001
1000
0100
1000
,
0010
0100
0001
1000
0010
1000
0001
0100
0010
0100
0001
1000
0010
0100
0010
1000
,
0100
0010
0001
0010
0100
1000
0001
0100
0010
1000
0001
1000
0010
0100
0001
0010
,
0100
1000
0001
1000
0100
1000
0001
0100
0001
0100
0001
0010
0100
1000
0001
1000
,
0100
0010
0100
1000
0001
1000
0100
1000
0001
0010
0001
0100
0010
1000
0001
1000
,
0001
0100
0010
1000
0001
1000
0010
1000
0001
0100
0001
0010
0100
1000
0001
1000
,
0100
0010
0100
1000
0001
1000
0100
0010
0001
1000
0001
0010
0001
0100
0010
1000
,
0001
0010
0100
1000
0001
1000
0100
0010
0001
0010
0001
0100
0010
1000
0001
1000
,
0010
0100
0010
1000
0001
1000
0010
1000
0001
0100
0001
0010
0100
1000
0001
1000
,
0001
0010
0100
1000
0001
1000
0100
1000
0001
0010
0001
0100
0010
1000
0001
1000
,
0010
0100
0010
1000
0001
1000
0010
0100
0001
1000
0001
0100
0001
0010
0100
1000
,
0001
0100
0010
1000
0001
1000
0010
0100
0001
0100
0001
0010
0100
1000
0001
1000
,
0100
0010
0100
1000
0001
1000
0100
1000
0001
0010
0001
0100
0010
1000
0001
1000
,
0001
0100
0010
1000
0001
1000
0010
1000
0001
0100
0001
0010
0100
1000
0001
1000
,
0100
0010
0100
1000
0001
1000
0100
0010
0001
1000
0001
0010
0001
0100
0010
1000
,
0001
0010
0100
1000
0001
1000
0100
0010
0001
0010
0001
0100
0010
1000
0001
1000
,
0010
0100
0010
1000
0001
1000
0010
1000
0001
0100
0001
0010
0100
1000
0001
1000
,
0001
0010
0100
1000
0001
1000
0100
1000
0001
0010
0001
0100
0010
1000
0001
1000
,
0100
0010
0001
0100
0010
0100
0001
0010
0100
1000
0010
0100
0001
0100
0010
1000
,
0200
0000
0000
0000
,
0300
0000
0000
0000
;

//---------------dance-single - 17+ (TYLR)----------------
#NOTES:
     dance-single:
     17+ (TYLR):
     Challenge:
     17:
     1.000,1.000,0.006,0.133,1.000,3453.000,2.000,41.000,64.000,0.000:
0000
0000
0000
0000
,
0001
1000
0100
0010
0001
0010
0100
1000
0001
0010
0001
1000
0100
1000
0001
1000
,
0001
0100
0010
1000
0001
1000
0010
0100
0001
1000
0010
1000
0001
0100
0010
0100
,
0001
1000
0100
0010
0100
1000
0001
0010
0001
1000
0100
0010
0001
1000
0001
0010
,
0001
1000
0010
0100
0001
0100
0010
1000
0001
0100
0001
1000
0010
1000
0001
0100
,
0001
1000
0100
0010
0001
0010
0100
1000
0001
0100
0001
1000
0010
1000
0001
0100
,
0010
1000
0001
1000
0100
0010
0100
1000
0001
0010
0001
1000
0001
0100
0010
1000
,
0001
0010
0100
1000
0001
1000
0100
0010
0001
1000
0010
0100
0001
1000
0001
0100
,
0010
1000
0100
0010
0001
0010
0100
1000
0010
0100
0010
1000
0001
1000
0001
1000
,
0001
0010
0100
0010
0001
1000
0001
0100
0001
1000
0010
1000
0001
0100
0010
1000
,
0100
0010
0001
0010
0100
1000
0001
0100
0001
1000
0010
0100
0001
0100
0010
1000
,
0100
0010
0001
1000
0001
0010
0100
1000
0001
0100
0001
1000
0010
1000
0001
0010
,
0001
1000
0010
0100
0001
0100
0010
1000
0001
0010
0100
1000
0001
0100
0001
1000
,
0100
0010
0100
1000
0001
0100
0001
1000
0010
0100
0010
1000
0100
0010
0100
1000
,
0001
0100
0001
1000
0010
1000
0001
1000
0100
0010
0001
0010
0100
1000
0001
1000
,
0001
0100
0010
1000
0100
1000
0010
0100
0001
0010
0001
0010
0100
1000
0100
1000
,
0001
0000
0000
0000
0000
0000
0000
0000
0000
0000
1000
0000
0000
0000
0000
0000
0000
0000
0000
0001
0000
0000
0000
0000
0000
0000
0000
0000
0000
0100
0000
0000
0000
0000
0000
0000
0000
0000
0010
0000
0000
0000
0000
0000
0000
0000
0000
0000
1000
0000
0000
0000
0000
0000
0000
0000
0000
0000
0001
0000
0000
0000
0000
0000
0000
0000
0000
1000
0000
0000
0000
0000
0000
0000
0000
0000
0000
0100
0000
0000
0000
0000
0000
0000
0000
0000
0010
0000
0000
0000
0000
0000
0000
0000
0000
0000
0001
0000
0000
0000
0000
0000
0000
0000
0000
0000
0100
0000
0000
0000
0000
0000
0000
0000
0000
0010
0000
0000
0000
0000
0000
0000
0000
0000
0000
1000
0000
0000
0000
0000
0000
0000
0000
0000
0001
0000
0000
0000
0000
0000
0000
0000
0000
0000
1000
0000
0000
0000
0000
0000
0000
0000
0000
0000
0100
0000
0000
0000
0000
0000
0000
0000
0000
0010
0000
0000
0000
0000
0000
0000
0000
0000
0000
0001
0000
0000
0000
0000
0000
0000
0000
0000
1000
0000
0000
0000
0000
0000
0000
0000
0000
0000
,
0001
0100
0010
1000
0010
1000
0100
0010
0001
1000
0001
0100
0010
0100
0001
1000
,
0100
0010
0001
1000
0001
1000
0010
0100
0001
1000
0100
0010
0001
0010
0100
1000
,
0001
0100
0010
1000
0010
1000
0100
0010
0001
1000
0001
0100
0010
0100
0001
1000
,
0100
0010
0001
1000
0001
1000
0010
0100
0001
1000
0001
0100
0010
1000
0100
0010
,
0001
1000
0010
0100
0010
0100
0001
1000
0100
0010
0001
1000
0010
1000
0001
0010
,
0100
1000
0001
0100
0001
0100
0010
1000
0001
1000
0010
0100
0001
0010
0100
1000
,
0001
0100
0010
1000
0010
1000
0100
0010
0001
1000
0001
0100
0010
0100
0001
1000
,
0100
0010
0001
1000
0001
1000
0010
0100
0001
1000
0100
0010
0001
1000
0001
1000
,
0010
0100
0001
1000
0001
1000
0100
0010
0001
1000
0010
0100
0001
0100
0010
1000
,
0001
0010
0100
1000
0100
1000
0001
0100
0010
1000
0001
0010
0100
0010
0001
1000
,
0001
0100
0010
1000
0010
1000
0100
0010
0001
1000
0001
0100
0010
0100
0001
1000
,
0100
0010
0001
1000
0001
1000
0010
0100
0001
1000
0001
0100
0010
1000
0001
0010
,
0100
1000
0001
0100
0001
0100
0010
1000
0001
1000
0100
0010
0100
1000
0001
0100
,
0010
1000
0001
0010
0001
0010
0100
1000
0001
1000
0001
1000
0010
1000
0001
1000
,
0001
0010
0100
1000
0001
1000
0100
0010
0001
1000
0100
1000
0001
1000
0100
0010
,
0001
0000
0000
0000
0000
0000
0000
0000
0000
0000
1000
0000
0000
0000
0000
0000
0000
0000
0000
0001
0000
0000
0000
0000
0000
0000
0000
0000
0000
0100
0000
0000
0000
0000
0000
0000
0000
0000
0010
0000
0000
0000
0000
0000
0000
0000
0000
0000
1000
0000
0000
0000
0000
0000
0000
0000
0000
0000
0001
0000
0000
0000
0000
0000
0000
0000
0000
1000
0000
0000
0000
0000
0000
0000
0000
0000
0000
0100
0000
0000
0000
0000
0000
0000
0000
0000
0010
0000
0000
0000
0000
0000
0000
0000
0000
0000
0001
0000
0000
0000
0000
0000
0000
0000
0000
0000
0100
0000
0000
0000
0000
0000
0000
0000
0000
0010
0000
0000
0000
0000
0000
0000
0000
0000
0000
1000
0000
0000
0000
0000
0000
0000
0000
0000
0001
0000
0000
0000
0000
0000
0000
0000
0000
0000
1000
0000
0000
0000
0000
0000
0000
0000
0000
0000
0100
0000
0000
0000
0000
0000
0000
0000
0000
0010
0000
0000
0000
0000
0000
0000
0000
0000
0000
0001
0000
0000
0000
0000
0000
0000
0000
0000
1000
0000
0000
0000
0000
0000
0000
0000
0000
0000
,
0001
0100
0001
1000
0100
1000
0001
0100
0010
1000
0100
0010
0100
1000
0001
0100
,
0010
1000
0001
0010
0001
1000
0010
0100
0010
1000
0100
0010
0001
1000
0010
0100
,
0001
0010
0001
1000
0010
1000
0001
0010
0100
1000
0010
0100
0010
1000
0001
0010
,
0100
1000
0001
0100
0001
1000
0100
0010
0001
1000
0001
0100
0010
1000
0100
0010
,
0001
0100
0001
1000
0100
1000
0001
0100
0010
1000
0100
0010
0100
1000
0001
0100
,
0010
1000
0001
0010
0001
1000
0010
0100
0010
1000
0100
0010
0001
1000
0010
0100
,
0001
0010
0001
1000
0010
1000
0001
0010
0100
1000
0010
0100
0010
1000
0001
0010
,
0100
1000
0001
0100
0001
1000
0100
0010
0001
1000
0001
0100
0010
1000
0100
0010
,
0001
0100
0001
1000
0100
1000
0001
0100
0010
1000
0100
0010
0100
1000
0001
0100
,
0010
1000
0001
0010
0001
1000
0010
0100
0010
1000
0100
0010
0001
1000
0010
0100
,
0001
0010
0001
1000
0010
1000
0001
0010
0100
1000
0010
0100
0010
1000
0001
0010
,
0100
1000
0001
0100
0001
1000
0100
0010
0001
1000
0001
0100
0010
1000
0100
0010
,
0001
0100
0001
1000
0100
1000
0001
0100
0010
1000
0100
0010
0100
1000
0001
0100
,
0010
1000
0001
0010
0001
1000
0010
0100
0010
1000
0100
0010
0001
1000
0010
0100
,
0001
0100
0010
1000
0001
1000
0010
0100
0001
0010
0100
1000
0010
1000
0100
0010
,
0001
0000
0000
0000
0000
0000
0000
0000
0000
0000
1000
0000
0000
0000
0000
0000
0000
0000
0000
0001
0000
0000
0000
0000
0000
0000
0000
0000
0000
0100
0000
0000
0000
0000
0000
0000
0000
0000
0010
0000
0000
0000
0000
0000
0000
0000
0000
0000
1000
0000
0000
0000
0000
0000
0000
0000
0000
0000
0001
0000
0000
0000
0000
0000
0000
0000
0000
1000
0000
0000
0000
0000
0000
0000
0000
0000
0000
0100
0000
0000
0000
0000
0000
0000
0000
0000
0010
0000
0000
0000
0000
0000
0000
0000
0000
0000
0001
0000
0000
0000
0000
0000
0000
0000
0000
0000
0100
0000
0000
0000
0000
0000
0000
0000
0000
0010
0000
0000
0000
0000
0000
0000
0000
0000
0000
1000
0000
0000
0000
0000
0000
0000
0000
0000
0001
0000
0000
0000
0000
0000
0000
0000
0000
0000
1000
0000
0000
0000
0000
0000
0000
0000
0000
0000
0100
0000
0000
0000
0000
0000
0000
0000
0000
0010
0000
0000
0000
0000
0000
0000
0000
0000
0000
0001
0000
0000
0000
0000
0000
0000
0000
0000
1000
0000
0000
0000
0000
0000
0000
0000
0000
0000
,
0001
0010
0001
1000
0010
1000
0001
0010
0100
1000
0010
0100
0010
1000
0001
0010
,
0100
1000
0001
0100
0001
1000
0100
0010
0100
1000
0010
0100
0001
1000
0100
0010
,
0001
0100
0001
1000
0100
1000
0001
0100
0010
1000
0100
0010
0100
1000
0001
0100
,
0010
1000
0001
0010
0001
1000
0010
0100
0001
1000
0001
0010
0100
1000
0010
0100
,
0001
0010
0001
1000
0010
1000
0001
0010
0100
1000
0010
0100
0010
1000
0001
0010
,
0100
1000
0001
0100
0001
1000
0100
0010
0100
1000
0010
0100
0001
1000
0100
0010
,
0001
0100
0001
1000
0100
1000
0001
0100
0010
1000
0100
0010
0100
1000
0001
0100
,
0010
1000
0001
0010
0001
1000
0010
0100
0001
1000
0001
0010
0100
1000
0010
0100
,
0001
0010
0001
1000
0010
1000
0001
0010
0100
1000
0010
0100
0010
1000
0001
0010
,
0100
1000
0001
0100
0001
1000
0100
0010
0100
1000
0010
0100
0001
1000
0100
0010
,
0001
0100
0001
1000
0100
1000
0001
0100
0010
1000
0100
0010
0100
1000
0001
0100
,
0010
1000
0001
0010
0001
1000
0010
0100
0001
1000
0001
0010
0100
1000
0010
0100
,
0001
0010
0001
1000
0010
1000
0001
0010
0100
1000
0010
0100
0010
1000
0001
0010
,
0100
1000
0001
0100
0001
1000
0100
0010
0100
1000
0010
0100
0001
1000
0100
0010
,
0001
0010
0100
1000
0001
1000
0100
0010
0001
0100
0010
1000
0100
1000
0010
0100
,
0001
0000
0000
0000
0000
0000
0000
0000
0000
0000
1000
0000
0000
0000
0000
0000
0000
0000
0000
0001
0000
0000
0000
0000
0000
0000
0000
0000
0000
0100
0000
0000
0000
0000
0000
0000
0000
0000
0010
0000
0000
0000
0000
0000
0000
0000
0000
0000
1000
0000
0000
0000
0000
0000
0000
0000
0000
0000
0001
0000
0000
0000
0000
0000
0000
0000
0000
1000
0000
0000
0000
0000
0000
0000
0000
0000
0000
0100
0000
0000
0000
0000
0000
0000
0000
0000
0010
0000
0000
0000
0000
0000
0000
0000
0000
0000
0001
0000
0000
0000
0000
0000
0000
0000
0000
0000
0100
0000
0000
0000
0000
0000
0000
0000
0000
0010
0000
0000
0000
0000
0000
0000
0000
0000
0000
1000
0000
0000
0000
0000
0000
0000
0000
0000
0001
0000
0000
0000
0000
0000
0000
0000
0000
0000
1000
0000
0000
0000
0000
0000
0000
0000
0000
0000
0100
0000
0000
0000
0000
0000
0000
0000
0000
0010
0000
0000
0000
0000
0000
0000
0000
0000
0000
0001
0000
0000
0000
0000
0000
0000
0000
0000
1000
0000
0000
0000
0000
0000
0000
0000
0000
0000
,
0001
0100
0001
1000
0100
1000
0001
0100
0010
1000
0100
0010
0100
1000
0001
0100
,
0010
1000
0001
0010
0001
1000
0010
0100
0010
1000
0100
0010
0001
1000
0010
0100
,
0001
0010
0001
1000
0010
1000
0001
0010
0100
1000
0010
0100
0010
1000
0001
0010
,
0100
1000
0001
0100
0001
1000
0100
0010
0001
1000
0001
0100
0010
1000
0100
0010
,
0001
0100
0001
1000
0100
1000
0001
0100
0010
1000
0100
0010
0100
1000
0001
0100
,
0010
1000
0001
0010
0001
1000
0010
0100
0010
1000
0100
0010
0001
1000
0010
0100
,
0001
0010
0001
1000
0010
1000
0001
0010
0100
1000
0010
0100
0010
1000
0001
0010
,
0100
1000
0001
0100
0001
1000
0100
0010
0001
1000
0001
0100
0010
1000
0100
0010
,
0001
0100
0001
1000
0100
1000
0001
0100
0010
1000
0100
0010
0100
1000
0001
0100
,
0010
1000
0001
0010
0001
1000
0010
0100
0010
1000
0100
0010
0001
1000
0010
0100
,
0001
0010
0001
1000
0010
1000
0001
0010
0100
1000
0010
0100
0010
1000
0001
0010
,
0100
1000
0001
0100
0001
1000
0100
0010
0001
1000
0001
0100
0010
1000
0100
0010
,
0001
0100
0001
1000
0100
1000
0001
0100
0010
1000
0100
0010
0100
1000
0001
0100
,
0010
1000
0001
0010
0001
1000
0010
0100
0010
1000
0100
0010
0001
1000
0010
0100
,
0001
0100
0010
1000
0001
1000
0010
0100
0001
0010
0100
1000
0010
1000
0100
0010
,
0001
0000
0000
0000
0000
0000
0000
0000
0000
0000
1000
0000
0000
0000
0000
0000
0000
0000
0000
0001
0000
0000
0000
0000
0000
0000
0000
0000
0000
0100
0000
0000
0000
0000
0000
0000
0000
0000
0010
0000
0000
0000
0000
0000
0000
0000
0000
0000
1000
0000
0000
0000
0000
0000
0000
0000
0000
0000
0001
0000
0000
0000
0000
0000
0000
0000
0000
1000
0000
0000
0000
0000
0000
0000
0000
0000
0000
0100
0000
0000
0000
0000
0000
0000
0000
0000
0010
0000
0000
0000
0000
0000
0000
0000
0000
0000
0001
0000
0000
0000
0000
0000
0000
0000
0000
0000
0100
0000
0000
0000
0000
0000
0000
0000
0000
0010
0000
0000
0000
0000
0000
0000
0000
0000
0000
1000
0000
0000
0000
0000
0000
0000
0000
0000
0001
0000
0000
0000
0000
0000
0000
0000
0000
0000
1000
0000
0000
0000
0000
0000
0000
0000
0000
0000
0100
0000
0000
0000
0000
0000
0000
0000
0000
0010
0000
0000
0000
0000
0000
0000
0000
0000
0000
0001
0000
0000
0000
0000
0000
0000
0000
0000
1000
0000
0000
0000
0000
0000
0000
0000
0000
0000
,
0001
0100
0010
1000
0001
0100
0001
1000
0010
0100
0001
0010
0100
1000
0001
1000
,
0100
0010
0001
1000
0100
0010
0001
1000
0100
0010
0001
0100
0010
1000
0001
1000
,
0010
0100
0001
1000
0010
0100
0001
1000
0010
0100
0001
0010
0001
1000
0100
1000
,
0010
0100
0001
1000
0010
0100
0001
1000
0010
1000
0100
0010
0001
0100
0010
1000
,
0001
0010
0100
1000
0001
0010
0100
1000
0001
0010
0001
0100
0010
1000
0001
1000
,
0010
0100
0001
1000
0010
0100
0001
1000
0010
0100
0001
0010
0001
0100
0010
1000
,
0100
1000
0001
0010
0100
1000
0001
0010
0100
1000
0001
0100
0010
1000
0001
1000
,
0010
1000
0001
0100
0010
1000
0001
0100
0010
1000
0100
0010
0001
0100
0010
1000
,
0001
1000
0100
1000
0001
1000
0100
1000
0001
0010
0001
0100
0010
1000
0001
1000
,
0010
0100
0001
1000
0010
0100
0001
1000
0010
0100
0001
0010
0100
1000
0001
1000
,
0100
0010
0001
1000
0100
0010
0001
1000
0100
0010
0001
0100
0001
1000
0010
1000
,
0100
0010
0001
1000
0100
0010
0001
1000
0100
1000
0010
0100
0001
0010
0100
1000
,
0001
0100
0010
1000
0001
0100
0010
1000
0001
0100
0001
0010
0100
1000
0001
1000
,
0100
0010
0001
1000
0100
0010
0001
1000
0100
0010
0001
0100
0001
0010
0100
1000
,
0010
1000
0001
0100
0010
1000
0001
0100
0010
1000
0001
0010
0100
1000
0001
0010
,
0100
0000
0000
0000
0000
0000
1000
0000
0100
0000
1000
0000
0100
0000
0000
0000
0000
0000
0010
0000
0001
0000
0010
0000
0001
0000
0000
1000
0000
0000
0000
0000
0000
0010
0000
0000
0000
0000
0000
0100
0000
0000
0001
0000
0000
0000
0000
0000
,
2000
0000
0000
0000
,
0000
0000
0000
0000
,
0000
0000
0000
0000
,
0000
0000
0000
0000
,
30M0
0M00
M000
000M
0M00
00M0
0M00
000M
,
M000
00M0
M000
000M
00M0
0M00
00M0
000M
,
M000
00M0
0M00
000M
00M0
000M
0M00
00M0
,
M000
000M
00M0
0M00
000M
0M00
M000
00M0
,
0M00
000M
00M0
0M00
000M
M000
000M
0M00
,
00M0
000M
M000
00M0
0M00
M000
0M00
00M0
,
000M
00M0
0M00
000M
M000
0M00
00M0
000M
,
M000
00M0
M000
0M00
000M
0M00
000M
00M0
,
1000
0001
1000
0001
,
0100
0010
1000
0010
,
0100
0001
0010
0001
,
0100
0000
0000
0000
0010
0000
0000
0000
1000
0000
0000
0001
0000
0000
0010
0000
,
0100
1000
0100
0100
,
0010
0100
1000
0010
,
0100
0001
0100
0010
1000
0001
1000
0100
0010
0001
1000
0001
1000
0010
0100
0001
,
1000
0000
0000
0000
1000
0000
0000
0000
0010
0000
0000
0100
0000
0000
0001
0000
,
2001
0000
0000
0000
,
3004
0000
4003
0000
3004
0000
4003
0000
3002
0000
0000
0000
0000
0000
0000
0000
1000
0003
0002
0000
0000
0000
0000
0000
0103
0000
0000
0000
0000
0000
0000
0000
,
0040
4000
0000
0000
0030
3000
0001
0000
0000
0000
0000
0000
0001
0000
0000
0000
0000
0000
0010
0000
0000
0001
0000
0000
,
0000
0010
0100
1000
0002
2003
3020
0230
,
0301
0010
0001
0010
0100
1000
0001
0100
0010
1000
0100
0010
0001
1000
0001
0100
,
0010
1000
0100
0010
0001
1000
0010
1000
0001
0010
0100
1000
0001
0010
0100
1000
,
0001
0100
0001
0100
0010
1000
0001
0010
0100
1000
0010
0100
0001
1000
0001
0010
,
0100
1000
0010
1000
0100
0010
0001
1000
0010
1000
0001
0100
0001
1000
0100
0010
,
0001
1000
0001
1000
0010
1000
0001
0010
0100
1000
0010
0100
0001
1000
0001
0010
,
0100
1000
0010
0100
0001
1000
0100
1000
0001
0100
0010
1000
0001
0100
0010
1000
,
0001
1000
0010
1000
0001
0100
0001
1000
0001
0100
0010
1000
0100
0010
0001
1000
,
0001
0000
0000
0000
0000
0000
0000
0000
0000
0000
1000
0000
0000
0000
0000
0000
0000
0000
0000
0001
0000
0000
0000
0000
0000
0000
0000
0000
0000
0010
0000
0000
0000
0000
0000
0000
0000
0000
0100
0000
0000
0000
0000
0000
0000
0000
0000
0000
1000
0000
0000
0000
0000
0000
0000
0000
0000
0000
0001
0000
0000
0000
0000
0000
0000
0000
0000
1000
0000
0000
0000
0000
0000
0000
0000
0000
0000
0010
0000
0000
0000
0000
0000
0000
0000
0000
0100
0000
0000
0000
0000
0000
0000
0000
0000
0000
0001
0000
0000
0000
0000
0000
0000
0000
0000
0000
0010
0000
0000
0000
0000
0000
0000
0000
0000
0100
0000
0000
0000
0000
0000
0000
0000
0000
0000
1000
0000
0000
0000
0000
0000
0000
0000
0000
0001
0000
0000
0000
0000
0000
0000
0000
0000
0000
1000
0000
0000
0000
0000
0000
0000
0000
0000
0000
0010
0000
0000
0000
0000
0000
0000
0000
0000
0100
0000
0000
0000
0000
0000
0000
0000
0000
0000
0001
0000
0000
0000
0000
0000
0000
0000
0000
1000
0000
0000
0000
0000
0000
0000
0000
0000
0000
,
0001
1000
0001
1000
0100
1000
0001
0100
0010
1000
0100
0010
0001
1000
0001
0100
,
0010
1000
0100
0010
0001
1000
0010
1000
0001
0010
0100
1000
0001
0010
0100
1000
,
0001
0100
0001
0100
0010
1000
0001
0010
0100
1000
0010
0100
0001
1000
0100
1000
,
0010
0100
0001
0100
0001
1000
0100
0010
0001
1000
0100
1000
0001
1000
0010
0100
,
0001
0100
0010
1000
0100
0010
0001
1000
0100
0010
0001
1000
0010
1000
0010
0100
,
0001
1000
0010
1000
0001
1000
0001
0010
0100
1000
0010
1000
0001
1000
0010
1000
,
0100
0010
0001
1000
0100
1000
0001
0010
0100
0010
0001
1000
0100
0010
0100
1000
,
0001
0000
0000
0000
0000
0000
0000
0000
0000
0000
1000
0000
0000
0000
0000
0000
0000
0000
0000
0001
0000
0000
0000
0000
0000
0000
0000
0000
0000
0100
0000
0000
0000
0000
0000
0000
0000
0000
0010
0000
0000
0000
0000
0000
0000
0000
0000
0000
1000
0000
0000
0000
0000
0000
0000
0000
0000
0000
0001
0000
0000
0000
0000
0000
0000
0000
0000
1000
0000
0000
0000
0000
0000
0000
0000
0000
0000
0100
0000
0000
0000
0000
0000
0000
0000
0000
0010
0000
0000
0000
0000
0000
0000
0000
0000
0000
0001
0000
0000
0000
0000
0000
0000
0000
0000
0000
0100
0000
0000
0000
0000
0000
0000
0000
0000
0010
0000
0000
0000
0000
0000
0000
0000
0000
0000
1000
0000
0000
0000
0000
0000
0000
0000
0000
0001
0000
0000
0000
0000
0000
0000
0000
0000
0000
1000
0000
0000
0000
0000
0000
0000
0000
0000
0000
0100
0000
0000
0000
0000
0000
0000
0000
0000
0010
0000
0000
0000
0000
0000
0000
0000
0000
0000
0001
0000
0000
0000
0000
0000
0000
0000
0000
1000
0000
0000
0000
0000
0000
0000
0000
0000
0000
,
0200
0320
0032
2003
3200
0320
0230
2300
3020
0230
0302
0023
0230
2300
3020
2030
,
3002
0203
0320
2030
3200
0320
0032
0203
0320
0230
0302
0023
0230
2300
3020
2030
,
3001
0010
0001
0010
0100
1000
0001
0100
0010
1000
0100
0010
0001
1000
0001
0100
,
0010
1000
0100
1000
0010
0100
0001
1000
0100
1000
0001
0010
0001
1000
0010
0100
,
0001
1000
0001
1000
0100
1000
0001
0100
0010
1000
0100
0010
0001
1000
0001
0100
,
0010
1000
0100
0010
0001
1000
0010
1000
0001
0010
0100
1000
0001
0010
0100
1000
,
0001
1000
0100
1000
0001
0010
0001
1000
0001
0010
0100
1000
0010
0100
0001
1000
,
0001
0000
0000
0000
0000
0000
0000
0000
0000
0000
1000
0000
0000
0000
0000
0000
0000
0000
0000
0001
0000
0000
0000
0000
0000
0000
0000
0000
0000
0010
0000
0000
0000
0000
0000
0000
0000
0000
0100
0000
0000
0000
0000
0000
0000
0000
0000
0000
1000
0000
0000
0000
0000
0000
0000
0000
0000
0000
0001
0000
0000
0000
0000
0000
0000
0000
0000
1000
0000
0000
0000
0000
0000
0000
0000
0000
0000
0010
0000
0000
0000
0000
0000
0000
0000
0000
0100
0000
0000
0000
0000
0000
0000
0000
0000
0000
0001
0000
0000
0000
0000
0000
0000
0000
0000
0000
0010
0000
0000
0000
0000
0000
0000
0000
0000
0100
0000
0000
0000
0000
0000
0000
0000
0000
0000
1000
0000
0000
0000
0000
0000
0000
0000
0000
0001
0000
0000
0000
0000
0000
0000
0000
0000
0000
1000
0000
0000
0000
0000
0000
0000
0000
0000
0000
0010
0000
0000
0000
0000
0000
0000
0000
0000
0100
0000
0000
0000
0000
0000
0000
0000
0000
0000
0001
0000
0000
0000
0000
0000
0000
0000
0000
1000
0000
0000
0000
0000
0000
0000
0000
0000
0000
,
0001
0010
0001
0010
0100
1000
0001
0100
0010
1000
0100
0010
0001
1000
0001
0100
,
0010
1000
0100
0010
0001
1000
0010
1000
0001
0010
0100
1000
0001
0010
0100
1000
,
0001
0010
0001
0010
0100
1000
0001
0100
0010
1000
0100
0010
0001
1000
0010
1000
,
0100
0010
0001
0010
0001
1000
0010
0100
0001
1000
0010
1000
0001
1000
0100
0010
,
0001
0010
0100
1000
0010
0100
0001
1000
0010
0100
0001
1000
0100
1000
0100
0010
,
0001
1000
0100
1000
0001
1000
0001
0100
0010
1000
0100
1000
0001
1000
0100
1000
,
0010
0100
0001
1000
0010
1000
0001
0100
0010
0100
0001
1000
0010
0100
0010
1000
,
0001
0000
0000
0000
0000
0000
0000
0000
0000
0000
1000
0000
0000
0000
0000
0000
0000
0000
0000
0001
0000
0000
0000
0000
0000
0000
0000
0000
0000
0100
0000
0000
0000
0000
0000
0000
0000
0000
0010
0000
0000
0000
0000
0000
0000
0000
0000
0000
1000
0000
0000
0000
0000
0000
0000
0000
0000
0000
0001
0000
0000
0000
0000
0000
0000
0000
0000
1000
0000
0000
0000
0000
0000
0000
0000
0000
0000
0100
0000
0000
0000
0000
0000
0000
0000
0000
0010
0000
0000
0000
0000
0000
0000
0000
0000
0000
0001
0000
0000
0000
0000
0000
0000
0000
0000
0000
0100
0000
0000
0000
0000
0000
0000
0000
0000
0010
0000
0000
0000
0000
0000
0000
0000
0000
0000
1000
0000
0000
0000
0000
0000
0000
0000
0000
0001
0000
0000
0000
0000
0000
0000
0000
0000
0000
1000
0000
0000
0000
0000
0000
0000
0000
0000
0000
0100
0000
0000
0000
0000
0000
0000
0000
0000
0010
0000
0000
0000
0000
0000
0000
0000
0000
0000
0001
0000
0000
0000
0000
0000
0000
0000
0000
1000
0000
0000
0000
0000
0000
0000
0000
0000
0000
,
0001
1000
0100
1000
0001
1000
0010
0100
0001
0100
0001
0010
0100
1000
0001
1000
,
0100
0010
0100
1000
0001
1000
0100
1000
0001
0010
0001
0100
0010
1000
0001
1000
,
0001
0100
0010
1000
0001
1000
0010
1000
0001
0100
0001
0010
0100
1000
0001
1000
,
0100
0010
0100
1000
0001
1000
0100
0010
0001
1000
0001
0010
0001
0100
0010
1000
,
0001
0010
0100
1000
0001
1000
0100
0010
0001
0010
0001
0100
0010
1000
0001
1000
,
0010
0100
0010
1000
0001
1000
0010
1000
0001
0100
0001
0010
0100
1000
0001
1000
,
0001
0010
0100
1000
0001
1000
0100
1000
0001
0010
0001
0100
0010
1000
0001
1000
,
0010
0100
0010
1000
0001
1000
0010
0100
0001
1000
0001
0100
0001
0010
0100
1000
,
0001
0100
0010
1000
0001
1000
0010
0100
0001
0100
0001
0010
0100
1000
0001
1000
,
0100
0010
0100
1000
0001
1000
0100
1000
0001
0010
0001
0100
0010
1000
0001
1000
,
0001
0100
0010
1000
0001
1000
0010
1000
0001
0100
0001
0010
0100
1000
0001
1000
,
0100
0010
0100
1000
0001
1000
0100
0010
0001
1000
0001
0010
0001
0100
0010
1000
,
0001
0010
0100
1000
0001
1000
0100
0010
0001
0010
0001
0100
0010
1000
0001
1000
,
0010
0100
0010
1000
0001
1000
0010
1000
0001
0100
0001
0010
0100
1000
0001
1000
,
0001
0010
0100
1000
0001
1000
0100
1000
0001
0010
0001
0100
0010
1000
0001
1000
,
0001
0000
0000
0000
0000
0000
0000
0000
0000
0000
0010
0000
0000
0000
0000
0000
0000
0000
0000
0001
0000
0000
0000
0000
0000
0000
0000
0000
0000
0100
0000
0000
0000
0000
0000
0000
0000
0000
0010
0000
0000
0000
0000
0000
0000
0000
0000
0000
1000
0000
0000
0000
0000
0000
0000
0000
0000
0000
0001
0000
0000
0000
0000
0000
0000
0000
0000
1000
0000
0000
0000
0000
0000
0000
0000
0000
0000
0100
0000
0000
0000
0000
0000
0000
0000
0000
0010
0000
0000
0000
0000
0000
0000
0000
0000
0000
0001
0000
0000
0000
0000
0000
0000
0000
0000
0000
0100
0000
0000
0000
0000
0000
0000
0000
0000
0010
0000
0000
0000
0000
0000
0000
0000
0000
0000
1000
0000
0000
0000
0000
0000
0000
0000
0000
0001
0000
0000
0000
0000
0000
0000
0000
0000
0000
1000
0000
0000
0000
0000
0000
0000
0000
0000
0000
0100
0000
0000
0000
0000
0000
0000
0000
0000
0010
0000
0000
0000
0000
0000
0000
0000
0000
0000
0001
0000
0000
0000
0000
0000
0000
0000
0000
1000
0000
0000
0000
0000
0000
0000
0000
0000
0000
,
0001
0100
0010
1000
0001
1000
0010
0100
0001
0100
0001
0010
0100
1000
0001
1000
,
0010
0100
0010
1000
0001
1000
0010
1000
0001
0100
0001
0010
0100
1000
0001
1000
,
0001
0010
0100
1000
0001
1000
0100
1000
0001
0010
0001
0100
0010
1000
0001
1000
,
0100
0010
0100
1000
0001
1000
0100
0010
0001
1000
0001
0010
0001
0100
0010
1000
,
0001
0010
0100
1000
0001
1000
0100
0010
0001
0010
0001
0100
0010
1000
0001
1000
,
0100
0010
0100
1000
0001
1000
0100
1000
0001
0010
0001
0100
0010
1000
0001
1000
,
0001
0100
0010
1000
0001
1000
0010
1000
0001
0100
0001
0010
0100
1000
0001
1000
,
0010
0100
0010
1000
0001
1000
0010
0100
0001
1000
0001
0100
0001
0010
0100
1000
,
0001
0100
0010
1000
0001
1000
0010
0100
0001
0100
0001
0010
0100
1000
0001
1000
,
0100
0010
0100
1000
0001
1000
0100
1000
0001
0010
0001
0100
0010
1000
0001
1000
,
0001
0100
0010
1000
0001
1000
0010
1000
0001
0100
0001
0010
0100
1000
0001
1000
,
0100
0010
0100
1000
0001
1000
0100
0010
0001
1000
0001
0010
0001
0100
0010
1000
,
0001
0010
0100
1000
0001
1000
0100
0010
0001
0010
0001
0100
0010
1000
0001
1000
,
0010
0100
0010
1000
0001
1000
0010
1000
0001
0100
0001
0010
0100
1000
0001
1000
,
0001
0010
0100
1000
0001
1000
0100
1000
0001
0010
0001
0100
0010
1000
0001
1000
,
0100
0000
0000
0000
0000
0000
0000
0000
0000
0000
0010
0000
0000
0000
0000
0000
0000
0000
0000
0001
0000
0000
0000
0000
0000
0000
0000
0000
0000
0100
0000
0000
0000
0000
0000
0000
0000
0000
0010
0000
0000
0000
0000
0000
0000
0000
0000
0000
1000
0000
0000
0000
0000
0000
0000
0000
0000
0000
0001
0000
0000
0000
0000
0000
0000
0000
0000
0010
0000
0000
0000
0000
0000
0000
0000
0000
0000
0100
0000
0000
0000
0000
0000
0000
0000
0000
1000
0000
0000
0000
0000
0000
0000
0000
0000
0000
0010
0000
0000
0000
0000
0000
0000
0000
0000
0000
0100
0000
0000
0000
0000
0000
0000
0000
0000
0001
0000
0000
0000
0000
0000
0000
0000
0000
0000
1000
0000
0000
0000
0000
0000
0000
0000
0000
0100
0000
0000
0000
0000
0000
0000
0000
0000
0000
0010
0000
0000
0000
0000
0000
0000
0000
0000
0000
0001
0000
0000
0000
0000
0000
0000
0000
0000
0100
0000
0000
0000
0000
0000
0000
0000
0000
0000
0010
0000
0000
0000
0000
0000
0000
0000
0000
1000
0000
0000
0000
0000
0000
0000
0000
0000
0000
,
0001
0100
0001
1000
0010
1000
0001
1000
0100
0010
0001
1000
0100
1000
0001
1000
,
0010
0100
0001
1000
0010
1000
0001
0010
0100
1000
0010
1000
0100
0010
0001
1000
,
0010
0100
0001
1000
0010
1000
0001
0010
0100
1000
0010
1000
0100
0010
0001
1000
,
0010
1000
0001
0010
0100
1000
0001
1000
0100
0010
0001
0010
0100
1000
0001
1000
,
0001
0100
0010
1000
0001
1000
0010
0100
0001
1000
0010
1000
0001
0010
0100
1000
,
0001
1000
0010
0100
0010
1000
0100
0010
0001
1000
0010
1000
0001
1000
0010
0100
,
0001
1000
0001
0010
0001
1000
0100
1000
0001
1000
0010
0100
0001
0010
0100
1000
,
0010
0000
0000
0000
0000
0000
0000
0000
0000
0000
1000
0000
0000
0000
0000
0000
0000
0000
0000
0001
0000
0000
0000
0000
0000
0000
0000
0000
0000
0100
0000
0000
0000
0000
0000
0000
0000
0000
0010
0000
0000
0000
0000
0000
0000
0000
0000
0000
1000
0000
0000
0000
0000
0000
0000
0000
0000
0000
0001
0000
0000
0000
0000
0000
0000
0000
0000
1000
0000
0000
0000
0000
0000
0000
0000
0000
0000
0100
0000
0000
0000
0000
0000
0000
0000
0000
0010
0000
0000
0000
0000
0000
0000
0000
0000
0000
0001
0000
0000
0000
0000
0000
0000
0000
0000
0000
0100
0000
0000
0000
0000
0000
0000
0000
0000
0010
0000
0000
0000
0000
0000
0000
0000
0000
0000
1000
0000
0000
0000
0000
0000
0000
0000
0000
0001
0000
0000
0000
0000
0000
0000
0000
0000
0000
1000
0000
0000
0000
0000
0000
0000
0000
0000
0000
0100
0000
0000
0000
0000
0000
0000
0000
0000
0010
0000
0000
0000
0000
0000
0000
0000
0000
0000
0001
0000
0000
0000
0000
0000
0000
0000
0000
1000
0000
0000
0000
0000
0000
0000
0000
0000
0000
,
0001
1000
0010
0100
0001
1000
0001
0010
0100
1000
0010
0100
0001
1000
0001
0010
,
0100
1000
0010
0100
0001
1000
0100
1000
0001
0100
0010
1000
0001
0100
0010
1000
,
0001
0010
0001
0010
0100
1000
0001
0100
0010
1000
0100
0010
0001
1000
0010
1000
,
0100
0010
0001
0010
0001
1000
0010
0100
0001
1000
0010
1000
0001
1000
0100
0010
,
0001
0010
0100
1000
0010
0100
0001
1000
0010
0100
0001
1000
0100
1000
0100
0010
,
0001
1000
0100
1000
0001
1000
0001
0100
0010
1000
0100
1000
0001
1000
0100
1000
,
0010
0100
0001
1000
0010
1000
0001
0100
0010
0100
0001
1000
0010
0100
0010
1000
,
0100
0000
0000
0000
0000
0000
0000
0000
0000
0000
1000
0000
0000
0000
0000
0000
0000
0000
0000
0001
0000
0000
0000
0000
0000
0000
0000
0000
0000
0010
0000
0000
0000
0000
0000
0000
0000
0000
0100
0000
0000
0000
0000
0000
0000
0000
0000
0000
1000
0000
0000
0000
0000
0000
0000
0000
0000
0000
0001
0000
0000
0000
0000
0000
0000
0000
0000
1000
0000
0000
0000
0000
0000
0000
0000
0000
0000
0010
0000
0000
0000
0000
0000
0000
0000
0000
0100
0000
0000
0000
0000
0000
0000
0000
0000
0000
0001
0000
0000
0000
0000
0000
0000
0000
0000
0000
0010
0000
0000
0000
0000
0000
0000
0000
0000
0100
0000
0000
0000
0000
0000
0000
0000
0000
0000
1000
0000
0000
0000
0000
0000
0000
0000
0000
0001
0000
0000
0000
0000
0000
0000
0000
0000
0000
1000
0000
0000
0000
0000
0000
0000
0000
0000
0000
0010
0000
0000
0000
0000
0000
0000
0000
0000
0100
0000
0000
0000
0000
0000
0000
0000
0000
0000
0001
0000
0000
0000
0000
0000
0000
0000
0000
1000
0000
0000
0000
0000
0000
0000
0000
0000
0000
,
0010
0100
0001
0100
0010
1000
0001
0100
0010
1000
0100
0010
0001
1000
0001
0100
,
0010
1000
0100
0010
0001
1000
0010
1000
0001
0010
0100
1000
0001
0010
0100
1000
,
0001
0100
0001
0100
0010
1000
0001
0010
0100
1000
0010
0100
0001
1000
0001
0010
,
0100
1000
0010
1000
0100
0010
0001
1000
0010
1000
0001
0100
0001
1000
0100
0010
,
0001
1000
0001
1000
0010
1000
0001
0010
0100
1000
0010
0100
0001
1000
0001
0010
,
0100
1000
0010
0100
0001
1000
0100
1000
0001
0100
0010
1000
0001
0100
0010
1000
,
0001
1000
0010
1000
0001
0100
0001
1000
0001
0100
0010
1000
0100
0010
0001
1000
,
0010
0000
0000
0000
0000
0000
0000
0000
0000
0000
1000
0000
0000
0000
0000
0000
0000
0000
0000
0001
0000
0000
0000
0000
0000
0000
0000
0000
0000
0100
0000
0000
0000
0000
0000
0000
0000
0000
0010
0000
0000
0000
0000
0000
0000
0000
0000
0000
1000
0000
0000
0000
0000
0000
0000
0000
0000
0000
0001
0000
0000
0000
0000
0000
0000
0000
0000
1000
0000
0000
0000
0000
0000
0000
0000
0000
0000
0100
0000
0000
0000
0000
0000
0000
0000
0000
0010
0000
0000
0000
0000
0000
0000
0000
0000
0000
0001
0000
0000
0000
0000
0000
0000
0000
0000
0000
0100
0000
0000
0000
0000
0000
0000
0000
0000
0010
0000
0000
0000
0000
0000
0000
0000
0000
0000
1000
0000
0000
0000
0000
0000
0000
0000
0000
0001
0000
0000
0000
0000
0000
0000
0000
0000
0000
1000
0000
0000
0000
0000
0000
0000
0000
0000
0000
0100
0000
0000
0000
0000
0000
0000
0000
0000
0010
0000
0000
0000
0000
0000
0000
0000
0000
0000
0001
0000
0000
0000
0000
0000
0000
0000
0000
1000
0000
0000
0000
0000
0000
0000
0000
0000
0000
,
0001
0100
0001
0100
0010
1000
0001
0010
0100
1000
0010
0100
0001
1000
0001
0010
,
0100
1000
0010
0100
0001
1000
0100
1000
0001
0100
0010
1000
0001
0100
0010
1000
,
0001
0010
0001
0010
0100
1000
0001
0100
0010
1000
0100
0010
0001
1000
0010
1000
,
0100
0010
0001
0010
0001
1000
0010
0100
0001
1000
0010
1000
0001
1000
0100
0010
,
0001
0010
0100
1000
0010
0100
0001
1000
0010
0100
0001
1000
0010
1000
0100
0010
,
0001
1000
0100
1000
0001
1000
0001
0100
0010
1000
0100
1000
0001
1000
0100
1000
,
0010
0100
0001
1000
0010
1000
0001
0100
0010
0100
0001
1000
0010
0100
0010
1000
,
0100
0000
0000
0000
0000
0000
0000
0000
0000
0000
1000
0000
0000
0000
0000
0000
0000
0000
0000
0001
0000
0000
0000
0000
0000
0000
0000
0000
0000
0100
0000
0000
0000
0000
0000
0000
0000
0000
0010
0000
0000
0000
0000
0000
0000
0000
0000
0000
1000
0000
0000
0000
0000
0000
0000
0000
0000
0000
0001
0000
0000
0000
0000
0000
0000
0000
0000
1000
0000
0000
0000
0000
0000
0000
0000
0000
0000
0100
0000
0000
0000
0000
0000
0000
0000
0000
0010
0000
0000
0000
0000
0000
0000
0000
0000
0000
0001
0000
0000
0000
0000
0000
0000
0000
0000
0000
0100
0000
0000
0000
0000
0000
0000
0000
0000
0010
0000
0000
0000
0000
0000
0000
0000
0000
0000
1000
0000
0000
0000
0000
0000
0000
0000
0000
0001
0000
0000
0000
0000
0000
0000
0000
0000
0000
1000
0000
0000
0000
0000
0000
0000
0000
0000
0000
0100
0000
0000
0000
0000
0000
0000
0000
0000
0010
0000
0000
0000
0000
0000
0000
0000
0000
0000
0001
0000
0000
0000
0000
0000
0000
0000
0000
1000
0000
0000
0000
0000
0000
0000
0000
0000
0000
,
0001
0100
0010
1000
0100
1000
0001
0100
0001
0100
0001
0010
0100
1000
0001
1000
,
0100
0010
0100
1000
0001
1000
0100
1000
0001
0010
0001
0100
0010
1000
0001
1000
,
0001
0100
0010
1000
0001
1000
0010
1000
0001
0100
0001
0010
0100
1000
0001
1000
,
0100
0010
0100
1000
0001
1000
0100
0010
0001
1000
0001
0010
0001
0100
0010
1000
,
0001
0010
0100
1000
0001
1000
0100
0010
0001
0010
0001
0100
0010
1000
0001
1000
,
0010
0100
0010
1000
0001
1000
0010
1000
0001
0100
0001
0010
0100
1000
0001
1000
,
0001
0010
0100
1000
0001
1000
0100
1000
0001
0010
0001
0100
0010
1000
0001
1000
,
0010
0100
0010
1000
0001
1000
0010
0100
0001
1000
0001
0100
0001
0010
0100
1000
,
0001
0100
0010
1000
0001
1000
0010
0100
0001
0100
0001
0010
0100
1000
0001
1000
,
0100
0010
0100
1000
0001
1000
0100
1000
0001
0010
0001
0100
0010
1000
0001
1000
,
0001
0100
0010
1000
0001
1000
0010
1000
0001
0100
0001
0010
0100
1000
0001
1000
,
0100
0010
0100
1000
0001
1000
0100
0010
0001
1000
0001
0010
0001
0100
0010
1000
,
0001
0010
0100
1000
0001
1000
0100
0010
0001
0010
0001
0100
0010
1000
0001
1000
,
0010
0100
0010
1000
0001
1000
0010
1000
0001
0100
0001
0010
0100
1000
0001
1000
,
0001
0010
0100
1000
0001
1000
0100
1000
0001
0010
0001
0100
0010
1000
0001
1000
,
0100
0000
0000
0000
0000
0000
0000
0000
0000
0000
0010
0000
0000
0000
0000
0000
0000
0000
0000
0001
0000
0000
0000
0000
0000
0000
0000
0000
0000
0100
0000
0000
0000
0000
0000
0000
0000
0000
0010
0000
0000
0000
0000
0000
0000
0000
0000
0000
1000
0000
0000
0000
0000
0000
0000
0000
0000
0000
0001
0000
0000
0000
0000
0000
0000
0000
0000
0010
0000
0000
0000
0000
0000
0000
0000
0000
0000
0100
0000
0000
0000
0000
0000
0000
0000
0000
1000
0000
0000
0000
0000
0000
0000
0000
0000
0000
0010
0000
0000
0000
0000
0000
0000
0000
0000
0000
0100
0000
0000
0000
0000
0000
0000
0000
0000
0001
0000
0000
0000
0000
0000
0000
0000
0000
0000
1000
0000
0000
0000
0000
0000
0000
0000
0000
0100
0000
0000
0000
0000
0000
0000
0000
0000
0000
0010
0000
0000
0000
0000
0000
0000
0000
0000
0000
0001
0000
0000
0000
0000
0000
0000
0000
0000
0100
0000
0000
0000
0000
0000
0000
0000
0000
0000
0010
0000
0000
0000
0000
0000
0000
0000
0000
1000
0000
0000
0000
0000
0000
0000
0000
0000
0000
,
0002
0000
0000
0000
,
0000
0000
0000
0000
,
0003
0000
0000
0000
;
