#TITLE:Seven;
#SUBTITLE:;
#ARTIST:DJ Sharpnel;
#TITLETRANSLIT:;
#SUBTITLETRANSLIT:;
#ARTISTTRANSLIT:;
#CREDIT:;
#BANNER:seven bn.png;
#BACKGROUND:seven bg.png;
#LYRICSPATH:;
#CDTITLE:;
#MUSIC:Seven.ogg;
#OFFSET:-0.064;
#SAMPLESTART:19.969;
#SAMPLELENGTH:19.896;
#SELECTABLE:YES;
#DISPLAYBPM:193.000;
#BPMS:0.000=193.000,192.000=387.395,256.000=193.000,288.000=579.000,288.750=64.333,289.000=579.000,289.750=64.333,290.000=579.000,290.750=64.333,291.000=579.000,291.750=64.333,292.000=579.000,292.750=64.333,293.000=579.000,293.750=64.333,294.000=579.000,294.750=64.333,295.000=193.000,296.000=579.000,296.750=64.333,297.000=579.000,297.750=64.333,298.000=579.000,298.750=64.333,299.000=579.000,299.750=64.333,300.000=193.000,304.000=579.000,304.750=64.333,305.000=579.000,305.750=64.333,306.000=579.000,306.750=64.333,307.000=579.000,307.750=64.333,308.000=579.000,308.750=64.333,309.000=579.000,309.750=64.333,310.000=579.000,310.750=64.333,311.000=193.000,312.000=579.000,312.750=64.333,313.000=579.000,313.750=64.333,314.000=579.000,314.750=64.333,315.000=579.000,315.750=64.333,316.000=193.000,536.000=579.000,536.750=64.333,537.000=579.000,537.750=64.333,538.000=579.000,538.750=64.333,539.000=579.000,539.750=64.333,540.000=579.000,540.750=64.333,541.000=579.000,541.750=64.333,542.000=579.000,542.750=64.333,543.000=193.000,576.000=579.000,576.750=64.333,577.000=579.000,577.750=64.333,578.000=579.000,578.750=64.333,579.000=579.000,579.750=64.333,580.000=579.000,580.750=64.333,581.000=579.000,581.750=64.333,582.000=579.000,582.750=64.333,583.000=193.000,584.000=579.000,584.750=64.333,585.000=579.000,585.750=64.333,586.000=579.000,586.750=64.333,587.000=579.000,587.750=64.333,588.000=193.000,592.000=579.000,592.750=64.333,593.000=579.000,593.750=64.333,594.000=579.000,594.750=64.333,595.000=579.000,595.750=64.333,596.000=579.000,596.750=64.333,597.000=579.000,597.750=64.333,598.000=579.000,598.750=64.333,599.000=193.000,600.000=579.000,600.750=64.333,601.000=579.000,601.750=64.333,602.000=579.000,602.750=64.333,603.000=579.000,603.750=64.333,604.000=193.000;
#STOPS:192.000=0.078
,192.500=0.078
,193.000=0.078
,193.500=0.078
,194.000=0.078
,194.500=0.078
,195.000=0.078
,195.500=0.078
,196.000=0.078
,196.500=0.078
,197.000=0.078
,197.500=0.078
,198.000=0.078
,198.500=0.078
,199.000=0.078
,199.500=0.078
,200.000=0.078
,200.500=0.078
,201.000=0.078
,201.500=0.078
,202.000=0.078
,202.500=0.078
,203.000=0.078
,203.500=0.078
,204.000=0.078
,204.500=0.078
,205.000=0.078
,205.500=0.078
,206.000=0.078
,206.500=0.078
,207.000=0.078
,207.500=0.078
,208.000=0.078
,208.500=0.078
,209.000=0.078
,209.500=0.078
,210.000=0.078
,210.500=0.078
,211.000=0.078
,211.500=0.078
,212.000=0.078
,212.500=0.078
,213.000=0.078
,213.500=0.078
,214.000=0.078
,214.500=0.078
,215.000=0.078
,215.500=0.078
,216.000=0.078
,216.500=0.078
,217.000=0.078
,217.500=0.078
,218.000=0.078
,218.500=0.078
,219.000=0.078
,219.500=0.078
,220.000=0.078
,220.500=0.078
,221.000=0.078
,221.500=0.078
,222.000=0.078
,222.500=0.078
,223.000=0.078
,223.500=0.078
,224.000=0.078
,224.500=0.078
,225.000=0.078
,225.500=0.078
,226.000=0.078
,226.500=0.078
,227.000=0.078
,227.500=0.078
,228.000=0.078
,228.500=0.078
,229.000=0.078
,229.500=0.078
,230.000=0.078
,230.500=0.078
,231.000=0.078
,231.500=0.078
,232.000=0.078
,232.500=0.078
,233.000=0.078
,233.500=0.078
,234.000=0.078
,234.500=0.078
,235.000=0.078
,235.500=0.078
,236.000=0.078
,236.500=0.078
,237.000=0.078
,237.500=0.078
,238.000=0.078
,238.500=0.078
,239.000=0.078
,239.500=0.078
,240.000=0.078
,240.500=0.078
,241.000=0.078
,241.500=0.078
,242.000=0.078
,242.500=0.078
,243.000=0.078
,243.500=0.078
,244.000=0.078
,244.500=0.078
,245.000=0.078
,245.500=0.078
,246.000=0.078
,246.500=0.078
,247.000=0.078
,247.500=0.078
,248.000=0.078
,248.500=0.078
,249.000=0.078
,249.500=0.078
,250.000=0.078
,250.500=0.078
,251.000=0.078
,251.500=0.078
,252.000=0.078
,252.500=0.078
,253.000=0.078
,253.500=0.078
,254.000=0.078
,254.500=0.078
,255.000=0.078
,255.500=0.078
;
#BGCHANGES:;
// cache tags:
#FIRSTBEAT:32.000;
#LASTBEAT:639.000;
#SONGFILENAME:Songs/SHARPNELSTREAMZ v2/Seven/Seven.sm;
#HASMUSIC:1;
#HASBANNER:1;
#MUSICLENGTH:199.627;
// end cache tags

//---------------dance-single - 15- (CTalon)----------------
#NOTES:
     dance-single:
     15- (CTalon):
     Challenge:
     15:
     1.000,1.000,0.426,0.000,1.000,1577.000,85.000,0.000,6.000,0.000:
0000
0000
0000
0000
,
0000
0000
0000
0000
,
0000
0000
0000
0000
,
0000
0000
0000
0000
,
0000
0000
0000
0000
,
0000
0000
0000
0000
,
0000
0000
0000
0000
,
0000
0000
0000
0000
,
0001
0010
0100
1000
0001
0100
0010
1000
0001
0010
0100
0010
0001
1000
0010
0100
,
0010
1000
0001
0010
0100
0010
0001
1000
0010
1000
0010
0100
0001
0000
0001
0000
,
1000
0010
1000
0010
0100
0001
1000
0100
0010
0001
0010
0100
1000
0001
1000
0010
,
1000
0001
0100
0010
1000
0100
0010
0001
0100
0010
0100
0001
0010
0100
1000
0010
,
1000
0001
1000
0010
0100
0001
1000
0001
0010
0100
1000
0100
0010
0001
0010
0001
,
1000
0010
0100
0001
0100
0001
1000
0100
0010
0100
1000
0001
0100
0000
0100
0000
,
0010
1000
0001
1000
0100
0010
0100
1000
0001
0100
0001
0100
0010
1000
0001
1000
,
0100
0010
0001
0100
0010
1000
0100
0010
0001
0100
0010
1000
0001
0100
0001
0010
,
0001
0010
0100
1000
0001
1000
0010
0100
0001
1000
0100
0010
0100
1000
0100
0010
,
0001
1000
0010
0100
0010
1000
0001
0100
0001
1000
0100
1000
0001
0000
0001
0000
,
1000
0100
0010
0001
1000
0010
0100
0010
1000
0001
0010
0001
1000
0010
1000
0010
,
0100
0001
1000
0001
0010
0100
1000
0100
0010
0100
1000
0001
0100
0000
0100
0000
,
0010
1000
0010
1000
0001
0010
0100
1000
0100
0010
0100
1000
0001
0100
0010
1000
,
0010
0100
0001
1000
0001
1000
0100
0010
0001
0010
0100
1000
0001
0000
0001
0000
,
1000
0010
1000
0001
0100
0001
1000
0100
0010
0100
1000
0100
0010
0001
1000
0001
,
1000
0100
1000
0010
0100
0001
0010
0100
1000
0000
0001
0000
0100
0000
0001
0000
,
1000
0100
1000
0001
0100
0010
1000
0001
1000
0100
0010
0001
1000
0100
0010
0100
,
1000
0001
0100
0001
0100
0010
1000
0001
0100
0001
1000
0100
0010
0000
0010
0000
,
0100
1000
0001
1000
0010
0100
0001
1000
0001
0010
0100
0010
0100
1000
0001
1000
,
0010
0100
0001
0010
0100
1000
0010
0100
0010
1000
0100
1000
0001
0100
0001
0010
,
0001
1000
0001
0100
0010
0100
0001
1000
0001
0010
0100
1000
0100
0010
0001
1000
,
0001
0100
0010
1000
0001
0010
0100
0010
0001
1000
0010
0100
0001
0000
0001
0000
,
1000
0100
0010
0001
1000
0100
0010
0001
1000
0010
0100
0010
1000
0001
0100
0001
,
1000
0100
1000
0010
0100
0001
0010
0100
1000
0010
0100
0001
1000
0010
1000
0100
,
1000
0000
0001
0000
0100
0000
0010
1000
0010
0000
0100
0000
0001
0000
1000
0100
,
0010
0000
0001
0000
0100
0000
0001
1000
0010
0000
0100
0000
0001
0000
0010
0001
,
1000
0000
0010
0000
0100
0000
0001
1000
0100
0000
0010
0000
0001
0000
0100
0010
,
1000
0000
0001
0000
0010
0000
0100
1000
0010
0000
0100
0000
0010
0000
1000
0001
,
1000
0000
0010
0000
0100
0000
0001
0010
0100
0000
1000
0000
0001
0000
0100
0010
,
0100
0000
0001
0000
1000
0000
0001
0100
0001
0000
1000
0000
0100
0000
0010
0001
,
1000
0000
0010
0000
0100
0000
0001
0100
0010
0000
1000
0000
0100
0000
0010
0001
,
1000
0000
0010
0000
0100
0000
0010
1000
0100
0000
0010
0000
0001
0000
1000
0010
,
1000
0010
0100
0001
1000
0100
0010
0001
1000
0010
0100
0010
1000
0001
0010
0100
,
0010
0001
1000
0010
0100
0010
1000
0001
0010
0001
0010
0100
1000
0000
1000
0000
,
0001
0010
0001
0010
0100
1000
0001
0100
0010
1000
0010
0100
0001
1000
0001
0010
,
0001
1000
0100
0010
0001
0100
0010
1000
0100
0010
0100
1000
0010
0100
0001
0010
,
0001
1000
0001
0010
0100
1000
0001
1000
0010
0100
0001
0100
0010
1000
0010
1000
,
0001
0010
0100
1000
0100
1000
0001
0100
0010
0100
0001
1000
0100
0000
0100
0000
,
0010
0001
1000
0001
0100
0010
0100
0001
1000
0100
1000
0100
0010
0001
1000
0001
,
0100
0010
1000
0100
0010
0001
0100
0010
1000
0100
0010
0001
1000
0100
1000
0010
,
4000
3000
4000
3400
0340
0034
4003
3040
,
0430
0300
0400
0304
4003
3400
0340
0034
,
0043
0030
0040
0430
4300
3004
0403
0340
,
0430
0300
0400
0304
4003
3400
0340
0034
,
4003
3000
4000
3040
0430
0304
0043
0430
,
0340
0030
0040
0034
4003
3004
0403
0304
,
0403
0340
0430
0304
0043
0430
4300
3004
,
0403
0300
0400
0304
4003
3400
0340
0034
,
0043
0430
0340
0034
4003
3040
0430
0340
,
4030
3400
0340
0034
4003
3004
0403
0340
,
0430
0300
0400
0340
4030
3004
0043
0034
,
4003
3000
4000
3400
0340
0034
0403
0304
,
0043
0030
0040
0430
4300
3004
0403
0340
,
0430
0300
0400
0304
4003
3400
0340
0034
,
4003
3000
4000
3040
0430
0340
4030
3004
,
0043
0030
0040
0430
4300
3004
0403
0304
,
1003
0100
0010
0001
1000
0010
0100
0001
1000
0100
0010
0100
1000
0001
0100
0010
,
0100
0001
1000
0100
0010
0100
1000
0001
0100
0001
0100
0010
1000
0000
1000
0000
,
0001
0100
0001
0100
0010
1000
0001
0010
0100
1000
0100
0010
0001
1000
0001
0100
,
0001
1000
0010
0100
0001
0010
0100
1000
0010
0100
0010
1000
0100
0010
0001
0100
,
0001
1000
0001
0100
0010
1000
0001
1000
0100
0010
0001
0010
0100
1000
0100
1000
,
0001
0100
0010
1000
0010
1000
0001
0010
0100
0010
0001
1000
0010
0000
0010
0000
,
0100
0001
1000
0001
0010
0100
0010
0001
1000
0010
1000
0010
0100
0001
1000
0001
,
0010
0100
1000
0010
0100
0001
0010
0100
1000
0010
0100
0001
1000
0010
1000
0100
,
1000
1100
1001
1010
,
0011
0000
0101
0000
1100
0000
1000
1000
,
1001
1010
0110
1001
,
1100
0000
0400
0000
0340
0000
0030
0000
0011
0000
0001
1000
0001
1000
0010
0000
,
0110
1001
1010
0011
,
1001
0000
1100
0000
0101
0000
0001
0001
,
0011
0110
1001
1100
,
0101
0000
0004
0000
0013
0000
0400
0000
1300
0001
1000
0001
0100
0010
1000
0001
,
1000
0100
0010
0100
1000
0001
0100
0010
0100
0001
1000
0001
0100
0001
1000
0100
,
0010
0100
1000
0100
0010
0001
1000
0010
0100
0001
0100
0001
1000
0000
1000
0000
,
0100
0010
0001
0010
0100
1000
0001
0100
0010
0100
0010
1000
0001
1000
0100
0010
,
0100
1000
0010
0100
0001
0010
0001
0100
0010
0100
0001
0010
0100
1000
0010
0100
,
0001
1000
0010
0100
0010
1000
0001
0010
0100
0010
0001
1000
0001
0100
0010
1000
,
0001
1000
0001
0010
0100
1000
0100
0010
0100
1000
0001
0100
0010
0000
0010
0000
,
1000
0001
0010
0001
1000
0010
0100
0010
1000
0001
0100
0001
1000
0100
1000
0100
,
0010
0001
0100
0010
0100
0001
0010
0100
1000
0010
0100
0001
0010
0001
0100
0010
,
1000
0001
0100
0010
1000
0001
0010
0100
1000
0100
0010
0001
0010
0100
1000
0001
,
0100
0010
0100
0001
1000
0010
1000
0001
0010
0100
0010
0001
1000
0000
1000
0000
,
0010
0100
0001
0100
0010
1000
0001
1000
0100
0010
0100
1000
0001
1000
0001
0010
,
0100
1000
0010
0100
0010
1000
0100
0010
0001
0100
0010
1000
0100
0010
0001
0100
,
0001
1000
0010
1000
0001
1000
0100
0010
0001
0010
0100
0010
0001
1000
0010
0100
,
0001
1000
0001
1000
0100
0010
0001
0010
0100
1000
0001
0100
0010
0000
0010
0000
,
1000
0001
1000
0100
0010
0001
1000
0001
0010
0100
1000
0001
0100
0001
0100
0010
,
1000
0010
1000
0100
0010
0001
0100
0010
0100
0001
0010
0100
1000
0010
0100
0001
,
1000
0000
0001
0000
0100
0000
0010
1000
0001
0000
0010
0000
0100
0000
1000
0100
,
0010
0011
0000
1001
,
0000
1100
0000
0110
,
0000
0011
0000
1001
,
1000
0000
0010
0000
0100
0000
0001
0010
0100
0000
0010
0000
0001
0000
0100
0010
,
1000
1001
0000
1100
,
0000
0101
0000
1001
,
0000
1100
0000
0011
,
0001
0000
1000
0000
0100
0000
1000
0100
0010
0000
0001
0000
0100
0000
0010
1000
,
0100
0110
0000
1001
,
0000
1100
0000
0011
,
0000
1001
0000
1100
,
0100
0000
0010
0000
0001
0000
1000
0010
0100
0000
0001
0000
1000
0000
0100
0010
,
0001
1001
0000
1100
,
0000
0110
0000
1001
,
0000
1100
0000
0011
,
0001
1000
0010
0100
0001
1000
0100
0010
,
0100
1000
0001
0100
0010
1000
0001
1000
,
0001
0010
0100
1000
0100
0010
0001
1000
,
0010
0100
0010
1000
0001
0010
0100
0010
,
0001
1000
0010
1000
0001
0100
0010
1000
0100
0010
0001
1000
0001
1000
0010
0100
,
0001
0010
0100
1000
0001
1000
0100
0010
0001
0100
0010
1000
0001
1000
0010
0100
,
0001
1000
0001
0010
0100
1000
0100
1000
0010
1000
0001
0010
0100
1000
0001
1000
,
0001
0000
0000
0001
0000
0000
1000
0100
0010
0000
0001
0100
0010
0000
4000
0000
,
3001
0010
0100
0010
0001
1000
0010
0100
0001
0100
0001
1000
0100
0010
0100
1000
,
0100
0010
0001
1000
0001
0100
0010
0100
0001
1000
0001
0010
0100
0010
0001
1000
,
0010
0100
0001
0100
0010
1000
0001
1000
0100
0010
0100
1000
0100
1000
0001
0100
,
0010
1000
0001
1000
0100
0010
0001
0010
0001
1000
0010
1000
0001
0000
0001
0000
,
1000
0100
0010
0001
1000
0001
0100
0010
1000
0001
0010
0100
0010
0001
1000
0001
,
0100
0010
0100
0001
1000
0100
1000
0001
1000
0010
1000
0001
0010
0000
0010
0000
,
0100
1000
0100
0010
0001
1000
0001
0100
0010
1000
0010
0100
0001
1000
0001
0010
,
0100
1000
0010
0100
0010
1000
0100
0010
0001
0100
0010
1000
0001
0100
0001
0010
,
0001
0010
0100
1000
0001
0100
0010
1000
0001
0010
0100
0010
0001
1000
0010
0100
,
0010
1000
0001
0010
0100
0010
0001
1000
0010
1000
0010
0100
0001
0000
0001
0000
,
1000
0010
1000
0010
0100
0001
1000
0100
0010
0001
0010
0100
1000
0001
1000
0010
,
1000
0001
0100
0010
1000
0100
0010
0001
0100
0010
0100
0001
0010
0100
1000
0010
,
1000
0001
1000
0010
0100
0001
1000
0001
0010
0100
1000
0100
0010
0001
0010
0001
,
1000
0010
0100
0001
0100
0001
1000
0100
0010
0100
1000
0001
0100
0000
0100
0000
,
0101
1010
1100
1001
,
0011
0000
0101
0000
1010
0000
1000
1000
,
0001
0100
0010
0100
0001
1000
0100
0010
0100
1000
0001
1000
0100
1000
0001
0100
,
0010
0100
0001
0100
0010
1000
0001
0010
0100
1000
0100
1000
0001
0000
0001
0000
,
0100
0010
1000
0010
0100
0001
1000
0100
0010
0100
0010
0001
1000
0001
0100
0010
,
0100
0001
0010
0100
1000
0010
1000
0100
0010
0100
1000
0010
0100
0001
0010
0100
,
1000
0001
0010
0100
0010
0001
1000
0010
0100
0010
1000
0001
1000
0100
0010
0001
,
1000
0001
1000
0010
0100
0001
0100
0010
0100
0001
1000
0100
0010
0000
0010
0000
,
0001
1000
0010
1000
0001
0010
0100
0010
0001
1000
0100
1000
0001
0100
0001
0100
,
0010
1000
0100
0010
0100
1000
0010
0100
0001
0010
0100
1000
0010
1000
0100
0010
,
0001
1001
1100
0011
,
1001
0000
1010
0000
0101
0000
0001
0001
,
1001
0011
1100
0101
,
0110
0000
0040
0000
4030
0000
3000
0000
1001
0000
0001
1000
0100
0010
0001
0000
,
0011
0110
1001
1100
,
0101
0000
0011
0000
1001
0000
1000
1000
,
1100
0101
0011
1001
,
1010
0000
0040
0000
1030
0000
0004
0000
0013
0100
1000
0100
0010
0001
1000
0001
,
0100
0000
0010
0000
1000
0000
0001
0010
0100
0000
0010
0000
0001
0000
1000
0000
,
0010
0000
0100
0000
0001
0000
1000
0010
1000
0000
0010
0000
0100
0000
0001
0000
,
1000
0000
0100
0000
0010
0000
0001
1000
0001
0000
0100
0000
0010
0000
1000
0000
,
0001
0000
1000
0000
0100
0000
0010
0001
0100
0000
0010
0000
0100
0000
0001
0000
,
1000
0000
0001
0000
0010
0000
0100
1000
0001
0000
1000
0000
0010
0000
0000
0000
,
0000
0000
0000
0000
0000
0000
0000
0000
0000
0000
0000
0000
0M00
0000
0000
0000
0000
0000
0000
0000
0000
0000
0000
0000
0000
0000
0000
0000
0000
0000
0000
0M00
,
0000
0000
0000
0000
0000
0000
0000
0000
0000
0000
0000
0000
0000
0000
0000
0000
0000
0000
0000
0M00
0000
0000
0000
0000
0000
0000
0000
0000
0000
0000
0000
0000
,
0000
0000
0M00
0000
0000
0000
0000
0000
0000
0000
0000
0000
0000
0000
0000
0000
0000
0M00
0000
0000
0000
0000
0000
0000
0M00
0000
0000
0000
0000
0000
0000
0000
;

//---------------dance-single - STOMPEN LIED----------------
#NOTES:
     dance-single:
     STOMPEN LIED:
     Edit:
     777:
     1.000,1.000,1.000,0.000,0.371,676.000,343.000,0.000,6.000,256.000:
0000
0000
0000
0000
,
0000
0000
0000
0000
,
0000
0000
0000
0000
,
0000
0000
0000
0000
,
0000
0000
0000
0000
,
0000
0000
0000
0000
,
0000
0000
0000
0000
,
0000
0000
0000
0000
,
1101
1011
1110
0111
,
1011
0000
1110
0000
1011
0000
0001
0001
,
0111
1101
1110
1011
,
0111
0000
0004
0003
4000
3000
0000
0000
1101
0000
0004
0003
0040
0030
0400
0300
,
1101
1011
1110
1101
,
0111
0000
1011
0000
1110
0000
1000
1000
,
1011
1110
0111
1011
,
1110
0000
0040
0030
1101
0000
4000
3000
0004
0000
0000
0000
0043
0030
0400
0300
,
1110
0111
1101
1011
,
1110
0000
1011
0000
0111
0000
0001
0001
,
1011
0111
1110
1101
,
0111
0000
1011
0000
1110
0000
1000
1000
,
1011
1110
0111
1110
,
1101
0000
0111
0000
1101
0000
0001
0001
,
0111
1110
1101
0111
,
1110
0000
0040
0030
0111
0000
0004
0003
1000
0000
0010
0000
1000
0000
0010
0000
,
1110
1101
0111
1110
,
1011
0000
0111
0000
1101
0000
1000
1000
,
1110
0111
1101
1110
,
0111
0000
0004
0003
4000
3000
0000
0000
1101
0000
0004
0003
0400
0300
0040
0030
,
0111
1101
1110
0111
,
1011
0000
1110
0000
1101
0000
1000
1000
,
1110
0111
1101
1110
,
0111
0000
0004
0003
1101
0000
4000
3000
0004
0000
0000
0000
0043
0030
0400
0300
,
1000
0000
0001
0000
0100
0000
0010
1000
0010
0000
0100
0000
0001
0000
1000
0100
,
0010
0000
0001
0000
0100
0000
0001
1000
0010
0000
0100
0000
0001
0000
0010
0001
,
1000
0000
0010
0000
0100
0000
0001
1000
0100
0000
0010
0000
0001
0000
0100
0010
,
1000
0000
0001
0000
0010
0000
0100
1000
0010
0000
0100
0000
0010
0000
1000
0001
,
1000
0000
0010
0000
0100
0000
0001
0010
0100
0000
1000
0000
0001
0000
0100
0010
,
0100
0000
0001
0000
1000
0000
0001
0100
0001
0000
1000
0000
0100
0000
0010
0001
,
1000
0000
0010
0000
0100
0000
0001
0100
0010
0000
1000
0000
0100
0000
0010
0001
,
1000
0000
0010
0000
0100
0000
0010
1000
0100
0000
0010
0000
0001
0000
1000
0010
,
1100
1011
1110
0111
,
1011
0000
1101
0000
0111
0000
0001
0001
,
1101
1110
0111
1101
,
1011
0000
0004
0003
0040
0030
0000
0000
0111
0000
0004
0003
4000
3000
0040
0030
,
1110
0111
1101
1110
,
0111
0000
1011
0000
0111
0000
0001
0001
,
1101
1110
0111
1101
,
1110
0000
0040
0030
1011
0000
4000
3000
0004
0000
0000
0000
0403
0300
0040
0030
,
4000
3000
4000
3400
0340
0034
4003
3040
,
0430
0300
0400
0304
4003
3400
0340
0034
,
0043
0030
0040
0430
4300
3004
0403
0340
,
0430
0300
0400
0304
4003
3400
0340
0034
,
4003
3000
4000
3040
0430
0304
0043
0430
,
0340
0030
0040
0034
4003
3004
0403
0304
,
0403
0340
0430
0304
0043
0430
4300
3004
,
0403
0300
0400
0304
4003
3400
0340
0034
,
0043
0430
0340
0034
4003
3040
0430
0340
,
4030
3400
0340
0034
4003
3004
0403
0340
,
0430
0300
0400
0340
4030
3004
0043
0034
,
4003
3000
4000
3400
0340
0034
0403
0304
,
0043
0030
0040
0430
4300
3004
0403
0340
,
0430
0300
0400
0304
4003
3400
0340
0034
,
4003
3000
4000
3040
0430
0340
4030
3004
,
0043
0000
0030
0000
0040
0000
0430
0000
4300
0000
3004
0000
0403
0000
0304
0003
,
1101
1011
1110
0111
,
1011
0000
1101
0000
0111
0000
0001
0001
,
1101
1110
0111
1101
,
1011
0000
0004
0003
0040
0030
0000
0000
0111
0000
0004
0003
4000
3000
0040
0030
,
1110
0111
1101
1110
,
0111
0000
1011
0000
0111
0000
0001
0001
,
1101
1110
0111
1101
,
1110
0000
0040
0030
1011
0000
4000
3000
0004
0000
0000
0000
0403
0300
0040
0030
,
1001
1100
1001
1010
,
0011
0000
0101
0000
1100
0000
1000
1000
,
1001
1010
0110
1001
,
1100
0000
0400
0000
0340
0000
0030
0000
0011
0000
0001
1000
0001
1000
0010
0000
,
0110
1001
1010
0011
,
1001
0000
1100
0000
0101
0000
0001
0001
,
0011
0110
1001
1100
,
0101
0000
0004
0000
0013
0000
0400
0000
1300
0001
1000
0001
0100
0010
1000
0001
,
1100
1011
1110
0111
,
1011
0000
1101
0000
0111
0000
0001
0001
,
1101
1110
0111
1101
,
1011
0000
0004
0003
0040
0030
0000
0000
0111
0000
0004
0003
4000
3000
0040
0030
,
1110
0111
1101
1110
,
0111
0000
1011
0000
0111
0000
0001
0001
,
1101
1110
0111
1101
,
1110
0000
0040
0030
1011
0000
4000
3000
0004
0000
0000
0000
0403
0300
0040
0030
,
0111
1011
1110
0111
,
1011
0000
1101
0000
0111
0000
0001
0001
,
1101
1110
0111
1101
,
1011
0000
0004
0003
0040
0030
0000
0000
0111
0000
0004
0003
4000
3000
0040
0030
,
1110
0111
1101
1110
,
0111
0000
1011
0000
0111
0000
0001
0001
,
1101
1110
0111
1101
,
1110
0000
0040
0030
1011
0000
4000
3000
0004
0000
0000
0000
0403
0300
0040
0030
,
1000
0000
0001
0000
0100
0000
0010
1000
0001
0000
0010
0000
0100
0000
1000
0100
,
0010
0011
0000
1001
,
0000
1100
0000
0110
,
0000
0011
0000
1001
,
1000
0000
0010
0000
0100
0000
0001
0010
0100
0000
0010
0000
0001
0000
0100
0010
,
1000
1001
0000
1100
,
0000
0101
0000
1001
,
0000
1100
0000
0011
,
0001
0000
1000
0000
0100
0000
1000
0100
0010
0000
0001
0000
0100
0000
0010
1000
,
0100
0110
0000
1001
,
0000
1100
0000
0011
,
0000
1001
0000
1100
,
0100
0000
0010
0000
0001
0000
1000
0010
0100
0000
0001
0000
1000
0000
0100
0010
,
0001
1001
0000
1100
,
0000
0110
0000
1001
,
0000
1100
0000
0011
,
0001
1000
0010
0100
0001
1000
0100
0010
,
0100
1000
0001
0100
0010
1000
0001
1000
,
0001
0010
0100
1000
0100
0010
0001
1000
,
0010
0100
0010
1000
0001
0010
0100
0010
,
0001
1000
0010
1000
0001
0100
0010
1000
0100
0010
0001
1000
0001
1000
0010
0100
,
0001
0010
0100
1000
0001
1000
0100
0010
0001
0100
0010
1000
0001
1000
0010
0100
,
0001
1000
0001
0010
0100
1000
0100
1000
0010
1000
0001
0010
0100
1000
0001
1000
,
0001
0000
0000
0001
0000
0000
1000
0100
0010
0000
0001
0100
0010
0000
4000
3000
,
1101
1011
1110
0111
,
1011
1110
1011
1101
,
0111
1101
1110
1011
,
0111
0000
1110
0000
1101
0000
1000
1000
,
1110
1011
1110
1101
,
0111
0000
1011
0000
1110
0000
1000
1000
,
1011
1110
0111
1011
,
1110
0000
0040
0030
1101
0000
4000
3000
0004
0000
0000
0000
0043
0030
0400
0300
,
1110
0111
1101
1011
,
1110
0000
1011
0000
0111
0000
0001
0001
,
1011
0111
1110
1101
,
0111
0000
0004
0003
4000
3000
0000
0000
1110
0000
0040
0030
0400
0300
0004
0003
,
1011
1110
0111
1110
,
1101
0000
0111
0000
1101
0000
0001
0001
,
0101
1010
0011
0110
,
1001
0000
1010
0000
1100
0000
1000
1000
,
1101
1011
1110
0111
,
1011
0000
1110
0000
1011
0000
0001
0001
,
0111
1101
1110
1011
,
0111
0000
0004
0003
4000
3000
0000
0000
1101
0000
0004
0003
0040
0030
0400
0300
,
1101
1011
1110
1101
,
0111
0000
1011
0000
1110
0000
1000
1000
,
1011
1110
0111
1011
,
1110
0000
0040
0030
1101
0000
4000
3000
0004
0000
0000
0000
0043
0030
0400
0300
,
1010
1001
1100
0011
,
1001
0000
1010
0000
0101
0000
0001
0001
,
1001
0011
1100
0101
,
0110
0000
0040
0000
4030
0000
3000
0000
1001
0000
0001
1000
0100
0010
0001
0000
,
0011
0110
1001
1100
,
0101
0000
0011
0000
1001
0000
1000
1000
,
1100
0101
0011
1001
,
1010
0000
0040
0000
1030
0000
0004
0000
0013
0100
1000
0100
0010
0001
4000
3000
,
1111
0000
0001
0000
1000
0000
0001
0010
0100
0000
0010
0000
0001
0000
1000
0000
,
0010
0000
0100
0000
0001
0000
1000
0010
1000
0000
0010
0000
0100
0000
0001
0000
,
1000
0000
0100
0000
0010
0000
0001
1000
0001
0000
0100
0000
0010
0000
1000
0000
,
0001
0000
1000
0000
0100
0000
0010
0001
0100
0000
0010
0000
0100
0000
0001
0000
,
1000
0000
0001
0000
0010
0000
0100
1000
0001
0000
1000
0000
0010
0000
0000
0000
,
0000
0000
0000
0000
0000
0000
0000
0000
0000
0000
0000
0000
0M00
0000
0000
0000
0000
0000
0000
0000
0000
0000
0000
0000
0000
0000
0000
0000
0000
0000
0000
0M00
,
0000
0000
0000
0000
0000
0000
0000
0000
0000
0000
0000
0000
0000
0000
0000
0000
0000
0000
0000
0M00
0000
0000
0000
0000
0000
0000
0000
0000
0000
0000
0000
0000
,
0000
0000
0M00
0000
0000
0000
0000
0000
0000
0000
0000
0000
0000
0000
0000
0000
0000
0M00
0000
0000
0000
0000
0000
0000
0M00
0000
0000
0000
0000
0000
0000
0000
;
