#TITLE:Bring Me to Life;
#SUBTITLE:There's a Trick;
#ARTIST:Rochelle;
#TITLETRANSLIT:;
#SUBTITLETRANSLIT:;
#ARTISTTRANSLIT:;
#CREDIT:;
#BANNER:../fallback-bn.png;
#BACKGROUND:../fallback-bg.png;
#LYRICSPATH:;
#CDTITLE:monst3rjoe - cdtitle.png;
#MUSIC:Rochelle - Bring Me to Life.ogg;
#OFFSET:-0.007;
#SAMPLESTART:30.061;
#SAMPLELENGTH:15.960;
#SELECTABLE:YES;
#BPMS:0.000=33.750,8.000=67.500,26.000=135.000,58.000=270.000,62.000=135.000,126.000=67.500,128.000=135.000,160.000=67.500,184.000=135.000;
#STOPS:58.000=0.111
,58.500=0.111
,59.000=0.111
,59.500=0.111
,60.000=0.056
,60.250=0.056
,60.500=0.056
,60.750=0.056
,61.000=0.056
,61.250=0.056
,61.500=0.056
,61.750=0.056
;
#BGCHANGES:;
// cache tags:
#FIRSTBEAT:0.250;
#LASTBEAT:220.000;
#SONGFILENAME:Songs/SSSC PACK/[Monst3rjoe] - Bring Me to Life/Bring Me to Life.sm;
#HASMUSIC:1;
#HASBANNER:1;
#MUSICLENGTH:132.539;
// end cache tags

//---------------dance-single - Monst3rjoe----------------
#NOTES:
     dance-single:
     Monst3rjoe:
     Challenge:
     12:
     0.771,0.851,0.279,0.521,1.000,608.000,37.000,69.000,212.000,9.000:



0000
00M0
0M00
000M
M000
0M00
0000
0M00
000M
0000
00M0
0000
M000
0000
M000
0000
,
00M0
0000
0000
0000
0000
0000
0M00
0000
0000
0000
0000
0000
000M
0000
0000
0000
0000
0000
0000
0000
0MM0
0000
0000
0000
0000
0000
0000
0000
0M00
0000
0000
0000
M000
0000
0000
0000
000M
0000
0000
0000
0000
0000
00M0
0000
0000
0M00
0000
0000
,
0001
0000
0010
0000
0100
1000
0000
0010
0100
0000
0010
0000
0100
0001
0000
0010
0100
0000
1000
0000
0001
0100
0000
0010
1000
0000
0100
0000
1000
0001
0000
0100
,
0010
0000
0100
0000
0010
1000
0000
0100
0010
0000
0001
0000
1000
0010
0000
0100
0001
0000
0010
0000
0001
1000
0000
0010
0100
0000
0001
0000
1000
0010
0000
0100
,
0001
0000
0010
0000
0100
1000
0000
0001
0010
0000
0001
0000
0100
0010
0000
1000
0010
0000
0100
0000
0001
0010
0000
0100
1000
0000
0001
0000
0100
0010
0000
1000
,
0001
0000
0100
0000
0001
1000
0000
0100
0010
0000
0001
0000
0010
0100
0000
1000
0001
0000
0100
0000
0010
1000
0000
0010
0100
0000
0001
0000
1000
0001
0000
1000
,
0200
0000
0000
0000
0000
0300
0000
0M00
0011
0000
1000
0000
0101
0000
0100
0010
,
1000
0100
1000
0001
0010
0001
0100
0010
0110
0000
1000
0000
0011
0000
0010
0100
,
1000
0010
0100
0001
0010
0001
1000
0100
1100
0000
0001
0000
0101
0000
0100
0001
,
0010
0100
1000
0010
0100
0001
1000
0100
2000
0000
0000
0000
0200
0000
0000
0000
,
0002
0000
0000
0000
0010
0000
0000
0000
3313
0000
0001
0000
0100
0000
0010
1000
,
0100
1000
0100
0010
0001
0100
0001
0100
0010
1000
0100
1000
0001
0100
0001
1000
,
0010
0000
0000
0100
0000
0000
0001
0000
0000
0010
0000
0000
0100
0000
0000
1000
0000
0000
0001
0000
0000
1000
0000
0000
0002
0000
0000
0000
0000
0000
0000
0000
0000
0000
0000
0000
2010
0000
0000
0000
0000
0000
0003
0000
3000
0200
0000
0000
,
M0MM
0310
0001
0100
0202
0000
0020
0000
,
2000
0000
0000
0030
0020
0000
3333
0000
0M02
0003
0M02
0003
M020
0030
M020
0030
,
0100
1000
0M01
1000
02M0
0302
0203
0320
013M
1000
0001
0010
0100
1000
0001
0010
,
0001
0100
0010
1000
0100
1000
0010
0100
0001
0100
0010
0100
10M0
0100
M010
0100
,
10M0
0100
M010
0100
0001
1000
0010
0100
0001
0010
0001
0100
0010
1000
0100
1000
,
0001
0010
0001
0100
0010
1000
0001
0010
0100
0010
0100
1000
0100
0010
0100
00M1
,
0100
001M
0100
00M1
0100
001M
0100
1000
0001
0010
0100
0010
0001
0100
0010
1000
,
0100
1000
0001
0100
0001
0010
0100
1000
0001
0010
0100
0010
1M00
0010
M100
0010
,
1M00
0010
M100
0010
0001
0010
0100
1000
0001
0100
0010
1000
0010
0100
0001
0010
,
0100
0010
0001
1000
0010
0100
0001
1000
0010
0100
0010
0M01
0010
010M
0010
0M01
,
0010
010M
0010
1000
0001
0100
0001
1000
0100
0000
0010
0000
0001
0000
1000
0000
,
0010
0000
0200
0302
0103
0000
0200
0302
0103
0000
0010
0000
1000
0000
0100
0000
,
1000
0000
0002
0023
0031
0000
0002
0023
0031
0000
0100
0000
0010
0000
0100
0000
,
0001
0000
2000
3200
1300
0000
2000
3200
1300
0000
0100
0000
0010
0000
0001
0000
,
0100
0000
0020
2030
3010
0000
0020
2030
3010
0000
0100
0000
0101
0000
0001
0000
,
0100
0000
0020
2030
3010
0000
0020
2030
3010
0000
0100
0000
0001
0000
0010
0000
,
0001
0000
2000
3200
1300
0000
2000
3200
1300
0000
0010
0000
0100
0000
0010
0000
,
1000
0000
0002
0023
0031
0000
0002
0023
0031
0000
0010
0000
0100
0000
1000
0000
,
0010
0000
0000
0000
0000
0000
0000
0000
0000
0000
0000
0000
0000
0000
0000
0000
0000
0000
0000
0000
0000
0000
0000
0000
0200
0000
0000
0000
0000
0000
0000
0000
0000
0000
0000
0000
0302
0000
0000
0000
0000
0000
0000
0000
0000
0000
0000
0000
0103
0000
0000
0000
0000
0000
0000
0000
0000
0000
0000
0000
0000
0000
0000
0000
0000
0000
0000
0000
0000
0000
0000
0000
0010
0000
0000
0000
0000
0000
0000
0000
0000
0000
0000
0000
2000
0000
0000
0000
0000
0000
0000
0000
0000
0000
0000
0000
00M0
0000
0000
0000
0000
0000
0000
0000
0000
0000
0000
0000
0000
0000
0000
0000
0000
0000
0000
0000
0000
0000
0000
0000
0000
0000
0000
0000
0000
0000
0000
0000
0000
0000
0000
0000
0000
0000
0000
0000
0000
0000
0000
0000
0000
0000
0000
0000
0000
0000
0000
0000
0000
0000
0MM0
0000
0000
0000
0000
0000
3000
0000
0000
0000
0000
0000
0000
0000
0000
0000
0000
0000
0MM0
0000
0000
0000
0000
0000
0000
0000
M00M
0000
0000
0000
0000
0000
0000
0000
0000
0000
0000
0000
0000
0000
0000
0000
,
1001
0001
0010
0100
1000
0010
0100
0001
1000
0100
0010
0001
0100
0010
1000
MM0M
,
1010
0010
0100
0001
1000
0010
0100
0010
1000
0001
0010
0100
0010
0001
1000
M0MM
,
1100
0100
1000
0010
0100
0001
0010
0001
0100
0010
1000
0001
0010
0100
1000
MMM0
,
0101
0001
1000
M0MM
1100
0100
0010
MMM0
0011
0001
0100
MM0M
0110
0010
M100
0000
,
0102
0003
0001
0000
1MMM
0000
0000
0000
1200
0300
0001
0000
0010
0000
0001
0000
0100
0000
0010
0000
1000
0000
0100
0000
0010
0000
0001
0000
0100
0000
MM0M
0000
,
1020
0030
0010
0000
0100
0000
MMM0
0000
1002
0003
0001
0000
0010
0000
0100
0000
1000
0000
0010
0000
0100
0000
0001
0000
1000
0000
0100
0000
0010
0000
MMM0
0000
,
0011
0001
0100
MM0M
0110
0010
1000
0100
0010
0001
0100
0010
1000
0001
0100
0010
,
2000
0000
0200
0000
0020
0000
0002
3333
,
MM11
0001
MMMM
0100
MMMM
0010
MMMM
1000
,
MMMM
0100
MMMM
0010
MMMM
0100
MMMM
1000
,
MMMM
0001
MMMM
0010
MMMM
0001
MMMM
0010
,
MMMM
0000
0000
0000
0000
0000
0000
0000
0000
0000
0000
0000
0000
0000
0000
0000
0000
0000
0000
0000
0000
0000
0000
0000
0100
0000
0000
0000
0000
0000
0000
0000
0000
0000
0000
0000
0000
0000
0000
0000
0000
0000
0000
0000
0000
0000
0000
0000
MMMM
0000
0000
0000
0000
0000
0000
0000
0000
0000
0000
0000
0000
0000
0000
0000
0000
0000
0000
0000
0000
0000
0000
0000
1000
0000
0000
0000
0000
0000
0000
0000
0000
0000
0000
0000
0000
0000
0000
0000
0000
0000
0000
0000
0000
0000
0000
0000
MMMM
0000
0000
0000
0000
0000
0000
0000
0000
0000
0000
0000
0000
0000
0000
0000
0000
0000
0000
0000
0000
0000
0000
0000
0001
0000
0000
0000
0000
0000
0000
0000
0000
0000
0000
0000
0000
0000
0000
0000
0000
0000
0000
0000
0000
0000
0000
0000
0000
MMMM
0000
0000
0000
0000
0000
0000
0000
0000
0000
0000
0000
0000
0000
0000
0000
0000
0000
0000
0000
0000
0000
0000
4000
0000
0000
0000
0000
0000
0000
0000
0000
0000
0000
0000
0000
0000
0000
0000
0000
0000
0000
0000
0000
0000
0000
0000
,
0000
0000
0000
0000
,
0000
3000
0000
0000
0000
0000
0000
0000
0000
0000
0000
0000
0000
0000
0000
0000
0000
0000
0000
0000
0000
0000
0000
0000
0000
0000
0000
0000
0000
0000
0000
0000
0000
0000
0000
0000
0000
0000
0000
0000
0000
0000
0000
0000
0000
0000
0000
0000
0MMM
0000
0000
0000
0000
0000
0000
0000
0000
0000
0000
0000
0000
0000
0000
0000
0000
0000
0000
0000
0000
0000
0000
0000
0000
0000
0000
0000
0000
0000
0000
0000
0000
0000
0000
0000
0000
0000
0000
0000
0000
0000
0000
0000
0000
0000
0000
0000
MMM0
0000
0000
0000
0000
0000
0000
0000
0000
0000
0000
0000
0000
0000
0000
0000
0000
0000
0000
0000
0000
0000
0000
0000
0000
0000
0000
0000
0000
0000
0000
0000
0000
0000
0000
0000
0000
0000
0000
0000
0000
0000
0000
0000
0000
0000
0000
0000
0MM0
0000
0000
0000
0000
0000
0000
0000
0000
0000
0000
0000
0MM0
0000
0000
0000
0000
0000
0000
0000
0000
0000
0000
0000
0M00
0000
0000
0000
0000
0000
0000
0000
0000
0000
0000
0000
00M0
0000
0000
0000
0000
0000
0000
0000
0000
0000
0000
0000
,
1001
1000
0100
0010
0001
0100
0010
1000
0001
0010
0100
1000
0010
0100
0001
M0MM
,
0101
0100
0010
1000
0001
0100
0010
0100
0001
1000
0100
0010
0100
1000
0001
MM0M
,
0011
0010
0001
0100
0010
1000
0100
1000
0010
0100
0001
1000
0100
0010
0001
0MMM
,
1010
1000
0001
MM0M
0011
0010
0100
0MMM
1100
1000
0010
M0MM
0110
0100
001M
0000
,
2010
3000
1000
0000
MMM1
0000
0000
0000
0021
0030
1000
0000
0100
0000
1000
0000
0010
0000
0100
0000
0001
0000
0010
0000
0100
0000
1000
0000
0010
0000
M0MM
0000
,
0201
0300
0100
0000
0010
0000
0MMM
0000
2001
3000
1000
0000
0100
0000
0010
0000
0001
0000
0100
0000
0010
0000
1000
0000
0001
0000
0010
0000
0100
0000
0MMM
0000
,
1100
1000
0010
M0MM
0110
0100
0001
0010
0100
1000
0010
0100
0001
1000
0010
0100
,
0020
0000
0000
0000
0000
0000
0000
0000
0000
0000
0000
0000
0000
0000
0000
0000
0000
0000
0000
0000
0000
0000
0000
0000
MM3M
0000
0000
0000
0000
0000
0000
0000
0000
0000
0000
0000
0000
0000
0000
0000
0000
0000
0000
0000
0000
0000
0000
0200
00M0
0000
0000
0000
0000
0000
0000
0000
0000
0000
0000
0000
0000
0000
0000
0000
0000
0000
0000
0000
0000
0000
0000
0000
M3MM
0000
0000
0000
0000
0000
0000
0000
0000
0000
0000
0000
0000
0000
0000
0000
0000
0000
0000
0000
0000
0000
0000
0000
0M02
0000
0000
0000
0000
0000
0000
0000
0000
0000
0000
0000
0000
0000
0000
0000
0000
0000
0000
0000
0000
0000
0000
0000
MMM3
0000
0000
0000
0000
0000
0000
0000
0000
0000
0000
0000
0000
0000
0000
0000
0000
0000
0000
0000
0000
0000
0000
0000
000M
0020
0000
0000
0000
0000
0000
0000
0000
0000
0000
0000
0000
0000
0000
0000
0000
0000
0000
0000
0000
0000
0000
0000
MM0M
0000
0000
0000
0000
0000
0000
0000
0000
0000
0000
0000
0000
0030
0000
0000
0000
0000
0000
0000
0000
0000
0000
0000
,
20M2
0000
0000
0000
,
3003
0000
0000
0000
;
