#TITLE:CRISIS BEAT;
#SUBTITLE:Otome Crisis OP theme;
#ARTIST:Rita;
#TITLETRANSLIT:;
#SUBTITLETRANSLIT:;
#ARTISTTRANSLIT:;
#CREDIT:;
#BANNER:CRISIS BEAT.png;
#BACKGROUND:CRISIS BEAT.jpg;
#LYRICSPATH:;
#CDTITLE:cdtitle.png;
#MUSIC:CRISIS BEAT.mp3;
#OFFSET:-0.045;
#SAMPLESTART:44.000;
#SAMPLELENGTH:12.000;
#SELECTABLE:YES;
#BPMS:0.000=145.000;
#STOPS:;
#BGCHANGES:2.125=CRISIS BEAT.avi=1.000=0=0=1,
99999=-nosongbg-=1.000=0=0=0 // don't automatically add -songbackground-
;
// cache tags:
#FIRSTBEAT:4.000;
#LASTBEAT:240.000;
#SONGFILENAME:Songs/alice 4th complete step/CRISIS BEAT/CRISIS BEAT.sm;
#HASMUSIC:1;
#HASBANNER:1;
#MUSICLENGTH:101.048;
// end cache tags

//---------------dance-single - ----------------
#NOTES:
     dance-single:
     :
     Hard:
     8:
     0.587,0.650,0.178,0.307,0.049,366.000,18.000,31.000,0.000,0.000:
0000
0000
0000
0000
,
0001
1000
0010
1000
0100
0010
0001
1000
,
0020
0100
1030
0000
0020
0100
1030
0000
,
0002
0010
1003
0000
0002
0010
1003
0000
,
0200
0001
0310
0000
0200
0001
0310
0000
,
2000
0001
3010
0000
2000
0100
3001
0010
,
0200
1000
0310
0000
0200
1000
0310
0000
,
0002
1000
0013
0000
0002
1000
0013
0000
,
0200
0010
0301
0000
0200
0001
0310
0000
,
1000
0100
0010
0001
0100
1000
0100
0010
,
0100
0100
0100
0100
,
0100
0100
0100
0100
,
0001
0001
0001
0001
,
1000
1000
1000
1000
,
0010
0010
0010
0010
,
0010
0010
0010
0010
,
1000
0001
0100
0010
,
2000
0000
0000
0000
0000
0000
0000
0000
3000
0000
0001
0100
0001
0100
0010
1000
,
0100
0010
0100
1000
0100
0010
0100
1000
,
0001
0010
0001
0100
0001
0010
0001
0100
,
0010
1000
0010
0100
0010
1000
0010
0100
,
0001
1000
0100
0010
0001
0100
0010
1000
,
0001
0100
0101
0010
1000
0100
1100
0010
,
0001
1000
1001
0100
0010
1000
1100
0010
,
0001
0100
1000
0100
0001
0010
0100
1000
,
0010
1000
0100
0010
0100
1000
0001
0100
,
0020
0000
0000
0000
0000
0000
0000
0000
0030
0000
0100
0001
1000
0010
1000
0010
,
0100
0001
1001
0100
0110
0000
0100
1000
,
0010
0001
0010
1000
0200
0010
0310
0000
,
0001
1000
0001
1000
0100
0010
0100
1000
,
0020
0031
0020
0130
0020
1030
0200
0310
,
0100
1000
1001
0100
0010
1000
0001
1000
,
0100
0010
0110
0001
1000
0010
1000
0001
,
0100
1000
0100
0020
0030
0100
0001
0020
,
0030
0100
1000
0001
0100
1000
0100
0010
,
1000
0001
1001
0010
0110
0000
0010
0001
,
0100
0000
1000
0000
0100
0000
0001
0000
0020
0000
0100
0000
0130
0000
1000
0100
,
1000
0001
1000
0100
0010
0100
1000
0001
,
0100
1000
0001
0010
1000
0100
0010
0001
,
0200
1000
0010
0301
,
1000
0100
0010
0001
1000
0001
0010
0100
,
1000
0001
1000
0010
0100
0001
1000
0001
,
0100
0010
1000
0001
0010
0100
0010
0100
,
1000
0000
1100
0000
0001
0000
0101
0010
,
0000
0100
0010
0100
1000
0001
0100
0000
,
0001
0000
0101
0000
1000
0000
1100
0010
,
0000
0100
0010
0100
1000
0001
0100
0010
,
1000
0000
1100
0000
0001
0000
0011
0100
,
0000
1000
0010
0100
0001
0010
0100
0000
,
2000
0100
3100
0000
0002
0100
0103
0000
,
1020
0000
0100
1030
2002
3003
0100
0010
,
1000
0001
1000
0100
,
1000
0000
1000
0010
,
0100
0000
0100
0001
,
0010
0000
0100
1000
0000
0000
0001
0100
,
0001
1000
0010
0100
,
0001
0000
0000
0001
0010
0000
0000
0010
0100
0000
1000
0000
0000
0000
0000
0000
,
0100
0000
0001
1000
0001
0000
0000
0000
,
0100
0000
0010
0001
0000
0000
0000
0000
,
1000
0010
0200
0000
0000
0000
0000
0000
0000
0000
0000
0000
0300
0000
0000
0000
;

//---------------dance-single - Copied from----------------
#NOTES:
     dance-single:
     Copied from:
     Challenge:
     14:
     1.000,1.000,1.000,0.277,1.000,645.000,134.000,28.000,0.000,13.000:
0000
0000
0000
0000
,
1100
0000
0001
0000
1100
0000
0010
0010
1100
0001
0001
0001
1000
0010
0100
0001
,
1001
0100
0010
0100
1000
0001
0100
0010
0001
0100
1000
0100
0001
1000
0010
0100
,
1001
0010
1000
0001
0100
0010
0101
1000
0010
0100
0001
0010
1100
0001
1000
0010
,
0101
1000
0010
0100
0001
1000
0100
0010
1000
0001
0100
0010
1000
0001
0100
0010
,
0011
1000
0001
0100
0011
1000
0100
1000
1001
0100
0010
1000
0101
1000
0010
0100
,
1001
0010
0100
0001
1100
0010
1000
0100
0001
0010
0100
1000
0011
0100
0001
0010
,
1000
0100
0001
0100
1010
0100
0001
0010
1000
0001
0100
1000
0011
0100
0001
0010
,
1001
0100
0010
0100
0011
1000
0010
0100
1000
0010
0001
0010
0101
1000
0010
0100
,
1001
0100
1000
0010
0100
1000
0010
0001
1000
0100
0010
0001
1000
0010
0100
0001
,
1000
0001
1000
0001
,
1000
0010
0100
0001
,
1000
0001
1000
0001
,
1000
0010
0100
1000
,
0001
1000
0001
1000
,
0001
0100
0010
0001
,
0100
0001
1000
0010
,
0200
0000
0000
0000
0000
0000
0000
0000
0300
0000
0010
0100
0001
1000
0001
1000
,
0011
1000
0101
1000
0010
1000
0101
1000
,
0110
0001
1100
0001
0010
0001
1100
0001
,
0101
1000
0011
0100
1100
0001
1010
0100
,
1001
0010
0101
0010
1001
0100
1010
0100
,
1002
0010
1100
0013
1200
0010
1001
0310
,
2001
0100
0011
3100
0012
1003
2100
3010
,
1001
0100
1010
0001
0101
1000
0011
0100
,
1001
0010
0101
0010
1000
0001
1100
0010
,
0200
0000
0000
0000
0000
0000
0000
0000
0000
0000
0000
0000
0000
0000
0000
0000
0000
0000
0300
0000
1000
0010
0001
0000
0100
0000
0010
0000
0100
0000
0010
0000
,
1001
0100
1000
0100
0011
1000
0010
0100
1001
0010
0001
0010
1100
0001
0100
0010
,
1001
0100
0001
0100
1010
0100
0001
0010
1001
0100
1000
0100
0011
1000
0001
0100
,
1010
0100
0001
0100
1001
0100
0010
0100
1001
0010
0100
1000
0011
0100
0010
0100
,
1001
0010
0001
0010
0101
1000
0100
0010
1001
0100
0001
0010
2001
0100
0001
3010
,
1100
0000
0001
0000
1001
0000
0100
0010
1000
0100
0001
0100
0011
1000
0100
0010
,
0001
0000
1000
0000
1001
0000
0200
0001
0320
0001
1030
0001
0100
0010
1000
0001
,
2002
0000
0100
0000
3113
0000
2201
0000
0010
0001
3010
0000
1301
0000
0202
0000
,
0010
0000
1000
0303
0011
0000
1100
0000
0010
0000
0100
1001
0100
0000
0010
0000
,
0101
1000
0100
1000
0011
0100
0001
0010
1001
0100
0010
1000
0101
1000
0010
0100
,
0001
1000
0010
1000
0011
0100
0001
0010
1000
0100
1000
0010
0101
1000
0010
0100
,
0001
0010
1000
0010
1001
0100
0010
0100
1000
0010
0001
0010
1100
0001
1000
0010
,
0201
1000
0010
1300
0012
0100
0010
1003
0201
0010
1000
0310
2001
0100
0001
3010
,
0102
1000
0100
1000
0010
0100
0010
1000
0100
1000
0100
1000
0010
0100
0010
1003
,
0101
0010
1000
0100
0011
1000
0010
0100
1001
0100
0010
1000
0101
0010
1000
0001
,
0100
0010
0001
0010
1100
0010
1000
0001
0010
0001
0100
0001
1010
0001
0100
0010
,
2001
0000
0000
0000
3200
0000
0000
0000
1320
0000
0000
0000
0032
0000
0000
0000
0103
0000
0000
0000
0001
0010
0100
0000
1000
0000
0100
0000
0010
0000
0001
0000
,
1001
0100
1000
0100
1010
0100
1000
0010
0001
0100
0001
0010
1001
0100
0010
0001
,
0100
1000
0010
0100
1001
0100
0001
0010
1100
0011
1000
0001
0110
1000
0001
0010
,
0101
1000
0001
0010
1001
0100
0001
0010
1000
0100
0001
0100
0011
1000
0001
0010
,
0100
1000
0010
0100
1001
0100
0001
0010
1100
0011
0100
0010
1001
0100
0010
1000
,
1001
0100
0001
0010
0101
0010
0001
0100
1000
0010
1000
0100
1001
0010
0100
1000
,
0010
0001
0100
0010
1001
0010
1000
0100
0011
1100
0001
1000
0110
0001
1000
0100
,
0011
1000
0010
1000
0101
1000
0010
0100
1001
0010
1000
0010
1100
0001
1000
0100
,
0011
1000
0010
0100
0010
0001
0010
0100
2000
0010
0100
0001
0010
0001
0100
3010
,
0001
0100
1010
0100
,
1001
0000
0011
0100
,
0101
1000
1010
0100
,
1001
0000
0100
0010
0000
1000
0100
0001
,
1010
0000
1000
0001
0000
0000
0000
0000
,
0010
0000
0000
0100
0001
0000
0000
0010
0001
0000
1000
0000
0000
0000
0000
0000
,
0110
0000
1000
0100
0010
0000
0000
0000
,
1010
0000
0001
0200
0000
0000
0000
0300
,
1000
0100
0010
0002
0000
0000
0000
0000
0000
0000
0000
0000
0000
0000
0000
0000
0000
0000
0000
0000
0000
0000
0000
0000
,
0003
0000
0000
0000
;

//---------------dance-single - ----------------
#NOTES:
     dance-single:
     :
     Medium:
     6:
     0.478,0.501,0.307,0.198,0.000,287.000,31.000,20.000,0.000,0.000:
0000
0000
0000
0000
,
1100
0000
0101
0000
1000
0001
0100
0001
,
1000
0100
1000
0100
0010
0100
1000
0000
,
0001
0100
0001
0100
0010
0100
0001
0000
,
1000
0100
0010
0100
1000
0010
0100
0000
,
0001
0011
1000
1010
,
0100
0001
0100
0001
0010
0001
0100
0000
,
0010
1000
0010
1000
0100
1000
0010
0000
,
0100
0001
1000
0100
1000
0001
0010
0000
,
1000
0100
0010
0002
0000
0000
0000
0003
,
0100
1000
0100
0001
,
0100
1000
0100
0001
,
1000
0010
1000
0100
,
1000
0010
1000
0100
,
0001
0010
0001
0100
,
0001
0010
0001
0100
,
0001
0100
1000
0100
,
0020
0000
0000
0030
,
1000
1100
0001
0101
,
1000
0100
1000
0000
0001
0010
0001
0000
,
1000
0110
0001
0110
,
1000
0000
0101
0000
0001
0010
0100
0000
,
2010
3100
0012
1003
,
0201
0310
1000
0001
,
0020
0100
0001
0130
,
2000
0010
0100
3010
,
1001
0000
0100
0010
,
1100
0101
1001
0100
,
0010
0001
0100
0001
0010
0100
1000
0000
,
0010
1000
0010
1000
0001
1000
0100
1000
,
0020
0030
0200
0300
0002
0003
2000
3000
,
0100
0010
0010
0000
0110
0000
1001
0000
,
0001
0100
0100
0000
1001
0000
1010
0000
,
0100
0010
0001
1000
0000
0010
0001
0100
,
0000
0010
1000
0001
1000
0010
0100
0000
,
0101
1100
1001
0100
,
0010
1000
0100
1000
0010
0100
0001
0000
,
0010
0001
0010
0001
1000
0001
0100
0001
,
2000
3000
0020
0030
0200
0300
0002
0003
,
1000
0100
1000
0100
0010
0100
1000
0010
,
0100
0001
0100
0001
0010
0001
1000
0010
,
0200
0301
0020
1030
,
0100
1000
0100
0010
0001
0100
1000
0100
,
0010
0000
0110
0000
1000
0100
1000
0000
,
0010
0000
0110
0000
0001
0100
0001
0000
,
1000
1100
0001
0101
,
1000
0000
0010
0000
0100
0001
0010
0100
,
1000
0000
0011
0000
0100
0001
0100
0000
,
0010
0000
1100
0000
0010
0001
1000
0000
,
0010
0100
0010
1000
0100
0010
0001
0100
,
0010
0100
1001
0010
,
0100
1000
0010
0100
,
0001
0000
1000
0000
,
0100
0000
1000
0001
,
0100
0000
0000
0010
0000
0000
0100
0001
,
1000
0000
0100
0010
0000
0000
0000
0000
,
1001
0000
0010
0000
0000
1000
0000
0000
,
0100
0000
0000
1000
0001
0000
0000
0000
,
0200
0000
0300
0020
0000
0000
0000
0030
,
0002
0000
0003
0000
;

//---------------dance-single - ----------------
#NOTES:
     dance-single:
     :
     Easy:
     3:
     0.290,0.324,0.129,0.178,0.000,174.000,13.000,18.000,0.000,0.000:
0000
0000
0000
0000
,
1000
0001
0001
0100
,
1001
0010
0000
0100
,
0001
1000
0000
0001
,
0100
0010
0000
1000
,
0001
0010
0100
1000
,
0001
0100
0000
1000
,
1000
0010
0000
0010
,
0010
0100
0001
1000
,
0002
0000
0000
0003
,
1000
1000
1000
1000
,
1000
0100
1000
0100
,
0001
0001
0001
0001
,
0001
0100
0001
0100
,
0010
0010
0010
0010
,
0001
1000
0010
0100
,
0001
0100
1000
0100
,
0020
0000
0000
0030
,
1000
1100
1000
0001
,
0100
0101
0001
1000
,
0010
0100
1000
0100
,
0001
0010
0100
0001
,
2000
3000
0002
0003
,
0200
0300
0020
0030
,
2002
0000
0000
3003
,
0220
0000
0000
0330
,
1000
0001
0100
0010
,
0100
0001
1001
0000
,
0010
1000
0100
0000
,
1000
0001
0010
1000
,
0100
0001
1000
0001
,
0200
0000
0000
0300
,
0010
0100
0020
0030
,
0001
0001
1000
1000
,
0001
1000
0010
0000
,
0100
1000
1001
0000
,
0010
0001
0100
0000
,
0001
1000
0010
0001
,
0100
1000
0001
1000
,
0200
0000
0000
0300
,
1000
0010
0001
0010
,
2000
3000
0200
0300
,
0002
0000
2000
3003
,
0110
0000
1000
0100
,
1001
0000
0001
0100
,
1001
0000
0010
0001
,
0100
0010
1000
0000
,
0110
0000
0001
0010
,
1001
0000
1000
0010
,
1001
0000
0100
0000
,
0010
1000
0100
0001
,
0010
0000
0100
0000
,
0010
0000
0100
0000
,
0001
0000
1000
0000
,
0001
0000
1000
0000
,
0010
0000
0100
0000
,
0001
0010
0100
0000
,
1000
0000
0001
0000
,
1000
0010
0100
0000
,
0002
0000
0003
0000
;
