#TITLE:Black Lair;
#SUBTITLE:;
#ARTIST:Sakuzyo;
#TITLETRANSLIT:;
#SUBTITLETRANSLIT:;
#ARTISTTRANSLIT:;
#CREDIT:;
#BANNER:../Zeppelin_bn.png;
#BACKGROUND:../bg_Zeppelin.png;
#LYRICSPATH:;
#CDTITLE:../cdtitle_ZAiA.png;
#MUSIC:Sakuzyo - Black Lair.ogg;
#OFFSET:-0.083;
#SAMPLESTART:74.880;
#SAMPLELENGTH:25.020;
#SELECTABLE:YES;
#BPMS:0.000=154.000;
#STOPS:;
#BGCHANGES:;
// cache tags:
#FIRSTBEAT:3.500;
#LASTBEAT:358.750;
#SONGFILENAME:Songs/Cirque du Zeppelin/Black Lair - [Zaia]/Black Lair.sm;
#HASMUSIC:1;
#HASBANNER:1;
#MUSICLENGTH:141.095;
// end cache tags

//---------------dance-single - 2/5/6/4/16-6/4----------------
#NOTES:
     dance-single:
     2/5/6/4/16-6/4:
     Challenge:
     13:
     1.000,1.000,0.092,0.234,1.000,1070.000,13.000,33.000,0.000,0.000:
0000
0000
0000
0000
0000
0000
0000
0100
,
1001
0000
0001
0000
0010
0000
0001
1000
0010
0000
0100
0000
0001
0000
0010
0100
,
1000
0000
0001
0000
0100
0000
0010
0100
0001
0000
1000
0000
0100
0000
0010
0001
,
1000
0000
0010
1000
0010
0000
0100
0001
1000
0000
0001
0000
0010
0000
0100
0010
,
0001
0000
1000
0000
0001
0000
1000
0010
1000
0000
0001
0100
0001
0000
1000
0000
,
0001
0100
0010
0100
0001
1000
0010
1000
0100
1000
0001
0010
0100
1000
0001
1000
,
0010
0100
0001
1000
0100
0010
0100
1000
0001
0100
0010
0100
0001
0010
0001
1000
,
0100
0010
0100
1000
0010
0100
0001
0010
,
0002
0000
0000
0003
0000
0000
0000
0000
0000
0000
0000
0000
2000
0000
0000
3000
0000
0000
0000
0000
0000
0000
0000
0000
0020
0000
0000
0030
0000
0000
0000
0000
0000
0000
0000
0000
0200
0000
0000
0000
0300
0000
0000
0000
0000
0000
0000
0000
0002
0000
0000
0000
0003
0000
0000
0000
0000
0000
0000
0000
2000
0000
0000
0000
3000
0000
0000
0000
0000
0000
0000
0000
0002
0000
0000
0000
0000
0000
0003
0000
0000
0000
0000
0000
0020
0000
0000
0000
0000
0000
0030
0000
0000
0000
0000
0000
0200
0000
0000
0000
0000
0000
0300
0000
0000
0000
0000
0000
2000
0000
0000
0000
0000
0000
0000
0000
3000
0000
0000
0000
0020
0000
0000
0000
0000
0000
0000
0000
0030
0000
0000
0000
2000
0000
0000
0000
0000
0000
0000
0000
3000
0000
0000
0000
0200
0000
0000
0000
0000
0000
0000
0000
0000
0000
0000
0000
0320
0000
0000
0000
0000
0000
0000
0000
0000
0000
0000
0000
0032
0000
0000
0000
0000
0000
0000
0000
0000
0000
0000
0000
0203
0000
0000
0000
0000
0000
0000
0000
0000
0000
0000
0000
,
0310
1000
0001
1000
0100
1000
0001
0010
0001
1000
0010
0100
0001
1000
0001
1000
,
0100
0010
0001
0100
0010
1000
0100
0010
0100
1000
0001
1000
0010
0100
0001
0010
,
0100
0010
0100
1000
0001
0100
0010
0100
0001
1000
0100
1000
0001
0100
0001
0010
,
0100
1000
0001
1000
0010
0100
0010
1000
0001
0010
0100
1000
0010
1000
0001
1000
,
0010
0100
0010
0100
0002
0000
0000
0000
0013
0100
0010
0100
2000
0000
0000
0000
,
3001
0100
0001
0100
0010
1000
0100
0010
0000
0100
1000
0002
0000
1003
0010
0100
,
0001
0000
0000
0010
0000
0000
0001
0000
0000
1000
0000
0000
0100
0000
0000
1000
0000
0000
0010
0000
0000
1000
0000
0000
0001
0000
0000
0100
0000
0000
0001
0000
0000
1000
0000
0000
0001
0000
0010
0000
0100
0000
1000
0000
0000
0001
0000
0000
,
0100
0000
0000
0110
0000
0000
1010
0000
0000
1001
0000
0000
0001
0000
0010
0000
,
0200
0000
2300
3002
0203
0320
0030
2002
,
0000
0000
0000
0000
0000
0000
0000
3003
,
1000
0001
0100
0010
0000
1000
0000
0001
,
0000
0000
0000
0000
0000
0000
0000
0010
,
0010
0100
1000
0010
0000
0100
0000
0001
,
0000
0000
0010
0000
0001
0000
0100
0000
0001
0000
0000
0010
0000
0000
0100
0000
,
1000
0001
0100
0010
0000
1000
0100
0010
,
0000
0000
0000
0000
0100
1000
0010
0100
0001
0000
0010
0000
0000
0000
0001
1000
,
0020
0000
0000
0000
0130
0000
0000
0000
0101
0000
0001
1000
0000
0000
0001
0000
,
0000
0000
0000
0000
0010
0000
0100
0000
1000
0000
0000
0000
0001
0000
0100
0000
0000
0000
0010
1000
0010
0000
0100
0000
0001
0000
0000
0000
1000
0000
0000
0000
,
0100
1000
0001
0100
0001
1000
0100
1000
0001
0100
0010
1000
0001
0010
0100
0010
,
0001
0100
0010
1000
0001
0100
0001
1000
0010
0100
0001
1000
0100
1000
0001
0010
,
0001
0100
0010
1000
0001
1000
0100
0010
0001
1000
0010
1000
0001
0010
0100
1000
,
0010
1000
0001
0100
0001
1000
0001
0010
0100
0010
0001
1000
0010
0100
0010
1000
,
0100
1000
0001
0010
0001
1000
0010
1000
0001
0010
0100
1000
0001
0100
0010
0100
,
0001
0010
0100
1000
0010
0100
0001
1000
0100
0010
0100
1000
0010
0100
0001
1000
,
0100
0000
0000
0000
1100
0000
0000
1001
,
0001
0000
0100
0000
0000
0000
0001
0000
1000
0000
0000
0000
0001
0000
0010
0000
0000
0000
0001
1000
0001
0000
0100
0000
0010
0000
1000
0001
1000
0000
0100
0000
,
0010
0100
1000
0001
0010
0001
1000
0010
0100
0001
1000
0001
0010
0100
0010
0001
,
1000
0001
0100
0001
0100
0010
1000
0001
1000
0100
0010
0100
1000
0010
0100
0001
,
0010
0100
1000
0001
1000
0010
0100
0010
1000
0001
1000
0100
1000
0001
0100
0001
,
1000
0100
0010
0001
0010
0100
1000
0001
1000
0010
0100
0001
0100
0010
1000
0010
,
0100
0001
0000
1000
0000
0001
0000
0010
0100
1000
0010
1000
0100
1000
0010
1000
,
0001
0000
0000
0000
0010
0000
0000
0000
0100
0000
0000
0000
1000
0000
0000
0000
0001
0000
0000
0000
1000
0000
0000
0000
0010
0000
0000
0100
0000
0000
0001
0000
0000
1000
0000
0000
0200
0000
0000
0000
0000
0000
0000
0000
0000
0000
0000
0000
,
0310
0000
0001
0000
1000
0000
0001
0000
0100
0000
0010
0000
1000
0001
0010
0000
,
0100
0000
1000
0000
0001
0000
0100
0000
0010
0000
0100
0001
0000
1000
0100
0010
,
0001
0000
0000
1000
0000
0000
0001
0000
0000
0100
0000
0000
0001
0000
0000
1000
0000
0000
0001
0000
0000
0010
0000
0000
0100
0000
1000
0000
0001
0000
1000
0000
0000
0010
0000
0000
0100
0000
0000
0001
0000
0000
1000
0000
0010
0000
1000
0000
,
0001
0000
0000
0000
,
0000
0000
0000
0000
,
0000
0000
0000
0000
,
0000
0000
0000
0000
,
1000
0010
1000
0001
0010
0100
1000
0001
0100
0001
0010
0001
1000
0100
0010
0100
,
1000
0010
1000
0001
0100
0001
1000
0001
0010
0100
1000
0001
0010
0001
0100
0010
,
1000
0001
1000
0100
1000
0001
0100
0010
0100
0001
1000
0100
1000
0010
1000
0001
,
0100
0001
1000
0001
0010
0100
1000
0010
1000
0001
0010
0100
1000
0001
0100
0010
,
1000
0100
1000
0001
0100
0001
0010
0001
1000
0100
0010
0100
1000
0001
1000
0010
,
0100
0001
1000
0001
1000
0100
0010
0001
1000
0001
0100
0010
0100
0001
1000
0100
,
1000
0001
0100
0010
1000
0100
1000
0001
0010
0100
1000
0001
0100
0010
0100
0001
,
1000
0001
0010
0100
1000
0001
0100
0001
0010
0100
1000
0010
0100
0001
0100
0010
,
1000
0001
0010
0001
1000
0100
0010
0001
1000
0010
1000
0100
1000
0001
0010
0100
,
0010
0001
0100
0001
1000
0010
1000
0001
1000
0100
0010
0001
1000
0100
1000
0010
,
0100
0001
1000
0001
0010
0001
1000
0010
0100
0010
1000
0001
0010
0001
0100
0001
,
1000
0010
1000
0001
1000
0100
0010
0001
0100
0001
1000
0100
0010
0001
1000
0010
,
0100
0001
0010
0001
1000
0010
1000
0100
1000
0001
0010
0100
0010
0001
1000
0001
,
0100
0010
1000
0001
1000
0001
0010
0100
1000
0001
1000
0010
0100
0010
1000
0001
,
0010
0001
1000
0010
0100
0001
0010
0001
1000
0100
0010
0001
1000
0010
0100
0010
,
1000
0001
1000
0100
0010
0001
1000
0010
1000
0100
0010
0001
0100
0010
0100
0001
,
1000
0000
0000
0000
,
0001
1000
0001
0010
0001
1000
0010
1000
0001
0010
0100
1000
0001
0100
0010
0100
,
0001
0010
0100
1000
0001
0010
0001
1000
0100
0010
0001
1000
0010
1000
0001
0100
,
0001
0010
0100
1000
0001
1000
0010
0100
0001
1000
0100
1000
0001
0100
0010
1000
,
0100
1000
0001
0010
0001
1000
0001
0100
0010
0100
0001
1000
0100
0010
0100
1000
,
0010
1000
0001
0100
0001
1000
0100
1000
0001
0100
0010
1000
0001
0010
0100
0010
,
0001
0100
0010
1000
0100
0010
0001
1000
0010
0100
0010
1000
0010
1000
0001
1000
,
0100
0000
0000
0010
0001
0000
0010
0100
1000
0000
0010
0100
0000
0000
0001
1000
,
0001
0000
0100
0000
0010
0000
1000
0000
0001
0000
1000
0000
0001
0000
0010
0000
0001
1000
0001
0000
0010
0000
0100
0000
1000
0001
1000
0000
0010
0000
0100
0000
,
0010
0000
1000
0000
0001
0000
0010
0000
0100
0000
0010
0000
0001
0000
0100
0010
,
1000
0000
0100
0000
1000
0000
0001
0100
0000
0001
1000
0000
0010
0100
0000
0000
,
0001
0000
0010
0000
0001
0000
1000
0001
0100
0000
0010
1000
0000
0001
0010
0001
,
0100
0000
0010
0000
1000
0000
0100
0000
0010
0000
0100
0000
1000
0001
0100
0001
,
1000
0000
0001
0100
0010
0000
1000
0001
0010
0000
0000
0100
0000
1000
0001
0000
,
0100
0000
0010
1000
0001
0000
0010
0000
0001
0000
1000
0010
0100
0001
0100
0010
,
1000
0000
0000
0000
1010
0000
0000
1001
,
0000
0000
0000
0000
0001
0000
0020
0000
0000
0000
0000
0000
0000
0000
0000
0000
0000
0000
0000
0000
0031
1000
0001
0000
0100
0000
0000
0000
0010
0000
0000
0000
,
0100
0001
1000
0001
0010
0001
1000
0100
1000
0001
0100
0010
1000
0001
1000
0001
,
0010
0100
1000
0010
0100
0001
0010
0100
0010
0001
1000
0001
0100
0010
1000
0100
,
0010
0100
0010
0001
1000
0010
0100
0010
1000
0001
0010
0001
1000
0010
1000
0100
,
0010
0001
1000
0001
0100
0010
0100
0001
1000
0100
0010
0001
0100
0001
1000
0010
,
0100
0000
0001
0000
0010
0000
0001
0000
2000
0000
0000
0000
0000
0000
0000
3000
0100
0000
1000
0000
0010
0000
1000
0000
0002
0000
0000
0000
0000
0000
0000
0000
,
1003
0010
1000
0010
0100
0001
0010
0100
0000
0010
0001
2000
0000
3001
0100
0010
,
1000
0000
0000
0100
0000
0000
1000
0000
0000
0001
0000
0000
0010
0000
0000
0001
0000
0000
0100
0000
0000
0001
0000
0000
1000
0000
0000
0010
0000
0000
1000
0000
0000
0001
0000
0000
1000
0000
0100
0000
0010
0000
0001
0000
0000
1000
0000
0000
,
0010
0000
0000
0110
0000
0000
0101
0000
0000
1001
0000
0000
1000
0000
0100
0000
,
0020
0000
0000
0000
0000
0000
0000
0000
0000
0000
0000
0030
0000
0000
0000
0000
;

//---------------dance-single - 2/8/4----------------
#NOTES:
     dance-single:
     2/8/4:
     Hard:
     12:
     0.878,1.000,0.099,0.248,0.904,818.000,14.000,35.000,0.000,0.000:
0000
0000
0000
0000
0000
0000
0000
0100
,
1001
0000
0001
0000
0010
0000
0001
1000
0010
0000
0100
0000
0001
0000
0010
0100
,
1000
0000
0001
0000
0100
0000
0010
0100
0001
0000
1000
0000
0100
0000
0010
0001
,
1000
0000
0010
1000
0010
0000
0100
0001
1000
0000
0001
0000
0010
0000
0100
0010
,
0001
0000
1000
0000
0001
0000
1000
0010
1000
0000
0001
0100
0001
0000
1000
0000
,
0001
0100
0010
0100
0001
1000
0010
1000
0100
1000
0001
0010
0100
1000
0001
1000
,
0010
0100
0001
1000
0100
0010
0100
1000
0001
0100
0010
0100
0001
0010
0001
1000
,
0100
0010
0100
1000
0010
0100
0001
0010
,
0002
0000
0000
0003
0000
0000
0000
0000
0000
0000
0000
0000
2000
0000
0000
3000
0000
0000
0000
0000
0000
0000
0000
0000
0020
0000
0000
0030
0000
0000
0000
0000
0000
0000
0000
0000
0200
0000
0000
0000
0300
0000
0000
0000
0000
0000
0000
0000
0002
0000
0000
0000
0003
0000
0000
0000
0000
0000
0000
0000
2000
0000
0000
0000
3000
0000
0000
0000
0000
0000
0000
0000
0002
0000
0000
0000
0000
0000
0003
0000
0000
0000
0000
0000
0020
0000
0000
0000
0000
0000
0030
0000
0000
0000
0000
0000
0200
0000
0000
0000
0000
0000
0300
0000
0000
0000
0000
0000
2000
0000
0000
0000
0000
0000
0000
0000
3000
0000
0000
0000
0020
0000
0000
0000
0000
0000
0000
0000
0030
0000
0000
0000
2000
0000
0000
0000
0000
0000
0000
0000
3000
0000
0000
0000
0200
0000
0000
0000
0000
0000
0000
0000
0000
0000
0000
0000
0320
0000
0000
0000
0000
0000
0000
0000
0000
0000
0000
0000
0032
0000
0000
0000
0000
0000
0000
0000
0000
0000
0000
0000
0203
0000
0000
0000
0000
0000
0000
0000
0000
0000
0000
0000
,
0310
1000
0010
0100
0001
0010
0001
0100
,
0010
0000
1000
0100
0010
0000
0001
0010
0100
1000
0010
0000
0100
0000
0001
0000
,
1000
0100
1000
0010
0100
0001
0010
0100
,
1000
0000
0001
0000
0100
0000
0001
0000
1000
0000
0000
0100
0000
0000
1000
0000
,
0010
0100
0010
0100
0002
0000
0000
0000
0013
0100
0010
0100
2000
0000
0000
0000
,
3001
0100
0001
0100
0010
1000
0100
0010
0000
0100
1000
0002
0000
1003
0010
0100
,
0002
0000
0000
0023
0000
0000
0230
0000
1300
0001
1000
0001
0100
0010
0100
0010
,
0100
0000
0000
0110
0000
0000
1010
0000
0000
1001
0000
0000
0001
0000
0010
0000
,
0200
0000
2300
3002
0203
0320
0030
2002
,
0000
0000
0000
0000
0000
0000
0000
3003
,
1000
0001
0100
0010
0000
1000
0000
0001
,
0000
0000
0000
0000
0000
0000
0000
0010
,
0010
0100
1000
0010
0000
0100
0000
0001
,
0000
0000
0010
0000
0001
0000
0100
0000
0001
0000
0000
0010
0000
0000
0100
0000
,
1000
0001
0100
0010
0000
1000
0100
0010
,
0000
0000
0000
0000
0100
1000
0010
0100
0001
0000
0010
0000
0000
0000
0001
1000
,
0020
0000
0000
0000
0130
0000
0000
0000
0101
0000
0001
1000
0000
0000
0001
0000
,
0000
0000
0010
0100
1000
0000
0001
0100
0000
0001
0100
0001
1000
0000
0001
0000
,
0010
0000
0100
0000
1000
0000
0001
0100
0010
0000
0000
1000
0000
0000
0001
0000
,
0010
0000
0100
0000
1000
0000
0010
0000
1000
0000
0001
0000
0010
0000
0100
1000
,
0001
0000
0100
0000
0010
0000
0100
0000
0001
0000
0000
0010
0000
0000
0100
0010
,
0001
0000
0100
0000
0010
0000
1000
0000
0001
0000
0010
0000
0001
0000
0010
0100
,
1000
0000
0010
0000
1000
0000
0001
0010
0100
0000
0000
1000
0000
0000
0001
0000
,
0100
0000
0010
0000
1000
0000
0100
0000
1000
0000
0001
0000
0100
0000
0010
1000
,
0100
0000
0000
0000
1100
0000
0000
1001
,
0001
0100
0000
0001
1000
0000
0001
0010
0000
0001
1000
0001
1000
0100
0010
0001
,
0010
0000
0100
0000
1000
0000
0010
0100
0001
0000
1000
0000
0001
0000
0010
0000
,
0001
0000
0100
0000
0010
0000
1000
0100
0010
0000
0100
1000
0001
1000
0010
0000
,
0100
0000
0000
0000
,
0000
0000
0000
0000
,
0100
0001
0000
1000
0000
0001
0000
0010
0100
1000
0001
1000
0001
1000
0001
1000
,
0001
0000
0000
0000
0010
0000
0000
0000
0100
0000
0000
0000
1000
0000
0000
0000
0001
0000
0000
0000
1000
0000
0000
0000
0010
0000
0000
0100
0000
0000
0001
0000
0000
1000
0000
0000
0400
0000
0000
0000
0000
0000
0000
0000
0000
0000
0000
0000
,
0310
0000
0001
0000
1000
0000
0001
0000
0100
0000
0010
0000
1000
0001
0010
0000
,
0100
0000
1000
0000
0001
0000
0100
0000
0010
0000
0100
0001
0000
1000
0100
0010
,
0001
0000
0100
0000
0010
0000
0100
0000
0001
0010
0001
0000
1000
0010
1000
0000
,
0001
0000
0000
0000
,
0000
0000
0000
0000
,
0000
0000
0000
0000
,
0000
0000
0000
0000
,
1000
0010
1000
0001
0010
0100
1000
0001
0100
0001
0010
0001
1000
0100
0010
0100
,
1000
0010
1000
0001
0100
0001
1000
0001
0010
0100
1000
0001
0010
0001
0100
0010
,
1000
0001
1000
0100
1000
0001
0100
0010
0100
0001
1000
0100
1000
0010
1000
0001
,
0100
0001
1000
0001
0010
0100
1000
0010
1000
0001
0010
0100
1000
0001
0100
0010
,
1000
0100
1000
0001
0100
0001
0010
0001
1000
0100
0010
0100
1000
0001
1000
0010
,
0100
0001
1000
0001
1000
0100
0010
0001
1000
0001
0100
0010
0100
0001
1000
0100
,
1000
0001
0100
0010
1000
0100
1000
0001
0010
0100
1000
0001
0100
0010
0100
0001
,
1000
0001
0010
0100
1000
0001
0100
0001
0010
0100
1000
0010
0100
0001
0100
0010
,
1000
0001
0100
0001
0010
0100
1000
0010
,
1000
0001
0010
0100
1000
0001
0100
0010
,
1000
0001
0010
0001
0010
0100
1000
0001
,
1000
0010
0100
0010
1000
0001
0010
0100
,
0010
0001
1000
0100
1000
0010
0100
0001
,
0010
0001
1000
0001
0010
0100
1000
0010
,
0100
0001
1000
0100
0010
0100
1000
0001
,
1000
0010
0100
0001
1000
0001
0010
0100
,
1000
0000
0000
0000
,
0001
0100
0010
0100
0001
0010
0001
1000
,
0100
1000
0010
1000
0001
0010
0100
1000
,
0001
0010
0001
0100
0010
1000
0001
0010
,
0100
1000
0001
0100
0010
1000
0100
1000
,
0100
0010
0001
0010
0001
1000
0010
0100
,
0010
1000
0100
1000
0001
0010
0001
1000
,
0100
0000
0000
0010
0001
0000
0010
0100
1000
0000
0010
0100
0000
0000
0001
1000
,
0001
0100
0010
1000
0001
1000
0001
0010
0001
1000
0010
0100
0001
1000
0010
0100
,
0010
0000
1000
0000
0001
0000
0010
0000
0100
0000
0010
0000
0001
0000
0100
0010
,
1000
0000
0100
0000
1000
0000
0001
0100
0000
0001
1000
0000
0010
0100
0000
0000
,
0001
0000
0010
0000
0001
0000
1000
0001
0100
0000
0010
1000
0000
0001
0010
0001
,
0100
0000
0010
0000
1000
0000
0100
0000
0010
0000
0100
0000
1000
0001
0100
0001
,
1000
0000
0001
0100
0010
0000
1000
0001
0010
0000
0000
0100
0000
1000
0001
0000
,
0100
0000
0010
1000
0001
0000
0010
0000
0001
0000
1000
0010
0100
0001
0100
0010
,
1000
0000
0000
0000
1010
0000
0000
1001
,
0000
0000
0001
0020
0000
0000
0000
0000
0000
0000
0031
1000
0010
0000
0100
0000
,
0010
1000
0001
1000
0100
1000
0001
0010
0001
1000
0010
0100
0001
1000
0001
1000
,
0100
0010
0001
0100
0010
1000
0100
0010
0100
1000
0001
1000
0010
0100
0001
0010
,
0100
0010
0100
1000
0001
0100
0010
0100
0001
1000
0100
1000
0001
0100
0001
0010
,
0100
1000
0001
1000
0010
0100
0010
1000
0001
0010
0100
1000
0010
1000
0001
0100
,
0010
0000
1000
0000
0100
0000
1000
0000
0002
0000
0000
0000
0000
0000
0000
0003
0010
0000
0001
0000
0100
0000
0001
0000
2000
0000
0000
0000
0000
0000
0000
0000
,
3001
0100
0001
0100
0010
1000
0100
0010
0000
0100
1000
0002
0000
1003
0010
0100
,
0001
0010
0001
1000
0100
1000
0010
1000
0001
0100
0001
1000
0001
0010
0100
1000
,
0010
0000
0000
0110
0000
0000
0101
0000
0000
1001
0000
0000
1000
0000
0100
0000
,
0020
0000
0000
0000
0000
0000
0000
0000
0000
0000
0000
0030
0000
0000
0000
0000
;

//---------------dance-single - ----------------
#NOTES:
     dance-single:
     :
     Medium:
     10:
     0.723,0.953,0.078,0.206,0.408,674.000,11.000,29.000,0.000,0.000:
0000
0000
0000
0000
0000
0000
0000
0100
,
1001
0000
0001
0000
0010
0000
0001
1000
0010
0000
0100
0000
0001
0000
0010
0100
,
1000
0000
0001
0000
0100
0000
0010
0100
0001
0000
1000
0000
0100
0000
0010
0001
,
1000
0000
0010
1000
0010
0000
0100
0001
1000
0000
0001
0000
0010
0000
0100
0010
,
0001
0000
1000
0000
0001
0000
1000
0010
1000
0000
0001
0100
0001
0000
1000
0000
,
0001
0010
0100
1000
0010
0100
0001
0010
,
0001
0100
0010
1000
0100
1000
0001
1000
,
0100
0010
0100
1000
0010
0100
0001
0010
,
0002
0000
0000
0003
0000
0000
0000
0000
0000
0000
0000
0000
0000
0000
0000
0000
0000
0000
0000
0000
0000
0000
0000
0000
0200
0000
0000
0000
0300
0000
0000
0000
0000
0000
0000
0000
0000
0000
0000
0000
0000
0000
0000
0000
0000
0000
0000
0000
0020
0000
0000
0000
0000
0000
0030
0000
0000
0000
0000
0000
0000
0000
0000
0000
0000
0000
0000
0000
0000
0000
0000
0000
2000
0000
0000
0000
0000
0000
0000
0000
3000
0000
0000
0000
0000
0000
0000
0000
0000
0000
0000
0000
0000
0000
0000
0000
0200
0000
0000
0000
0000
0000
0000
0000
0000
0000
0000
0000
0300
0000
0000
0000
0000
0000
0000
0000
0000
0000
0000
0000
0020
0000
0000
0000
0000
0000
0000
0000
0000
0000
0000
0000
0000
0000
0000
0000
0030
0000
0000
0000
0000
0000
0000
0000
0002
0000
0000
0000
0000
0000
0000
0000
0000
0000
0000
0000
0000
0000
0000
0000
0000
0000
0000
0000
0000
0000
0000
0000
0203
0000
0000
0000
0000
0000
0000
0000
0000
0000
0000
0000
0000
0000
0000
0000
0000
0000
0000
0000
0000
0000
0000
0000
,
0310
1000
0010
0100
0001
0010
0001
0100
,
0010
0000
1000
0100
0010
0000
0001
0010
0100
1000
0010
0000
0100
0000
0001
0000
,
1000
0100
1000
0010
0100
0001
0010
0100
,
1000
0000
0001
0000
0100
0000
0001
0000
1000
0000
0000
0100
0000
0000
1000
0000
,
0010
0100
0010
0100
0002
0000
0000
0000
0013
0100
0010
0100
2000
0000
0000
0000
,
3001
0100
0001
0100
0010
1000
0100
0010
0000
0100
1000
0002
0000
1003
0010
0100
,
0002
0000
0000
0023
0000
0000
0230
0000
1300
0001
1000
0001
0100
0010
0100
0010
,
0100
0000
0000
0110
0000
0000
1010
0000
0000
1001
0000
0000
0001
0000
0010
0000
,
0200
0000
2300
3002
0203
0320
0030
2002
,
0000
0000
0000
0000
0000
0000
0000
3003
,
1000
0001
0100
0010
0000
1000
0000
0001
,
0000
0000
0000
0000
0000
0000
0000
0010
,
0010
0100
1000
0010
0000
0100
0000
0001
,
0000
0000
0010
0000
0001
0000
0100
0000
0001
0000
0000
0010
0000
0000
0100
0000
,
1000
0001
0100
0010
0000
1000
0100
0010
,
0000
0000
0000
0000
0100
1000
0010
0100
0001
0000
0010
0000
0000
0000
0001
1000
,
0020
0000
0000
0000
0130
0000
0000
0000
0101
0000
0001
1000
0000
0000
0001
0000
,
0000
0000
0010
0100
1000
0000
0001
0100
0000
0001
0100
0001
1000
0000
0001
0000
,
0010
0000
0100
0000
1000
0000
0001
0100
0010
0000
0000
1000
0000
0000
0001
0000
,
0010
0000
0100
0000
1000
0000
0010
0000
1000
0000
0001
0000
0010
0000
0100
1000
,
0001
0000
0100
0000
0010
0000
0100
0000
0001
0000
0000
0010
0000
0000
0100
0010
,
0001
0000
0100
0000
0010
0000
1000
0000
0001
0000
0010
0000
0001
0000
0010
0100
,
1000
0000
0010
0000
1000
0000
0001
0010
0100
0000
0000
1000
0000
0000
0001
0000
,
0100
0000
0010
0000
1000
0000
0100
0000
1000
0000
0001
0000
0100
0000
0010
1000
,
0100
0000
0000
0000
1100
0000
0000
1001
,
0001
0100
0000
0001
1000
0000
0001
0010
0000
0001
1000
0001
1000
0100
0010
0001
,
0010
0000
0100
0000
1000
0000
0010
0100
0001
0000
1000
0000
0001
0000
0010
0000
,
0001
0000
0100
0000
0010
0000
1000
0100
0010
0000
0100
1000
0001
1000
0010
0000
,
0100
0000
0000
0000
,
0000
0000
0000
0000
,
0100
0001
0000
1000
0000
0001
0000
0010
0002
0000
0000
0000
0000
0000
0000
0000
,
1003
0100
0010
0001
1000
0001
0200
0000
0000
0340
0000
0000
,
0130
0000
0001
0000
1000
0000
0001
0000
0100
0000
0010
0000
1000
0001
0010
0000
,
0100
0000
1000
0000
0001
0000
0100
0000
0010
0000
0100
0001
0000
1000
0100
0010
,
0001
0000
0100
0000
0010
0000
0100
0000
0001
0010
0001
0000
1000
0010
1000
0000
,
0001
0000
0000
0000
,
0000
0000
0000
0000
,
0000
0000
0000
0000
,
0000
0000
0000
0000
,
1000
0001
0010
0001
0100
0010
1000
0100
,
1000
0001
0100
0010
1000
0001
0010
0100
,
1000
0001
0100
0001
0100
0010
1000
0001
,
1000
0100
0010
0100
1000
0001
0100
0010
,
0100
0001
1000
0010
1000
0100
0010
0001
,
0100
0001
1000
0001
0100
0010
1000
0100
,
0010
0001
1000
0010
0100
0010
1000
0001
,
1000
0100
0010
0001
1000
0100
1000
0010
,
1000
0001
0100
0001
0010
0100
1000
0010
,
1000
0001
0010
0100
1000
0001
0100
0010
,
1000
0001
0010
0001
0010
0100
1000
0001
,
1000
0010
0100
0010
1000
0001
0010
0100
,
0010
0001
1000
0100
1000
0010
0100
0001
,
0010
0001
1000
0001
0010
0100
1000
0010
,
0100
0001
1000
0100
0010
0100
1000
0001
,
1000
0010
0100
0001
1000
0001
0010
0100
,
1000
0000
0000
0000
,
0001
0100
0010
0100
0001
0010
0001
1000
,
0100
1000
0010
1000
0001
0010
0100
1000
,
0001
0010
0001
0100
0010
1000
0001
0010
,
0100
1000
0001
0100
0010
1000
0100
1000
,
0100
0010
0001
0010
0001
1000
0010
0100
,
0010
1000
0100
1000
0001
0010
0001
1000
,
0100
0000
0000
0010
0001
0000
0010
0100
1000
0000
0010
0100
0000
0000
0001
1000
,
0001
0000
0010
0000
0001
0000
1000
0000
0010
0100
0010
0000
1000
0001
1000
0000
,
0010
0000
1000
0000
0001
0000
0010
0000
0100
0000
0010
0000
0001
0000
0100
0010
,
1000
0000
0100
0000
1000
0000
0001
0100
0000
0001
1000
0000
0010
0100
0000
0000
,
0001
0000
0010
0000
0001
0000
1000
0001
0100
0000
0010
1000
0000
0001
0010
0001
,
0100
0000
0010
0000
1000
0000
0100
0000
0010
0000
0100
0000
1000
0001
0100
0001
,
1000
0000
0001
0100
0010
0000
1000
0001
0010
0000
0000
0100
0000
1000
0001
0000
,
0100
0000
0010
1000
0001
0000
0010
0000
0001
0000
1000
0010
0100
0001
0100
0010
,
1000
0000
0000
0000
1010
0000
0000
1001
,
0000
0000
0001
0020
0000
0000
0000
0000
0000
0000
0031
1000
0010
0000
0100
0000
,
0010
1000
0100
1000
0001
0010
0001
0100
,
0001
1000
0100
0010
0001
1000
0001
0100
,
0010
0100
0001
1000
0100
0010
0100
1000
,
0010
0100
0001
1000
0001
0010
0100
1000
,
0001
0000
1000
0000
0100
0000
1000
0000
0002
0000
0000
0000
0000
0000
0000
0003
1000
0000
0001
0000
0100
0000
0001
0000
2000
0000
0000
0000
0000
0000
0000
0000
,
3001
0100
0001
0100
0010
1000
0100
0010
0000
0100
1000
0002
0000
1003
0010
0100
,
0001
0010
0100
1000
0010
0100
0001
1000
,
0010
0000
0000
0100
0000
0000
0001
0000
0000
1000
0000
0000
0001
0000
0010
0000
,
0200
0000
0000
0000
0000
0000
0000
0000
0000
0000
0000
0300
0000
0000
0000
0000
;
