#TITLE:Death Reveals;
#SUBTITLE:;
#ARTIST:The Berzerker;
#TITLETRANSLIT:;
#SUBTITLETRANSLIT:;
#ARTISTTRANSLIT:;
#CREDIT:;
#BANNER:dr-bn.png;
#BACKGROUND:dr-bg.png;
#LYRICSPATH:;
#CDTITLE:!mm989cdtitle.png;
#MUSIC:the berzerker- dissimulate-05-death reveals .mp3;
#OFFSET:-2.947;
#SAMPLESTART:2.940;
#SAMPLELENGTH:12.000;
#SELECTABLE:YES;
#BPMS:0.000=296.001;
#STOPS:;
#BGCHANGES:;
// cache tags:
#FIRSTBEAT:0.000;
#LASTBEAT:557.500;
#SONGFILENAME:Songs/hard shit/Death Reveals[mm989]/dr.sm;
#HASMUSIC:1;
#HASBANNER:1;
#MUSICLENGTH:116.354;
// end cache tags

//---------------dance-single - ----------------
#NOTES:
     dance-single:
     :
     Hard:
     17:
     1.000,1.000,1.000,0.223,1.000,1586.000,142.000,26.000,0.000,0.000:  // measure 1
1000
0100
1000
0100
0001
0100
0001
0100
,  // measure 2
0010
0100
1000
0001
0100
0010
1000
0100
,  // measure 3
1000
0001
0010
0100
0010
1000
0010
0001
,  // measure 4
0100
0000
0010
0000
1000
0000
0100
0000
0010
0001
0010
0001
0010
0001
0010
0001
,  // measure 5
0010
0100
1000
0100
0010
0001
0100
1000
,  // measure 6
0010
0100
1000
0001
0010
0100
1000
0010
,  // measure 7
0001
0010
1000
0100
0010
0100
0001
0100
,  // measure 8
1000
0100
0010
0001
0100
0010
0100
0001
1000
0100
0010
0100
1000
0010
0100
0000
,  // measure 9
1010
0100
0101
0100
1010
0100
0101
0100
,  // measure 10
1100
0010
0011
0010
1100
0010
0011
0010
,  // measure 11
0110
0001
1001
0001
0110
0001
1001
0001
,  // measure 12
0101
1000
1001
1000
0101
1000
1001
1000
,  // measure 13
0011
0100
0101
0100
0011
0100
0101
0100
,  // measure 14
1001
0010
0011
0010
1001
0010
0011
0010
,  // measure 15
0101
1000
1100
1000
0101
1000
1100
1000
,  // measure 16
1010
0000
0101
0000
,  // measure 17
1000
0100
0010
1000
0001
0010
0100
0001
,  // measure 18
0100
0010
1000
0001
0100
1000
0010
0001
,  // measure 19
0100
0010
1000
0100
0001
0010
0100
0001
,  // measure 20
1000
0010
0100
0010
1100
0000
1100
0000
,  // measure 21
0001
0010
0100
1000
0100
0001
0010
0001
,  // measure 22
1010
1010
1010
1010
,  // measure 23
0001
0100
0010
0001
0100
1000
0100
0010
,  // measure 24
0101
0000
0101
0000
0001
1000
0001
1000
,  // measure 25
1000
0100
0010
0001
0100
0010
1000
0100
1000
0100
0010
0100
1000
0001
0010
0100
,  // measure 26
1000
0100
0010
0001
0010
0001
0010
0100
1000
0010
0100
0001
0100
0010
1000
0001
,  // measure 27
0010
0100
0010
0001
1000
0010
0100
0001
1000
0100
0010
0100
0010
0100
1000
0001
,  // measure 28
0010
0100
0010
0001
0100
0010
0100
0010
0100
0010
1000
0100
1000
0001
0100
0001
,  // measure 29
0100
0010
1000
0010
0100
0010
1000
0100
0010
0001
0010
0100
1000
0010
0100
0001
,  // measure 30
0100
0001
0100
0010
1000
0100
1000
0100
0010
0100
1000
0001
0010
0001
0100
0001
,  // measure 31
0010
0100
1000
0001
1000
0010
0100
0001
0010
0100
1000
0001
0100
0010
1000
0000
,  // measure 32
0110
0000
0000
0000
0000
0000
0000
0000
1001
0000
0000
0000
0000
0000
0010
0001
,  // measure 33
1100
1100
1100
1100
0110
0110
0110
0110
,  // measure 34
1001
1001
1001
1001
1010
1010
1010
1010
,  // measure 35
0011
0011
0011
0011
0110
0110
0110
0110
,  // measure 36
0101
0101
0101
0101
1010
1010
1010
1010
,  // measure 37
1001
0011
1001
0011
1001
1100
1001
1100
,  // measure 38
0110
1001
0110
1001
1100
0110
0011
0110
,  // measure 39
1010
0110
1001
1010
0110
0101
0110
0101
,  // measure 40
1001
0000
0000
0000
0000
0000
0000
0000
0110
0000
0000
0000
0000
0000
0010
0001
,  // measure 41
0100
1000
0100
1000
0010
0100
0001
0100
0010
0100
0001
1000
0010
0100
0001
0010
,  // measure 42
0100
1000
0001
0100
0010
1000
0001
0100
0001
0010
0100
0010
0001
1000
0100
1000
,  // measure 43
0010
0100
0010
1000
0001
0010
0100
1000
0010
0100
0010
0100
0001
1000
0100
0010
,  // measure 44
0001
0100
0001
0100
0010
1000
0100
0000
1001
0000
0000
0000
1001
0000
0000
0000
,  // measure 45
0010
1000
0010
0100
0001
0010
0001
0100
0010
1000
0100
0010
0001
0100
0010
0000
,  // measure 46
1001
0110
0110
0110
,  // measure 47
1000
0010
0100
0010
1000
0001
0010
0100
1000
0010
1000
0001
0100
0010
0100
0000
,  // measure 48
1100
1010
0202
0303
,  // measure 49
0100
0001
0100
0001
0010
0100
1000
0100
1000
0001
0100
0010
0100
0001
1000
0100
,  // measure 50
1000
0010
1000
0001
0010
0001
0010
0100
0010
0001
0100
0010
1000
0100
1000
0001
,  // measure 51
1000
0010
0100
0001
0010
0100
1000
0010
1000
0001
0010
0100
1000
0100
0010
0001
,  // measure 52
1000
0001
0010
0100
1000
0010
0100
0010
1000
0001
0010
0100
1000
0100
1000
0010
,  // measure 53
0100
0001
1000
0001
0010
0001
0010
0100
1000
0010
1000
0001
0010
0100
0010
0001
,  // measure 54
1000
0010
0100
0001
1000
0100
0010
0100
1000
0001
0010
0100
1000
0001
1000
0100
,  // measure 55
0010
0001
1000
0010
0100
0010
1000
0001
0010
0100
1000
0100
1000
0001
0010
0000
,  // measure 56
2200
3300
0220
0330
,  // measure 57
0001
0010
0001
0100
0010
1000
0100
0010
0001
0010
0100
1000
0001
0100
0001
0100
,  // measure 58
0010
1000
0100
1000
0001
1000
0010
0100
0001
0010
0100
1000
0010
0100
0001
1000
,  // measure 59
0100
1000
0010
0100
0001
1000
0001
0010
0100
1000
0001
0100
0010
0100
0001
0010
,  // measure 60
0001
0010
0100
0010
0100
1000
0010
0100
0010
0100
0001
1000
0010
1000
0100
0010
,  // measure 61
0001
0100
0001
1000
0010
0100
0010
1000
0001
0010
0100
1000
0100
0010
0001
1000
,  // measure 62
0010
1000
0010
1000
0100
0010
0001
0100
0010
0100
0001
1000
0010
0100
0001
0100
,  // measure 63
0010
1000
0001
1000
0100
0010
0100
1000
0001
0010
0100
0010
0001
0100
0010
0000
,  // measure 64
0202
0000
0000
0000
0303
0000
0000
0000
0022
0000
0000
0000
0033
0000
0010
0100
,  // measure 65
1000
0001
0010
0001
0100
0010
1000
0010
0100
0001
1000
0010
1000
0001
0010
0100
,  // measure 66
0010
0001
0010
0100
1000
0001
1000
0100
0010
0100
0010
0001
0100
0001
1000
0100
,  // measure 67
1000
0001
0010
0001
0100
0010
0100
0010
0001
0010
0100
1000
0010
1000
0010
0100
,  // measure 68
0010
1000
0100
1000
0001
0010
0100
0000
0011
0000
0000
0000
1100
0000
0000
0000
,  // measure 69
0001
0100
0001
1000
0100
1000
0010
0100
0001
1000
0010
1000
0100
0010
0001
0000
,  // measure 70
1010
0011
1010
0011
,  // measure 71
0001
0100
0010
1000
0001
0010
0001
0100
0010
0100
0001
0100
0010
1000
0100
0000
,  // measure 72
0101
0110
1010
1001
,  // measure 73
1000
0100
1000
0001
0010
0100
1000
0001
0010
0001
0100
0010
0100
0010
1000
0100
,  // measure 74
0010
0100
1000
0001
1000
0001
0010
0100
1000
0100
0010
0001
0100
0010
1000
0010
,  // measure 75
0100
0001
0010
0001
1000
0100
0010
0100
0010
0001
1000
0001
0010
0001
0010
0100
,  // measure 76
1000
0010
0100
0001
1000
0010
1000
0010
0100
0001
1000
0100
1000
0001
0100
0010
,  // measure 77
0100
0010
1000
0001
0010
0100
1000
0001
0100
0010
1000
0001
0100
0001
0100
0010
,  // measure 78
1000
0001
0010
0100
1000
0100
1000
0001
0010
0100
0010
0001
1000
0010
0100
0001
,  // measure 79
1000
0100
0010
0100
1000
0001
0010
0100
1000
0001
1000
0100
0010
0001
1000
0000
,  // measure 80
2200
3300
0022
0033
,  // measure 81
0100
1000
0001
1000
0010
0100
0001
0100
0001
1000
0010
0100
0010
1000
0100
0010
,  // measure 82
0001
0010
0100
1000
0001
0010
0100
1000
0100
0010
0001
1000
0100
1000
0001
0100
,  // measure 83
0001
1000
0001
0010
0100
0010
0100
1000
0001
1000
0100
0010
0001
1000
0010
0100
,  // measure 84
0001
0010
0100
0010
0001
0100
0010
1000
0100
1000
0100
0010
0001
1000
0100
1000
,  // measure 85
0001
0010
0100
1000
0100
0010
0100
1000
0001
0100
0001
0100
0010
1000
0100
0010
,  // measure 86
0001
1000
0010
0100
0010
0100
0001
1000
0100
0010
0001
0010
0100
1000
0001
0100
,  // measure 87
0001
1000
0010
0100
0010
1000
0001
0010
0100
0010
0001
0100
0010
1000
0100
0000
,  // measure 88
2002
0000
0000
0000
3003
0000
0000
0000
0110
0000
0000
0000
0001
0100
0001
0100
,  // measure 89
0020
0030
1001
0000
,  // measure 90
0000
0110
0110
0110
,  // measure 91
1001
0010
0100
0001
0010
0001
1000
0010
,  // measure 92
0100
0001
0010
1000
0100
1000
0001
0100
,  // measure 93
0010
0001
0100
1000
0010
1000
0001
0010
,  // measure 94
1000
0100
1000
0001
0010
0100
0001
1000
,  // measure 95
0100
0010
1000
0001
0100
0010
0100
0001
,  // measure 96
0010
0100
0010
1000
0001
0010
1000
0100
,  // measure 97
0001
1000
0010
0001
1000
0010
0100
0010
,  // measure 98
0001
1000
0001
0100
0010
0100
0001
1000
,  // measure 99
0100
0001
0100
0010
1000
0001
0010
0100
,  // measure 100
1000
0010
0100
0010
1000
0001
0100
1000
,  // measure 101
0010
0100
0001
1000
0001
0100
0010
1000
,  // measure 102
0001
1000
0010
0001
0100
0010
1000
0100
,  // measure 103
0010
0100
0010
0100
0010
0100
0010
0100
0010
0100
0010
0100
0010
0100
0010
0100
,  // measure 104
0010
0100
0010
0100
0010
0100
0010
0100
0010
0000
0000
0000
0000
0000
0000
0000
,  // measure 105
0001
0100
0001
0100
0001
0100
0001
0100
0001
0000
1000
0000
0100
0000
0010
0000
,  // measure 106
0001
0010
0100
1000
0001
0100
0010
1000
,  // measure 107
0001
0010
0001
0010
0001
0010
0001
0010
0001
0010
0001
0010
0001
0010
0001
0010
,  // measure 108
0001
0010
0001
0010
0001
0010
0001
0000
1000
0000
0010
0000
0100
0000
1000
0000
,  // measure 109
0010
0000
1000
0010
1000
0010
1000
0010
1000
0010
1000
0010
1000
0010
1000
0010
,  // measure 110
1000
0010
1000
0010
1000
0010
1000
0010
1000
0000
0001
0000
0010
0000
0001
0000
,  // measure 111
0100
0000
1000
0100
1000
0100
1000
0100
1000
0100
1000
0100
1000
0100
1000
0100
,  // measure 112
1000
0100
1000
0100
1000
0100
1000
0100
1000
0000
0010
0000
0100
0000
0010
0000
,  // measure 113
1000
0000
0001
1000
0001
1000
0001
1000
0010
0100
0010
0100
0010
0100
0010
0100
,  // measure 114
2002
0000
0000
0000
,  // measure 115
0000
0000
0000
3003
,  // measure 116
0001
0010
0100
1000
0001
0100
0001
1000
0010
0100
0001
1000
0100
1000
0010
0100
,  // measure 117
0001
0010
0100
1000
0100
0010
0001
1000
0010
0100
0010
1000
0100
0010
0001
0010
,  // measure 118
0001
1000
0001
0100
0010
0100
0001
1000
0010
0100
0001
1000
0100
1000
0100
0010
,  // measure 119
0001
0010
0100
1000
0001
0100
0010
0000
0101
0000
0000
0000
1010
0000
0000
0000
,  // measure 120
0010
0100
0001
0010
0001
0100
0010
1000
0010
0100
0010
1000
0100
0010
0001
0000
,  // measure 121
1100
0000
0101
0000
0110
0000
1100
0001
,  // measure 122
0100
1000
0001
1000
0001
0010
0100
0010
0001
1000
0100
0010
0001
1000
0001
0000
,  // measure 123
0110
1100
0022
0033
,  // measure 124
0100
1000
0001
0100
0010
0100
0001
0010
0100
1000
0100
0010
0001
1000
0010
1000
,  // measure 125
0010
0100
0001
1000
0001
0010
0100
1000
0001
0100
0001
0010
0100
1000
0100
0010
,  // measure 126
0001
1000
0100
1000
0010
0100
0001
0010
0001
1000
0010
0100
0001
1000
0100
1000
,  // measure 127
0001
0010
0100
1000
0001
0100
0010
0100
0010
1000
0100
0010
0100
1000
0001
0010
,  // measure 128
0001
0010
0100
1000
0001
0100
0001
0010
0100
1000
0100
0010
0001
1000
0010
0100
,  // measure 129
0010
0100
0001
1000
0100
0010
0100
1000
0001
0010
0001
0010
0001
0100
0010
1000
,  // measure 130
0100
1000
0100
0010
0100
1000
0001
0100
0010
1000
0001
0010
0100
1000
0001
0000
,  // measure 131
0220
0330
2002
3003
,  // measure 132
1000
0001
1000
0001
0100
0001
0010
0100
0010
0001
1000
0010
0100
0001
1000
0001
,  // measure 133
1000
0001
0100
0010
1000
0100
0010
0001
0010
0100
1000
0001
0010
0100
0010
0001
,  // measure 134
0010
0100
1000
0001
0100
0001
0100
0010
1000
0010
1000
0100
0010
0001
0010
0100
,  // measure 135
1000
0001
0010
0001
0100
0010
1000
0100
1000
0001
0010
0100
1000
0001
0100
0001
,  // measure 136
0100
0010
1000
0010
0100
0001
1000
0100
1000
0001
0010
0100
1000
0010
0100
0010
,  // measure 137
0100
0001
0010
0100
1000
0100
1000
0010
0100
0010
0100
0001
1000
0010
0100
0001
,  // measure 138
0010
0100
1000
0100
0010
0001
0100
0010
0100
0010
1000
0100
0010
0001
0010
0100
,  // measure 139
1000
0001
1000
0010
0100
0010
0100
0010
1000
0000
0001
0000
1000
0000
0002
0000
,  // measure 140
0000
0000
0000
0003
0000
0000
0000
0000
;
