#TITLE:Bloody tears;
#SUBTITLE:;
#ARTIST:Michiru Yamane;
#TITLETRANSLIT:;
#SUBTITLETRANSLIT:;
#ARTISTTRANSLIT:;
#CREDIT:;
#BANNER:BloodyBN.JPG;
#BACKGROUND:Bloody.jpg;
#LYRICSPATH:;
#CDTITLE:!IzzyTitle.JPG;
#MUSIC:bloody.mp3;
#OFFSET:0.000;
#SAMPLESTART:27.290;
#SAMPLELENGTH:12.000;
#SELECTABLE:YES;
#BPMS:0.000=219.860;
#STOPS:;
#BGCHANGES:;
// cache tags:
#FIRSTBEAT:0.750;
#LASTBEAT:221.250;
#SONGFILENAME:Songs/Izzy/Bloody  Tears/Bloody Tears.sm;
#HASMUSIC:1;
#HASBANNER:1;
#MUSICLENGTH:60.716;
// end cache tags

//---------------dance-single - MANIAC----------------
#NOTES:
     dance-single:
     MANIAC:
     Hard:
     10:
     0.833,0.774,0.856,0.082,1.000,297.000,52.000,5.000,0.000,0.000:
0000
0000
0000
1000
0000
0010
0000
0001
0000
0010
0000
0100
0000
1000
0000
0100
,
0000
0010
0000
0001
0000
0010
0000
0100
0000
1000
0000
0100
0000
0010
0000
0001
,
0000
0010
0000
0100
0000
1000
0000
0100
0000
0010
0000
0001
0000
0010
0000
0100
,
0000
1000
0000
0100
0000
0010
0000
0100
0000
1000
0000
0100
0000
0010
0000
0100
,
0000
1000
0000
0100
0000
0010
0000
0001
0000
1000
0000
0100
0000
0010
0000
0001
,
0000
0010
0000
0100
0000
1000
0000
0100
0000
0010
0000
0001
0000
0010
0000
0100
,
0000
1000
0000
0100
0000
0010
0000
0001
0000
0010
0000
0100
0000
1000
0000
0100
,
0000
0010
0000
0001
0000
0010
0000
0100
0000
1000
0000
0100
0000
0010
0000
0100
,
0000
1000
0000
0110
0000
0000
0000
0100
0000
0010
0000
0000
0000
0100
0000
0100
,
0000
0100
0000
0001
0000
1000
0000
0100
0000
0000
0000
0010
0000
0100
0000
1000
,
0000
0100
0000
1000
0000
0000
0000
0000
0000
1001
0000
0000
0000
0000
0000
1001
,
0000
0000
0000
0000
0000
0000
0000
0000
0000
0000
0000
0110
0000
0000
0000
0110
,
0000
0000
0000
1001
0000
1000
0000
0001
0000
0010
0000
0100
0000
1000
0000
0100
,
0000
0010
0000
0001
0000
1000
0000
0100
0000
0010
0000
1001
0000
0000
0000
0110
,
0000
0000
0000
1000
0000
0000
0000
0000
0000
0001
0000
0000
0000
0000
0000
0011
,
0000
0000
0000
1010
0000
0000
0000
0000
0000
1001
0000
0000
0000
0000
0000
0000
,
0000
0000
0000
0110
0000
0001
0000
0001
0000
0110
0000
0000
0000
0100
0000
0100
,
0000
0100
0000
0100
0000
0000
0000
1000
0000
0000
0000
0010
0000
0000
0000
1000
,
0000
0000
0000
1001
0000
0000
0000
0000
0000
0102
0000
0003
0000
0000
0000
0011
,
0000
0000
0000
0000
0000
0000
0000
0000
0000
0000
0000
0100
0000
0000
0000
0010
,
0000
0000
0000
1001
0000
1000
0000
1000
0000
1001
0000
0000
0000
1000
0000
0100
,
0000
0010
0000
0001
0000
0000
0000
1001
0000
0000
0000
1000
0000
0000
0000
0001
,
0000
0000
0000
0011
0000
0000
0000
0000
0000
0110
0000
0000
0000
0000
0000
1001
,
0000
0010
0000
0100
0000
0010
0000
0100
0000
1000
0000
0001
0000
1000
0000
0001
,
0000
1000
0000
1001
0000
0000
0000
0000
0000
1001
0000
0000
0000
0000
0000
0100
,
0000
0100
0000
0011
0000
0000
0000
0000
0000
1001
0000
0000
0000
0000
0000
0100
,
0000
0100
0000
1001
0000
0000
0000
0000
0000
1001
0000
0000
0000
0000
0000
1000
,
0000
1000
0000
0010
0000
0100
0000
0010
0000
0100
0000
0010
0000
0100
0000
0010
,
0000
0100
0000
1001
0000
0000
0000
0010
0000
0020
0000
0000
0000
0030
0000
0100
,
0000
0000
0000
1001
0000
0000
0000
0010
0000
0020
0000
0000
0000
0000
0000
0030
,
0000
0000
0000
1001
0000
0000
0000
0010
0000
0020
0000
0000
0030
0000
0000
0000
,
0000
0000
0000
1000
0000
0000
0000
0101
0000
0000
0000
1000
0000
1001
0000
0000
,
0000
0000
0000
0100
0000
0010
0000
0001
0000
0010
0000
0100
0000
1000
0000
0100
,
0000
0010
0000
0100
0000
1000
0000
0100
0000
0010
0000
0100
0000
1000
0000
0100
,
0000
0010
0000
0100
0000
1000
0000
0100
0000
0010
0000
0001
0000
0010
0000
0100
,
0000
1000
0000
0100
0000
0010
0000
0001
0000
0010
0000
0100
0000
1000
0000
0100
,
0000
0010
0000
0001
0000
0010
0000
0100
0000
1000
0000
0100
0000
0010
0000
0001
,
0000
0010
0000
0100
0000
1000
0000
0100
0000
0010
0000
0100
0000
0010
0000
0100
,
0000
1000
0000
0100
0000
0010
0000
0100
0000
1000
0000
0001
0000
0010
0000
0100
,
0000
0010
0000
0001
0000
0010
0000
0100
0000
1000
0000
0100
0000
0010
0000
0100
,
0000
1000
0000
0011
0000
0000
0000
0010
0000
0010
0000
0000
0000
1000
0000
0001
,
0000
1000
0000
0001
0000
0000
0000
1000
0000
0000
0000
0001
0000
0000
0000
1000
,
0000
0000
0000
0001
0000
0000
0000
0000
0000
1000
0000
0000
0000
0000
0000
1001
,
0000
0000
0000
0000
0000
0000
0000
0000
0000
0000
0000
1000
0000
0000
0000
0010
,
0000
0000
0000
1001
0000
1000
0000
1000
0000
1001
0000
0000
0000
1000
0000
0100
,
0000
0010
0000
0001
0000
0000
0000
1000
0000
0000
0000
0110
0000
0000
0000
1001
,
0000
0000
0000
1001
0000
0000
0000
0000
0000
1001
0000
0000
0000
0000
0000
0000
,
0000
0000
0000
0010
0000
0000
0000
0000
0000
1000
0000
0000
0000
0000
0000
0000
,
0000
0000
0000
1001
0000
0010
0000
0010
0000
1001
0000
0000
0000
0100
0000
0100
,
0000
0100
0000
0100
0000
0000
0000
1000
0000
0000
0000
0100
0000
0000
0000
1001
,
0000
0000
0000
1001
0000
0000
0000
0000
0000
1001
0000
0000
0000
0000
0000
1001
,
0000
0000
0000
0000
0000
0000
0000
0000
0000
0000
0000
1000
0000
0000
0000
0001
,
0000
0000
0000
1001
0000
1000
0000
1000
0000
1001
0000
0000
0000
1000
0000
0100
,
0000
0010
0000
0001
0000
0000
0000
1001
0000
0000
0000
1001
0000
0000
0000
1001
,
0000
0000
0000
1000
0000
0000
0000
0000
0000
0002
0000
0000
0000
0000
0000
0000
,
0000
0000
0000
0000
0000
0003
0000
0000
0000
0000
0000
0000
0000
0000
0000
0000
;
