#TITLE:CrunkStream;
#SUBTITLE:EXoduz Violation II;
#ARTIST:Kommisar;
#TITLETRANSLIT:;
#SUBTITLETRANSLIT:;
#ARTISTTRANSLIT:;
#CREDIT:;
#BANNER:../Banner.png;
#BACKGROUND:../Background.png;
#LYRICSPATH:;
#CDTITLE:;
#MUSIC:CrunkStream.ogg;
#OFFSET:1.654;
#SAMPLESTART:102.149;
#SAMPLELENGTH:11.960;
#SELECTABLE:YES;
#DISPLAYBPM:160.000;
#BPMS:0.000=140.000,228.000=160.000;
#STOPS:;
#BGCHANGES:;
// cache tags:
#FIRSTBEAT:4.000;
#LASTBEAT:376.333;
#SONGFILENAME:Songs/EXoduz Violation II/CrunkStream - [Ov3rHell3XoduZ]/CrunkStream.sm;
#HASMUSIC:1;
#HASBANNER:1;
#MUSICLENGTH:155.349;
// end cache tags

//---------------dance-single - ----------------
#NOTES:
     dance-single:
     :
     Beginner:
     14:
     1.000,1.000,0.219,0.895,1.000,1294.000,34.000,139.000,0.000,3.000:

0000
0000
0000
0000
,
1000
0100
0020
0031
0100
0001
2000
3020
,
0130
0001
0020
0130
1000
0001
2000
3200
,
0310
0001
2000
3010
0100
0001
0020
0230
,
1300
0001
0200
0310
1000
0001
0020
0230
,
2300
3010
0200
0301
2000
3100
0020
0031
,
2000
3010
0200
0301
2000
3100
2000
3010
,
0200
0301
0020
0031
2000
3100
2000
3010
,
0200
0301
2000
3100
2000
3010
0200
0301
,
0010
0001
0100
0001
1000
0010
0100
0010
1000
0001
0100
0010
1000
0001
0010
0001
1000
0010
0100
0001
1000
0100
0010
0001
,
1000
0010
1000
0100
0010
0001
1000
0010
0100
0001
0010
0001
1000
0100
0010
0001
1000
0010
0100
0001
1000
0100
1000
0001
,
0100
0010
1000
0001
0010
0001
1000
0100
0010
0100
1000
0001
0010
0100
1000
0001
0100
0001
1000
0010
0100
0001
1000
0010
,
1000
0001
0010
0001
1000
0100
0010
0100
1000
0001
0010
0100
1000
0001
0100
0010
1000
0001
0010
0001
1000
0100
0010
0001
,
1000
0010
1000
0001
0100
0010
1000
0001
0010
0001
1000
0100
0010
0100
1000
0010
0100
0001
1000
0001
0010
0001
1000
0100
,
0010
0100
1000
0010
0100
0001
1000
0001
0010
0001
1000
0010
1000
0100
1000
0010
0100
0001
0010
0001
1000
0100
0010
0100
,
1000
0001
0010
0001
1000
0010
0100
0001
1000
0100
1000
0010
0100
0001
1000
0001
0010
0001
1000
0010
0100
0010
1000
0001
,
0100
0010
1000
0001
0010
0001
1000
0100
0010
0001
1000
0010
0100
0001
1000
0100
0010
0100
1000
0001
0010
0100
1000
0001
,
2000
0000
0000
3020
,
0230
0000
0000
0000
0000
0000
0302
2003
,
3200
0000
0000
0320
,
0032
0000
0000
2003
,
3020
0000
0000
0000
0000
0000
0230
0320
,
2030
0000
0000
0000
0000
0000
3002
0023
,
0230
0000
0000
2300
,
3002
0000
0000
0203
,
0310
1000
0001
0100
0010
1000
0001
0010
0001
1000
0100
0010
0100
1000
0010
0100
0001
1000
0001
0010
0001
1000
0100
0010
,
0100
1000
0001
0010
0100
1000
0010
0100
0001
1000
0100
1000
0001
0100
0010
1000
0001
0010
0001
1000
0100
0010
0100
1000
,
0010
0100
0001
1000
0001
0010
0001
1000
0010
0100
0001
1000
0100
1000
0010
0100
0001
1000
0001
0010
0001
1000
0100
0010
,
0100
1000
0010
0100
0001
1000
0001
0010
0001
1000
0010
0100
0001
1000
0100
1000
0010
0100
0001
1000
0001
0010
0001
1000
,
0010
0100
0001
1000
0100
1000
0010
0100
0010
1000
0100
0010
0001
1000
0100
1000
0010
0100
0001
0010
0100
1000
0001
0100
,
0001
1000
0010
0100
0001
1000
0100
1000
0010
0100
0001
1000
0001
0010
0001
1000
0010
0100
0010
1000
0001
0100
0001
0010
,
0100
0010
0001
1000
0100
0010
0001
1000
0010
1000
0100
1000
0010
0100
0001
1000
0001
0100
0010
1000
0001
0010
0100
1000
,
0001
0100
0001
1000
0100
0010
0100
1000
0001
0010
0100
1000
0001
0100
0001
1000
0010
0100
0001
1000
0001
0010
0001
1000
,
0001
0000
0202
0303
0220
0330
2020
3030
,
2002
3003
0202
0303
0022
0033
2200
3300
,
2020
3030
2002
3003
0202
0303
0220
0330
,
2020
3030
2002
3003
0202
0303
0220
0330
,
2020
3030
2200
3300
0022
0033
0202
0303
,
2020
3030
0220
0330
0202
0303
0022
0033
,
0220
0330
2200
3300
2020
3030
2002
3003
,
0202
0303
2020
3030
2200
3300
0220
0330
,
1000
0100
0010
0100
1000
0001
0010
0001
0100
0010
1000
0001
0100
0001
0010
0100
0010
0001
1000
0010
1000
0001
0100
0001
,
1000
0010
0100
0010
1000
0100
0010
0100
1000
0001
0010
0100
1000
0001
0100
0001
1000
0010
0100
0001
1000
0001
0010
0001
,
1000
0100
0010
0100
1000
0001
0100
0010
0100
0001
0010
0100
0010
0001
1000
0100
1000
0001
0100
0001
1000
0010
0100
0010
,
1000
0100
0010
0001
0100
0001
1000
0010
1000
0001
0100
0001
0010
0001
1000
0100
0010
0001
1000
0001
0100
0001
1000
0100
,
0010
0001
0100
0001
1000
0100
1000
0010
0100
0001
1000
0100
1000
0010
0100
0010
1000
0001
0010
0001
1000
0100
0010
0001
,
1000
0100
1000
0010
0100
0001
1000
0001
0010
0001
1000
0010
1000
0100
0010
0001
1000
0010
0100
0001
1000
0001
0010
0001
,
1000
0100
0010
0100
1000
0010
0100
0001
1000
0001
0010
0001
1000
0100
0010
0100
1000
0010
0100
0001
1000
0001
0010
0001
,
1000
0010
1000
0100
0010
0001
1000
0010
1000
0001
0100
0010
1000
0001
0010
0001
1000
0100
0010
0100
1000
0010
0100
0001
,
1000
0100
1000
0100
1000
0100
1000
0100
1000
0100
1000
0100
1000
0100
0010
0001
,
1000
0010
1000
0010
1000
0010
1000
0010
1000
0010
1000
0010
1000
0001
0100
0010
,
1000
0100
1000
0100
1000
0100
1000
0100
1000
0100
1000
0100
0010
0100
0010
0100
,
0010
0001
0010
0001
0010
0001
0010
0001
0010
0001
0010
0001
1000
0010
1000
0010
,
1000
0001
0100
0001
0100
0001
0100
0001
0100
0001
0100
0001
1000
0100
0010
0001
,
1000
0010
1000
0010
1000
0010
1000
0010
1000
0010
1000
0010
0100
0001
0010
0100
,
1000
0001
1000
0001
1000
0001
1000
0001
1000
0001
1000
0001
0100
0001
0100
0001
,
0100
0010
0100
0010
0100
0010
0100
0010
0100
0010
0100
0010
1000
0100
1000
0100
,
1000
0001
0100
0010
1000
0001
0010
0001
1000
0100
0010
0100
1000
0010
0100
0001
,
1000
0001
0010
0001
1000
0100
0010
0100
1000
0010
0100
0001
1000
0001
0010
0001
,
1000
0010
1000
0001
0100
0010
1000
0001
0010
0001
1000
0100
0010
0100
1000
0010
,
0100
0001
1000
0010
1000
0001
0100
0010
1000
0001
0100
0001
0010
0100
0010
0001
,
1000
0100
0010
0001
1000
0010
0100
0001
1000
0001
0010
0001
1000
0010
1000
0001
,
0100
0001
0010
0100
1000
0010
0100
0010
1000
0001
0100
0010
1000
0001
0010
0001
,
1000
0100
0010
0100
1000
0001
0100
0001
1000
0010
0100
0001
0010
0001
1000
0100
,
0010
0001
1000
0010
1000
0100
0010
0100
1000
0010
0100
0001
0010
0001
0100
0010
,
1000
0100
0010
0100
1000
0001
0100
0001
1000
0010
1000
0001
0010
0100
1000
0001
,
0100
0001
1000
0100
0010
0100
1000
0010
0100
0001
1000
0001
0010
0001
1000
0100
,
1000
0001
0100
0001
0010
0100
1000
0010
0100
0001
1000
0100
1000
0001
0100
0001
,
0010
0100
0010
0001
1000
0010
0100
0001
1000
0100
1000
0010
0100
0001
0010
0001
,
1000
0100
1000
0001
0100
0001
1000
0010
1000
0001
0010
0100
1000
0001
0100
0010
,
1000
0001
0010
0001
1000
0100
0010
0100
1000
0010
0100
0001
1000
0001
0010
0001
,
1000
0100
0010
0001
1000
0010
1000
0100
0010
0001
1000
0010
0100
0001
0010
0001
,
1000
0100
0010
0100
1000
0001
0100
0001
0010
0100
1000
0010
0100
0001
1000
0001
,
0010
0001
1000
0010
0100
0010
1000
0001
0100
0010
1000
0001
0010
0001
1000
0100
,
0010
0001
1000
0010
0100
0001
1000
0100
0010
0001
1000
0010
1000
0100
1000
0001
,
0100
0001
0010
0001
0100
0010
1000
0100
0010
0100
1000
0001
0100
0001
0010
0100
,
0010
0001
1000
0001
0100
0010
1000
0001
0010
0001
1000
0010
0100
0010
1000
0001
,
1000
0100
0010
0100
1000
0001
0100
0001
0010
0100
1000
0010
0100
0001
1000
0001
,
0010
0001
1000
0010
1000
0100
0010
0100
1000
0001
0010
0100
1000
0001
0100
0001
,
1000
0010
0100
0001
1000
0001
0010
0001
1000
0100
0010
0100
1000
0001
0100
0001
,
1000
0010
0100
0001
1000
0001
0010
0001
1000
0100
0010
0100
1000
0010
0100
0001
,
1000
0010
1000
0100
1000
0010
0100
0001
0010
0001
0100
0001
1000
0010
1000
0001
,
0100
0001
0010
0100
1000
0001
0100
0001
1000
0010
1000
0100
1000
0001
0100
0001
,
0010
0100
1000
0100
0010
0001
1000
0010
0100
0001
1000
0100
1000
0001
1000
0010
,
0100
0001
0100
0010
0100
0001
0010
0100
1000
0001
0100
0001
1000
0100
0010
0001
,
2000
0000
0000
0000
0000
0000
3020
0230
,
0302
0000
0000
0000
0000
0000
0023
0230
,
2300
0000
0000
3002
,
0203
0000
0000
0320
,
2030
0000
0000
0000
0000
0000
3200
0320
,
0032
0000
0000
0000
0000
0000
0203
0302
,
0023
0000
0000
0230
,
2300
0000
0000
0000
0000
0000
0000
0000
0000
0000
0000
0000
3002
0000
0000
0003
,
2202
0000
0000
3303
0000
0000
0000
0000
0000
0000
0000
0000
2202
0000
0000
3303
0000
0000
0000
0000
0000
0000
0000
0000
2202
0000
0000
3303
0000
0000
0000
0000
0000
0000
0000
0000
1000
0000
0000
0000
0010
0000
0000
0000
0100
0000
0000
0000
,
0002
0003
0000
0000
0000
0000
0000
0000
0000
0000
0000
0000
;

//---------------dance-single - ----------------
#NOTES:
     dance-single:
     :
     Easy:
     14:
     1.000,1.000,0.219,0.798,1.000,1531.000,34.000,124.000,0.000,3.000:
0000
0000
0000
0000
,
1000
0100
1000
0010
0200
0301
1000
0100
1000
0001
0010
0100
2000
3010
0200
0301
,
0010
0100
1000
0001
2000
3100
0010
0001
1000
0010
0100
0001
0020
0130
2000
3001
,
1000
0100
0010
0001
2000
3100
1000
0001
0010
0100
1000
0001
0200
0301
0020
0130
,
1000
0100
1000
0001
0200
0310
1000
0001
0010
0100
1000
0001
0200
0301
0020
0130
,
2000
3001
0100
0001
2000
3100
0010
0001
2000
3010
0100
0001
2000
3100
2000
3010
,
0200
0301
0010
0100
2000
3010
0100
0001
0020
0130
1000
0001
0200
0310
2000
3100
,
0020
0031
1000
0100
2000
3001
0100
0001
0020
0130
1000
0001
0200
0310
2000
3001
,
0020
0130
1000
0001
0200
0310
1000
0001
0020
0031
1000
0100
0020
0130
1000
0001
,
0010
0001
0100
0001
1000
0010
0100
0010
1000
0001
0100
0010
1000
0001
0010
0001
1000
0010
0100
0001
1000
0100
0010
0001
,
1000
0010
1000
0100
0010
0001
1000
0010
0100
0001
0010
0001
1000
0100
0010
0001
1000
0010
0100
0001
1000
0100
1000
0001
,
0100
0010
1000
0001
0010
0001
1000
0100
0010
0100
1000
0001
0010
0100
1000
0001
0100
0001
1000
0010
0100
0001
1000
0010
,
1000
0001
0010
0001
1000
0100
0010
0100
1000
0001
0010
0100
1000
0001
0100
0010
1000
0001
0010
0001
1000
0100
0010
0001
,
1000
0010
1000
0001
0100
0010
1000
0001
0010
0001
1000
0100
0010
0100
1000
0010
0100
0001
1000
0001
0010
0001
1000
0100
,
0010
0100
1000
0010
0100
0001
1000
0001
0010
0001
1000
0010
1000
0100
1000
0010
0100
0001
0010
0001
1000
0100
0010
0100
,
1000
0001
0010
0001
1000
0010
0100
0001
1000
0100
1000
0010
0100
0001
1000
0001
0010
0001
1000
0010
0100
0010
1000
0001
,
0100
0010
1000
0001
0010
0001
1000
0100
0010
0001
1000
0010
0100
0001
1000
0100
0010
0100
1000
0001
0010
0100
1000
0001
,
1000
0100
0010
0001
1000
0010
0100
0001
1000
0100
1000
0001
0100
0001
0010
0100
1000
0010
0100
0001
1000
0100
1000
0001
,
0100
0001
0010
0100
1000
0010
0100
0010
1000
0001
0100
0010
1000
0001
0010
0001
1000
0100
0010
0100
1000
0001
0010
0100
,
1000
0001
0100
0001
1000
0010
0100
0001
1000
0100
1000
0001
0100
0010
1000
0001
0010
0001
1000
0100
0010
0001
1000
0010
,
1000
0001
0100
0010
1000
0001
0010
0001
1000
0010
0100
0001
1000
0100
1000
0001
0100
0010
1000
0001
0010
0001
1000
0010
,
0100
0001
0010
0001
1000
0100
0010
0001
1000
0010
0100
0001
1000
0100
1000
0001
0100
0001
0010
0100
1000
0010
0100
0010
,
1000
0001
0100
0010
1000
0001
0010
0001
1000
0100
0010
0100
1000
0001
0100
0001
0010
0100
1000
0010
0100
0010
1000
0001
,
0100
0010
1000
0001
0010
0001
1000
0100
0010
0100
1000
0010
0100
0001
1000
0001
0010
0001
1000
0100
0010
0100
1000
0010
,
0100
0001
1000
0001
0010
0001
1000
0100
1000
0010
0100
0001
1000
0001
0010
0001
1000
0100
0010
0100
1000
0001
1000
0100
,
1000
0001
0100
0010
1000
0001
0010
0001
1000
0100
0010
0100
1000
0010
0100
0001
1000
0001
0010
0001
1000
0100
0010
0100
,
1000
0001
0010
0100
1000
0010
0100
0001
1000
0100
1000
0001
0100
0010
1000
0001
0010
0001
1000
0100
0010
0100
1000
0010
,
0100
0001
1000
0001
0010
0001
1000
0010
0100
0001
1000
0100
1000
0010
0100
0001
1000
0001
0010
0001
1000
0100
0010
0100
,
1000
0010
0100
0001
1000
0001
0010
0001
1000
0010
0100
0001
1000
0100
1000
0010
0100
0001
1000
0001
0010
0001
1000
0010
,
0100
0001
1000
0100
1000
0010
0100
0010
1000
0100
0010
0001
1000
0100
1000
0010
0100
0001
0010
0100
1000
0001
0100
0001
,
1000
0010
0100
0001
1000
0100
1000
0010
0100
0001
1000
0001
0010
0001
1000
0010
0100
0010
1000
0001
0100
0001
0010
0100
,
0010
0001
1000
0100
0010
0001
1000
0010
1000
0100
1000
0010
0100
0001
1000
0001
0100
0010
1000
0001
0010
0100
1000
0001
,
0100
0001
1000
0100
0010
0100
1000
0001
0010
0100
1000
0001
0100
0001
1000
0010
0100
0001
1000
0001
0010
0001
1000
0100
,
2000
3000
2002
3003
0220
0330
2020
3030
,
2002
3003
0202
0303
0022
0033
2200
3300
,
2020
3030
2002
3003
0202
0303
0220
0330
,
2020
3030
2002
3003
0202
0303
0220
0330
,
2020
3030
2200
3300
0022
0033
0202
0303
,
2020
3030
0220
0330
0202
0303
0022
0033
,
0220
0330
2200
3300
2020
3030
2002
3003
,
0202
0303
2020
3030
2200
3300
0220
0330
,
1000
0100
0010
0100
1000
0001
0010
0001
0100
0010
1000
0001
0100
0001
0010
0100
0010
0001
1000
0010
1000
0001
0100
0001
,
1000
0010
0100
0010
1000
0100
0010
0100
1000
0001
0010
0100
1000
0001
0100
0001
1000
0010
0100
0001
1000
0001
0010
0001
,
1000
0100
0010
0100
1000
0001
0100
0010
0100
0001
0010
0100
0010
0001
1000
0100
1000
0001
0100
0001
1000
0010
0100
0010
,
1000
0100
0010
0001
0100
0001
1000
0010
1000
0001
0100
0001
0010
0001
1000
0100
0010
0001
1000
0001
0100
0001
1000
0100
,
0010
0001
0100
0001
1000
0100
1000
0010
0100
0001
1000
0100
1000
0010
0100
0010
1000
0001
0010
0001
1000
0100
0010
0001
,
1000
0100
1000
0010
0100
0001
1000
0001
0010
0001
1000
0010
1000
0100
0010
0001
1000
0010
0100
0001
1000
0001
0010
0001
,
1000
0100
0010
0100
1000
0010
0100
0001
1000
0001
0010
0001
1000
0100
0010
0100
1000
0010
0100
0001
1000
0001
0010
0001
,
1000
0010
1000
0100
0010
0001
1000
0010
1000
0001
0100
0010
1000
0001
0010
0001
1000
0100
0010
0100
1000
0010
0100
0001
,
1000
0100
1000
0100
1000
0100
1000
0100
1000
0100
1000
0100
1000
0100
0010
0001
,
1000
0010
1000
0010
1000
0010
1000
0010
1000
0010
1000
0010
1000
0001
0100
0010
,
1000
0100
1000
0100
1000
0100
1000
0100
1000
0100
1000
0100
0010
0100
0010
0100
,
0010
0001
0010
0001
0010
0001
0010
0001
0010
0001
0010
0001
1000
0010
1000
0010
,
1000
0001
0100
0001
0100
0001
0100
0001
0100
0001
0100
0001
1000
0100
0010
0001
,
1000
0010
1000
0010
1000
0010
1000
0010
1000
0010
1000
0010
0100
0001
0010
0100
,
1000
0001
1000
0001
1000
0001
1000
0001
1000
0001
1000
0001
0100
0001
0100
0001
,
0100
0010
0100
0010
0100
0010
0100
0010
0100
0010
0100
0010
1000
0100
1000
0100
,
1000
0001
0100
0010
1000
0001
0010
0001
1000
0100
0010
0100
1000
0010
0100
0001
,
1000
0001
0010
0001
1000
0100
0010
0100
1000
0010
0100
0001
1000
0001
0010
0001
,
1000
0010
1000
0001
0100
0010
1000
0001
0010
0001
1000
0100
0010
0100
1000
0010
,
0100
0001
1000
0010
1000
0001
0100
0010
1000
0001
0100
0001
0010
0100
0010
0001
,
1000
0100
0010
0001
1000
0010
0100
0001
1000
0001
0010
0001
1000
0010
1000
0001
,
0100
0001
0010
0100
1000
0010
0100
0010
1000
0001
0100
0010
1000
0001
0010
0001
,
1000
0100
0010
0100
1000
0001
0100
0001
1000
0010
0100
0001
0010
0001
1000
0100
,
0010
0001
1000
0010
1000
0100
0010
0100
1000
0010
0100
0001
0010
0001
0100
0010
,
1000
0100
0010
0100
1000
0001
0100
0001
1000
0010
1000
0001
0010
0100
1000
0001
,
0100
0001
1000
0100
0010
0100
1000
0010
0100
0001
1000
0001
0010
0001
1000
0100
,
1000
0001
0100
0001
0010
0100
1000
0010
0100
0001
1000
0100
1000
0001
0100
0001
,
0010
0100
0010
0001
1000
0010
0100
0001
1000
0100
1000
0010
0100
0001
0010
0001
,
1000
0100
1000
0001
0100
0001
1000
0010
1000
0001
0010
0100
1000
0001
0100
0010
,
1000
0001
0010
0001
1000
0100
0010
0100
1000
0010
0100
0001
1000
0001
0010
0001
,
1000
0100
0010
0001
1000
0010
1000
0100
0010
0001
1000
0010
0100
0001
0010
0001
,
1000
0100
0010
0100
1000
0001
0100
0001
0010
0100
1000
0010
0100
0001
1000
0001
,
0010
0001
1000
0010
0100
0010
1000
0001
0100
0010
1000
0001
0010
0001
1000
0100
,
0010
0001
1000
0010
0100
0001
1000
0100
0010
0001
1000
0010
1000
0100
1000
0001
,
0100
0001
0010
0001
0100
0010
1000
0100
0010
0100
1000
0001
0100
0001
0010
0100
,
0010
0001
1000
0001
0100
0010
1000
0001
0010
0001
1000
0010
0100
0010
1000
0001
,
1000
0100
0010
0100
1000
0001
0100
0001
0010
0100
1000
0010
0100
0001
1000
0001
,
0010
0001
1000
0010
1000
0100
0010
0100
1000
0001
0010
0100
1000
0001
0100
0001
,
1000
0010
0100
0001
1000
0001
0010
0001
1000
0100
0010
0100
1000
0001
0100
0001
,
1000
0010
0100
0001
1000
0001
0010
0001
1000
0100
0010
0100
1000
0010
0100
0001
,
1000
0010
1000
0100
1000
0010
0100
0001
0010
0001
0100
0001
1000
0010
1000
0001
,
0100
0001
0010
0100
1000
0001
0100
0001
1000
0010
1000
0100
1000
0001
0100
0001
,
0010
0100
1000
0100
0010
0001
1000
0010
0100
0001
1000
0100
1000
0001
1000
0010
,
0100
0001
0100
0010
0100
0001
0010
0100
1000
0001
0100
0001
1000
0100
0010
0001
,
2000
0000
0000
0000
0000
0000
3020
0230
,
0302
0000
0000
0000
0000
0000
0023
0230
,
2300
0000
0000
3002
,
0203
0000
0000
0320
,
2030
0000
0000
0000
0000
0000
3200
0320
,
0032
0000
0000
0000
0000
0000
0203
0302
,
0023
0000
0000
0230
,
2300
0000
0000
0000
0000
0000
0000
0000
0000
0000
0000
0000
3002
0000
0000
0003
,
2202
0000
0000
3303
0000
0000
0000
0000
0000
0000
0000
0000
2202
0000
0000
3303
0000
0000
0000
0000
0000
0000
0000
0000
2202
0000
0000
3303
0000
0000
0000
0000
0000
0000
0000
0000
1000
0000
0000
0000
0010
0000
0000
0000
0100
0000
0000
0000
,
0002
0003
0000
0000
0000
0000
0000
0000
0000
0000
0000
0000
;

//---------------dance-single - ----------------
#NOTES:
     dance-single:
     :
     Medium:
     17:
     1.000,1.000,0.019,0.393,1.000,1787.000,3.000,61.000,0.000,3.000:
0000
0000
0000
0000
,
1000
0100
1000
0010
0200
0301
1000
0100
1000
0001
0010
0100
2000
3010
0200
0301
,
0010
0100
1000
0001
2000
3100
0010
0001
1000
0010
0100
0001
0020
0130
2000
3001
,
1000
0100
0010
0001
2000
3100
1000
0001
0010
0100
1000
0001
0200
0301
0020
0130
,
1000
0100
1000
0001
0200
0310
1000
0001
0010
0100
1000
0001
0200
0301
0020
0130
,
2000
3001
0100
0001
2000
3100
0010
0001
2000
3010
0100
0001
2000
3100
2000
3010
,
0200
0301
0010
0100
2000
3010
0100
0001
0020
0130
1000
0001
0200
0310
2000
3100
,
0020
0031
1000
0100
2000
3001
0100
0001
0020
0130
1000
0001
0200
0310
2000
3001
,
0020
0130
1000
0001
0200
0310
1000
0001
0020
0031
1000
0100
0020
0130
1000
0001
,
0010
0001
0100
0001
1000
0010
0100
0010
1000
0001
0100
0010
1000
0001
0010
0001
1000
0010
0100
0001
1000
0100
0010
0001
,
1000
0010
1000
0100
0010
0001
1000
0010
0100
0001
0010
0001
1000
0100
0010
0001
1000
0010
0100
0001
1000
0100
1000
0001
,
0100
0010
1000
0001
0010
0001
1000
0100
0010
0100
1000
0001
0010
0100
1000
0001
0100
0001
1000
0010
0100
0001
1000
0010
,
1000
0001
0010
0001
1000
0100
0010
0100
1000
0001
0010
0100
1000
0001
0100
0010
1000
0001
0010
0001
1000
0100
0010
0001
,
1000
0010
1000
0001
0100
0010
1000
0001
0010
0001
1000
0100
0010
0100
1000
0010
0100
0001
1000
0001
0010
0001
1000
0100
,
0010
0100
1000
0010
0100
0001
1000
0001
0010
0001
1000
0010
1000
0100
1000
0010
0100
0001
0010
0001
1000
0100
0010
0100
,
1000
0001
0010
0001
1000
0010
0100
0001
1000
0100
1000
0010
0100
0001
1000
0001
0010
0001
1000
0010
0100
0010
1000
0001
,
0100
0010
1000
0001
0010
0001
1000
0100
0010
0001
1000
0010
0100
0001
1000
0100
0010
0100
1000
0001
0010
0100
1000
0001
,
1000
0100
0010
0001
1000
0010
0100
0001
1000
0100
1000
0001
0100
0001
0010
0100
1000
0010
0100
0001
1000
0100
1000
0001
,
0100
0001
0010
0100
1000
0010
0100
0010
1000
0001
0100
0010
1000
0001
0010
0001
1000
0100
0010
0100
1000
0001
0010
0100
,
1000
0001
0100
0001
1000
0010
0100
0001
1000
0100
1000
0001
0100
0010
1000
0001
0010
0001
1000
0100
0010
0001
1000
0010
,
1000
0001
0100
0010
1000
0001
0010
0001
1000
0010
0100
0001
1000
0100
1000
0001
0100
0010
1000
0001
0010
0001
1000
0010
,
0100
0001
0010
0001
1000
0100
0010
0001
1000
0010
0100
0001
1000
0100
1000
0001
0100
0001
0010
0100
1000
0010
0100
0010
,
1000
0001
0100
0010
1000
0001
0010
0001
1000
0100
0010
0100
1000
0001
0100
0001
0010
0100
1000
0010
0100
0010
1000
0001
,
0100
0010
1000
0001
0010
0001
1000
0100
0010
0100
1000
0010
0100
0001
1000
0001
0010
0001
1000
0100
0010
0100
1000
0010
,
0100
0001
1000
0001
0010
0001
1000
0100
1000
0010
0100
0001
1000
0001
0010
0001
1000
0100
0010
0100
1000
0001
1000
0100
,
1000
0001
0100
0010
1000
0001
0010
0001
1000
0100
0010
0100
1000
0010
0100
0001
1000
0001
0010
0001
1000
0100
0010
0100
,
1000
0001
0010
0100
1000
0010
0100
0001
1000
0100
1000
0001
0100
0010
1000
0001
0010
0001
1000
0100
0010
0100
1000
0010
,
0100
0001
1000
0001
0010
0001
1000
0010
0100
0001
1000
0100
1000
0010
0100
0001
1000
0001
0010
0001
1000
0100
0010
0100
,
1000
0010
0100
0001
1000
0001
0010
0001
1000
0010
0100
0001
1000
0100
1000
0010
0100
0001
1000
0001
0010
0001
1000
0010
,
0100
0001
1000
0100
1000
0010
0100
0010
1000
0100
0010
0001
1000
0100
1000
0010
0100
0001
0010
0100
1000
0001
0100
0001
,
1000
0010
0100
0001
1000
0100
1000
0010
0100
0001
1000
0001
0010
0001
1000
0010
0100
0010
1000
0001
0100
0001
0010
0100
,
0010
0001
1000
0100
0010
0001
1000
0010
1000
0100
1000
0010
0100
0001
1000
0001
0100
0010
1000
0001
0010
0100
1000
0001
,
0100
0001
1000
0100
0010
0100
1000
0001
0010
0100
1000
0001
0100
0001
1000
0010
0100
0001
1000
0001
0010
0001
1000
0100
,
1000
0001
0100
0001
1000
0010
0100
0001
1000
0001
0010
0100
0010
0001
1000
0100
0010
0001
1000
0010
0100
0001
1000
0100
,
1000
0010
0100
0001
1000
0001
0010
0001
1000
0100
0010
0100
1000
0001
0010
0100
1000
0001
0100
0001
1000
0010
0100
0001
,
1000
0100
1000
0010
0100
0001
1000
0001
0010
0001
1000
0010
0100
0001
1000
0100
1000
0001
0010
0100
1000
0001
0100
0001
,
1000
0010
0100
0001
1000
0001
0010
0001
1000
0010
1000
0100
0010
0100
1000
0001
0010
0100
1000
0001
0100
0001
1000
0010
,
0100
0001
1000
0100
1000
0001
0100
0010
1000
0001
0010
0001
1000
0100
0010
0001
1000
0010
1000
0100
0010
0001
1000
0010
,
0100
0001
0010
0001
1000
0010
0100
0001
1000
0100
1000
0001
0010
0100
1000
0001
0100
0001
1000
0100
0010
0100
1000
0010
,
0100
0001
1000
0001
0010
0001
1000
0100
0010
0100
1000
0010
0100
0001
1000
0001
0010
0001
1000
0100
0010
0100
1000
0010
,
0100
0001
1000
0001
0100
0010
1000
0001
0010
0100
0010
0001
1000
0001
0100
0010
1000
0001
0100
0010
1000
0001
0010
0100
,
1000
0100
0010
0100
1000
0001
0010
0001
0100
0010
1000
0001
0100
0001
0010
0100
0010
0001
1000
0010
1000
0001
0100
0001
,
1000
0010
0100
0010
1000
0100
0010
0100
1000
0001
0010
0100
1000
0001
0100
0001
1000
0010
0100
0001
1000
0001
0010
0001
,
1000
0100
0010
0100
1000
0001
0100
0010
0100
0001
0010
0100
0010
0001
1000
0100
1000
0001
0100
0001
1000
0010
0100
0010
,
1000
0100
0010
0001
0100
0001
1000
0010
1000
0001
0100
0001
0010
0001
1000
0100
0010
0001
1000
0001
0100
0001
1000
0100
,
0010
0001
0100
0001
1000
0100
1000
0010
0100
0001
1000
0100
1000
0010
0100
0010
1000
0001
0010
0001
1000
0100
0010
0001
,
1000
0100
1000
0010
0100
0001
1000
0001
0010
0001
1000
0010
1000
0100
0010
0001
1000
0010
0100
0001
1000
0001
0010
0001
,
1000
0100
0010
0100
1000
0010
0100
0001
1000
0001
0010
0001
1000
0100
0010
0100
1000
0010
0100
0001
1000
0001
0010
0001
,
1000
0010
1000
0100
0010
0001
1000
0010
1000
0001
0100
0010
1000
0001
0010
0001
1000
0100
0010
0100
1000
0010
0100
0001
,
1000
0100
1000
0100
1000
0100
1000
0100
1000
0100
1000
0100
1000
0100
0010
0001
,
1000
0010
1000
0010
1000
0010
1000
0010
1000
0010
1000
0010
1000
0001
0100
0010
,
1000
0100
1000
0100
1000
0100
1000
0100
1000
0100
1000
0100
0010
0100
0010
0100
,
0010
0001
0010
0001
0010
0001
0010
0001
0010
0001
0010
0001
1000
0010
1000
0010
,
1000
0001
0100
0001
0100
0001
0100
0001
0100
0001
0100
0001
1000
0100
0010
0001
,
1000
0010
1000
0010
1000
0010
1000
0010
1000
0010
1000
0010
0100
0001
0010
0100
,
1000
0001
1000
0001
1000
0001
1000
0001
1000
0001
1000
0001
0100
0001
0100
0001
,
0100
0010
0100
0010
0100
0010
0100
0010
0100
0010
0100
0010
1000
0100
1000
0100
,
1000
0001
0100
0010
1000
0001
0010
0001
1000
0010
0100
0010
1000
0100
1000
0001
0100
0010
1000
0001
0010
0001
1000
0010
,
1000
0100
0010
0001
1000
0010
0100
0001
0010
0001
1000
0100
0010
0100
1000
0001
0010
0001
1000
0010
1000
0100
1000
0001
,
0100
0010
1000
0001
0010
0001
1000
0100
0010
0100
1000
0010
0100
0001
1000
0001
0010
0001
1000
0010
0100
0001
1000
0100
,
1000
0010
0100
0010
1000
0100
0010
0001
1000
0010
0100
0001
0010
0001
1000
0100
0010
0100
1000
0001
0010
0100
1000
0001
,
1000
0100
1000
0010
0100
0001
1000
0001
0010
0001
1000
0010
0100
0010
1000
0001
0100
0010
1000
0001
0010
0100
0010
0001
,
1000
0010
0100
0001
1000
0100
1000
0010
0100
0010
1000
0100
0010
0001
1000
0010
1000
0001
0100
0010
1000
0001
0010
0001
,
1000
0010
0100
0010
1000
0001
0100
0010
1000
0100
1000
0010
0100
0001
0010
0100
0010
0001
1000
0010
1000
0100
0010
0001
,
1000
0010
0100
0001
1000
0001
0010
0001
1000
0010
0100
0010
1000
0100
0010
0001
1000
0001
0100
0010
1000
0100
1000
0010
,
0100
0010
1000
0001
0100
0010
1000
0001
0100
0001
0010
0100
0010
0001
1000
0010
1000
0100
1000
0010
0100
0001
1000
0001
,
0010
0001
1000
0100
0010
0100
1000
0010
0100
0001
1000
0001
0010
0001
1000
0010
1000
0100
1000
0010
0100
0001
1000
0001
,
0010
0100
1000
0001
0100
0001
1000
0100
1000
0010
0100
0010
1000
0001
0100
0010
1000
0001
0010
0001
1000
0010
1000
0100
,
1000
0001
0100
0001
0010
0100
0010
0001
1000
0100
0010
0001
1000
0010
1000
0001
0100
0001
0010
0100
1000
0001
0100
0001
,
1000
0100
1000
0001
0100
0001
1000
0010
1000
0001
0010
0100
1000
0001
0100
0010
,
1000
0001
0010
0001
1000
0100
0010
0100
1000
0010
0100
0001
1000
0001
0010
0001
,
1000
0100
0010
0001
1000
0010
1000
0100
0010
0001
1000
0010
0100
0001
0010
0001
,
1000
0100
0010
0100
1000
0001
0100
0001
0010
0100
1000
0010
0100
0001
1000
0001
,
0010
0001
1000
0010
0100
0010
1000
0001
0100
0010
1000
0001
0010
0001
1000
0100
,
0010
0001
1000
0010
0100
0001
1000
0100
0010
0001
1000
0010
1000
0100
1000
0001
,
0100
0001
0010
0001
0100
0010
1000
0100
0010
0100
1000
0001
0100
0001
0010
0100
,
0010
0001
1000
0001
0100
0010
1000
0001
0010
0001
1000
0010
0100
0010
1000
0001
,
1000
0100
0010
0100
1000
0001
0100
0001
0010
0100
1000
0010
0100
0001
1000
0001
,
0010
0001
1000
0010
1000
0100
0010
0100
1000
0001
0010
0100
1000
0001
0100
0001
,
1000
0010
0100
0001
1000
0001
0010
0001
1000
0100
0010
0100
1000
0001
0100
0001
,
1000
0010
0100
0001
1000
0001
0010
0001
1000
0100
0010
0100
1000
0010
0100
0001
,
1000
0010
1000
0100
1000
0010
0100
0001
0010
0001
0100
0001
1000
0010
1000
0001
,
0100
0001
0010
0100
1000
0001
0100
0001
1000
0010
1000
0100
1000
0001
0100
0001
,
0010
0100
1000
0100
0010
0001
1000
0010
0100
0001
1000
0100
1000
0001
1000
0010
,
0100
0001
0100
0010
0100
0001
0010
0100
1000
0001
0100
0001
1000
0100
0010
0001
,
2000
0000
0000
0000
0000
0000
3020
0230
,
0302
0000
0000
0000
0000
0000
0023
0230
,
2300
0000
0000
3002
,
0203
0000
0000
0320
,
2030
0000
0000
0000
0000
0000
3200
0320
,
0032
0000
0000
0000
0000
0000
0203
0302
,
0023
0000
0000
0230
,
2300
0000
0000
0000
0000
0000
0000
0000
0000
0000
0000
0000
3002
0000
0000
0003
,
2202
0000
0000
3303
0000
0000
0000
0000
0000
0000
0000
0000
2202
0000
0000
3303
0000
0000
0000
0000
0000
0000
0000
0000
2202
0000
0000
3303
0000
0000
0000
0000
0000
0000
0000
0000
1000
0000
0000
0000
0010
0000
0000
0000
0100
0000
0000
0000
,
0002
0003
0000
0000
0000
0000
0000
0000
0000
0000
0000
0000
;

//---------------dance-single - ----------------
#NOTES:
     dance-single:
     :
     Hard:
     18:
     1.000,1.000,0.019,0.393,1.000,1939.000,3.000,61.000,0.000,3.000:
0000
0000
0000
0000
,
1000
0100
1000
0010
0200
0301
1000
0100
1000
0001
0010
0100
2000
3010
0200
0301
,
0010
0100
1000
0001
2000
3100
0010
0001
1000
0010
0100
0001
0020
0130
2000
3001
,
1000
0100
0010
0001
2000
3100
1000
0001
0010
0100
1000
0001
0200
0301
0020
0130
,
1000
0100
1000
0001
0200
0310
1000
0001
0010
0100
1000
0001
0200
0301
0020
0130
,
2000
3001
0100
0001
2000
3100
0010
0001
2000
3010
0100
0001
2000
3100
2000
3010
,
0200
0301
0010
0100
2000
3010
0100
0001
0020
0130
1000
0001
0200
0310
2000
3100
,
0020
0031
1000
0100
2000
3001
0100
0001
0020
0130
1000
0001
0200
0310
2000
3001
,
0020
0130
1000
0001
0200
0310
1000
0001
0020
0031
1000
0100
0020
0130
1000
0001
,
1000
0100
0010
0001
1000
0010
1000
0100
1000
0001
0100
0001
0100
0010
1000
0001
0010
0100
0010
0001
1000
0001
0100
0001
1000
0100
1000
0010
1000
0100
1000
0001
,
1000
0010
1000
0100
0010
0001
1000
0010
0100
0001
0010
0001
1000
0100
0010
0001
1000
0010
0100
0001
1000
0100
1000
0001
,
1000
0100
0010
0001
1000
0001
0100
0001
1000
0010
1000
0001
1000
0100
0010
0001
1000
0010
1000
0001
1000
0100
1000
0100
0010
0001
1000
0001
0100
0001
0010
0100
,
1000
0001
0010
0001
1000
0100
0010
0100
1000
0001
0010
0100
1000
0001
0100
0010
1000
0001
0010
0001
1000
0100
0010
0001
,
1000
0001
0100
0001
1000
0010
1000
0100
0010
0001
1000
0001
0100
0001
0010
0100
1000
0010
0100
0010
1000
0001
0100
0001
0100
0010
1000
0001
0010
0100
1000
0001
,
1000
0100
1000
0010
0100
0001
1000
0001
0010
0001
1000
0010
1000
0100
1000
0010
0100
0001
0010
0001
1000
0100
0010
0100
,
1000
0100
1000
0010
0100
0001
1000
0001
1000
0010
0100
0010
1000
0100
0010
0001
1000
0001
0100
0010
0100
0001
0010
0100
0010
0001
1000
0100
0010
0001
1000
0001
,
1000
0010
1000
0001
0010
0001
1000
0100
0010
0001
1000
0010
0100
0001
1000
0100
0010
0100
1000
0001
0010
0100
1000
0001
,
1000
0100
0010
0001
1000
0010
1000
0001
0100
0001
0010
0100
1000
0001
0100
0001
1000
0100
0010
0100
1000
0001
0010
0100
0010
0001
1000
0001
0100
0001
1000
0100
,
1000
0001
0010
0100
1000
0010
0100
0010
1000
0001
0100
0010
1000
0001
0010
0001
1000
0100
0010
0100
1000
0001
0010
0100
,
1000
0100
1000
0001
0100
0001
0100
0010
1000
0001
0010
0100
0010
0001
1000
0010
1000
0001
0100
0001
0010
0100
1000
0001
0100
0001
1000
0100
0010
0100
1000
0001
,
1000
0001
0100
0010
1000
0001
0010
0001
1000
0010
0100
0001
1000
0100
1000
0001
0100
0010
1000
0001
0010
0001
1000
0010
,
1000
0100
0010
0001
1000
0010
1000
0100
1000
0001
0100
0001
0100
0010
1000
0001
0010
0100
0010
0001
1000
0100
0010
0001
1000
0001
0100
0001
1000
0100
1000
0001
,
1000
0001
0100
0010
1000
0001
0010
0001
1000
0100
0010
0100
1000
0001
0100
0001
0010
0100
1000
0010
0100
0010
1000
0001
,
0100
0010
1000
0001
0010
0001
1000
0100
0010
0100
1000
0010
0100
0001
1000
0001
0010
0001
1000
0100
0010
0100
1000
0010
,
0100
0001
1000
0001
0010
0001
1000
0100
1000
0010
0100
0001
1000
0001
0010
0001
1000
0100
0010
0100
1000
0001
1000
0100
,
1000
0001
0100
0010
1000
0001
0010
0001
1000
0100
0010
0100
1000
0010
0100
0001
1000
0001
0010
0001
1000
0100
0010
0100
,
1000
0001
0010
0100
1000
0010
0100
0001
1000
0100
1000
0001
0100
0010
1000
0001
0010
0001
1000
0100
0010
0100
1000
0010
,
0100
0001
1000
0001
0010
0001
1000
0010
0100
0001
1000
0100
1000
0010
0100
0001
1000
0001
0010
0001
1000
0100
0010
0100
,
1000
0010
0100
0001
1000
0001
0010
0001
1000
0010
0100
0001
1000
0100
1000
0010
0100
0001
1000
0001
0010
0001
1000
0010
,
0100
0001
1000
0100
1000
0010
0100
0010
1000
0100
0010
0001
1000
0100
1000
0010
0100
0001
0010
0100
1000
0001
0100
0001
,
1000
0010
0100
0001
1000
0100
1000
0010
0100
0001
1000
0001
0010
0001
1000
0010
0100
0010
1000
0001
0100
0001
0010
0100
,
0010
0001
1000
0100
0010
0001
1000
0010
1000
0100
1000
0010
0100
0001
1000
0001
0100
0010
1000
0001
0010
0100
1000
0001
,
0100
0001
1000
0100
0010
0100
1000
0001
0010
0100
1000
0001
0100
0001
1000
0010
0100
0001
1000
0001
0010
0001
1000
0100
,
1000
0001
0100
0001
1000
0010
0100
0001
1000
0001
0010
0100
0010
0001
1000
0100
0010
0001
1000
0010
0100
0001
1000
0100
,
1000
0010
0100
0001
1000
0001
0010
0001
1000
0100
0010
0100
1000
0001
0010
0100
1000
0001
0100
0001
1000
0010
0100
0001
,
1000
0100
1000
0010
0100
0001
1000
0001
0010
0001
1000
0010
0100
0001
1000
0100
1000
0001
0010
0100
1000
0001
0100
0001
,
1000
0010
0100
0001
1000
0001
0010
0001
1000
0010
1000
0100
0010
0100
1000
0001
0010
0100
1000
0001
0100
0001
1000
0010
,
0100
0001
1000
0100
1000
0001
0100
0010
1000
0001
0010
0001
1000
0100
0010
0001
1000
0010
1000
0100
0010
0001
1000
0010
,
0100
0001
0010
0001
1000
0010
0100
0001
1000
0100
1000
0001
0010
0100
1000
0001
0100
0001
1000
0100
0010
0100
1000
0010
,
0100
0001
1000
0001
0010
0001
1000
0100
0010
0100
1000
0010
0100
0001
1000
0001
0010
0001
1000
0100
0010
0100
1000
0010
,
0100
0001
1000
0001
0100
0010
1000
0001
0010
0100
0010
0001
1000
0001
0100
0010
1000
0001
0100
0010
1000
0001
0010
0100
,
1000
0001
0100
0001
1000
0010
0100
0010
1000
0100
1000
0100
0010
0001
1000
0001
1000
0010
1000
0001
0100
0001
0100
0010
1000
0010
0100
0001
0010
0100
1000
0001
,
1000
0010
0100
0010
1000
0100
0010
0100
1000
0001
0010
0100
1000
0001
0100
0001
1000
0010
0100
0001
1000
0001
0010
0001
,
1000
0100
1000
0010
0100
0001
1000
0001
0010
0001
0010
0100
0010
0001
1000
0010
1000
0010
0100
0001
1000
0001
0010
0100
0010
0001
1000
0100
0010
0001
1000
0100
,
1000
0100
0010
0001
0100
0001
1000
0010
1000
0001
0100
0001
0010
0001
1000
0100
0010
0001
1000
0001
0100
0001
1000
0100
,
0010
0001
0100
0001
1000
0010
1000
0100
1000
0010
0100
0001
1000
0001
0010
0001
0100
0001
0100
0010
1000
0001
0010
0100
0010
0001
1000
0001
0100
0001
1000
0100
,
1000
0100
1000
0010
0100
0001
1000
0001
0010
0001
1000
0010
1000
0100
0010
0001
1000
0010
0100
0001
1000
0001
0010
0001
,
1000
0100
1000
0001
0100
0001
0010
0100
1000
0010
0100
0001
1000
0001
0100
0010
1000
0010
0100
0001
0010
0100
1000
0100
0010
0001
1000
0001
0100
0001
1000
0100
,
1000
0010
1000
0100
0010
0001
1000
0010
1000
0001
0100
0010
1000
0001
0010
0001
1000
0100
0010
0100
1000
0010
0100
0001
,
1000
0100
1000
0100
1000
0100
1000
0100
1000
0100
1000
0100
1000
0100
0010
0001
,
1000
0010
1000
0010
1000
0010
1000
0010
1000
0010
1000
0010
1000
0001
0100
0010
,
1000
0100
1000
0100
1000
0100
1000
0100
1000
0100
1000
0100
0010
0100
0010
0100
,
0010
0001
0010
0001
0010
0001
0010
0001
0010
0001
0010
0001
1000
0010
1000
0010
,
1000
0001
0100
0001
0100
0001
0100
0001
0100
0001
0100
0001
1000
0100
0010
0001
,
1000
0010
1000
0010
1000
0010
1000
0010
1000
0010
1000
0010
0100
0001
0010
0100
,
1000
0001
1000
0001
1000
0001
1000
0001
1000
0001
1000
0001
0100
0001
0100
0001
,
0100
0010
0100
0010
0100
0010
0100
0010
0100
0010
0100
0010
1000
0100
1000
0100
,
1000
0001
0100
0010
1000
0001
0010
0001
1000
0010
0100
0010
1000
0100
1000
0001
0100
0010
1000
0001
0010
0001
1000
0010
,
1000
0100
0010
0001
1000
0010
0100
0001
0010
0001
1000
0100
0010
0100
1000
0001
0010
0001
1000
0010
1000
0100
1000
0001
,
0100
0010
1000
0001
0010
0001
1000
0100
0010
0100
1000
0010
0100
0001
1000
0001
0010
0001
1000
0010
0100
0001
1000
0100
,
1000
0010
0100
0010
1000
0100
0010
0001
1000
0010
0100
0001
0010
0001
1000
0100
0010
0100
1000
0001
0010
0100
1000
0001
,
1000
0100
1000
0010
0100
0001
1000
0001
0010
0001
1000
0010
0100
0010
1000
0001
0100
0010
1000
0001
0010
0100
0010
0001
,
1000
0010
0100
0001
1000
0100
1000
0010
0100
0010
1000
0100
0010
0001
1000
0010
1000
0001
0100
0010
1000
0001
0010
0001
,
1000
0010
0100
0010
1000
0001
0100
0010
1000
0100
1000
0010
0100
0001
0010
0100
0010
0001
1000
0010
1000
0100
0010
0001
,
1000
0010
0100
0001
1000
0001
0010
0001
1000
0010
0100
0010
1000
0100
0010
0001
1000
0001
0100
0010
1000
0100
1000
0010
,
0100
0010
1000
0001
0100
0010
1000
0001
0100
0001
0010
0100
0010
0001
1000
0010
1000
0100
1000
0010
0100
0001
1000
0001
,
0010
0001
1000
0100
0010
0100
1000
0010
0100
0001
1000
0001
0010
0001
1000
0010
1000
0100
1000
0010
0100
0001
1000
0001
,
0010
0100
1000
0001
0100
0001
1000
0100
1000
0010
0100
0010
1000
0001
0100
0010
1000
0001
0010
0001
1000
0010
1000
0100
,
1000
0001
0100
0001
0010
0100
0010
0001
1000
0100
0010
0001
1000
0010
1000
0001
0100
0001
0010
0100
1000
0001
0100
0001
,
1000
0010
0100
0001
1000
0001
0010
0001
1000
0010
1000
0100
1000
0010
0100
0001
1000
0001
0010
0100
0010
0001
1000
0001
,
0100
0010
1000
0001
0010
0001
1000
0010
0100
0001
1000
0100
1000
0010
0100
0001
1000
0001
0100
0010
1000
0001
0010
0100
,
0010
0001
1000
0001
0100
0001
0010
0100
1000
0010
0100
0001
1000
0100
1000
0001
0100
0001
1000
0010
0100
0001
1000
0001
,
0010
0001
1000
0100
0010
0100
1000
0001
0100
0001
1000
0100
0010
0001
1000
0010
1000
0100
0010
0001
1000
0001
0100
0010
,
1000
0001
0100
0001
0010
0100
1000
0010
1000
0100
0010
0001
0100
0001
1000
0010
0100
0001
1000
0001
0010
0100
0010
0001
,
1000
0100
1000
0001
0100
0001
1000
0010
0100
0001
1000
0001
0010
0100
0010
0001
1000
0001
0100
0010
1000
0001
0100
0001
,
0010
0100
0010
0001
1000
0100
0010
0001
1000
0010
1000
0100
1000
0010
0100
0001
1000
0001
0010
0100
0010
0001
1000
0010
,
0100
0001
1000
0100
1000
0001
0100
0010
1000
0001
0010
0100
0010
0001
1000
0010
1000
0100
0010
0100
1000
0001
0010
0100
,
1000
0100
0010
0100
1000
0001
0100
0001
0010
0100
1000
0010
0100
0001
1000
0001
,
0010
0001
1000
0010
1000
0100
0010
0100
1000
0001
0010
0100
1000
0001
0100
0001
,
1000
0010
0100
0001
1000
0001
0010
0001
1000
0100
0010
0100
1000
0001
0100
0001
,
1000
0010
0100
0001
1000
0001
0010
0001
1000
0100
0010
0100
1000
0010
0100
0001
,
1000
0010
1000
0100
1000
0010
0100
0001
0010
0001
0100
0001
1000
0010
1000
0001
,
0100
0001
0010
0100
1000
0001
0100
0001
1000
0010
1000
0100
1000
0001
0100
0001
,
0010
0100
1000
0100
0010
0001
1000
0010
0100
0001
1000
0100
1000
0001
1000
0010
,
0100
0001
0100
0010
0100
0001
0010
0100
1000
0001
0100
0001
1000
0100
0010
0001
,
2000
0000
0000
0000
0000
0000
3020
0230
,
0302
0000
0000
0000
0000
0000
0023
0230
,
2300
0000
0000
3002
,
0203
0000
0000
0320
,
2030
0000
0000
0000
0000
0000
3200
0320
,
0032
0000
0000
0000
0000
0000
0203
0302
,
0023
0000
0000
0230
,
2300
0000
0000
0000
0000
0000
0000
0000
0000
0000
0000
0000
3002
0000
0000
0003
,
2202
0000
0000
3303
0000
0000
0000
0000
0000
0000
0000
0000
2202
0000
0000
3303
0000
0000
0000
0000
0000
0000
0000
0000
2202
0000
0000
3303
0000
0000
0000
0000
0000
0000
0000
0000
1000
0000
0000
0000
0010
0000
0000
0000
0100
0000
0000
0000
,
0002
0003
0000
0000
0000
0000
0000
0000
0000
0000
0000
0000
;

//---------------dance-single - ----------------
#NOTES:
     dance-single:
     :
     Challenge:
     22:
     1.000,1.000,0.019,0.393,1.000,2067.000,3.000,61.000,0.000,3.000:
0000
0000
0000
0000
,
1000
0100
1000
0010
0200
0301
1000
0100
1000
0001
0010
0100
2000
3010
0200
0301
,
0010
0100
1000
0001
2000
3100
0010
0001
1000
0010
0100
0001
0020
0130
2000
3001
,
1000
0100
0010
0001
2000
3100
1000
0001
0010
0100
1000
0001
0200
0301
0020
0130
,
1000
0100
1000
0001
0200
0310
1000
0001
0010
0100
1000
0001
0200
0301
0020
0130
,
2000
3001
0100
0001
2000
3100
0010
0001
2000
3010
0100
0001
2000
3100
2000
3010
,
0200
0301
0010
0100
2000
3010
0100
0001
0020
0130
1000
0001
0200
0310
2000
3100
,
0020
0031
1000
0100
2000
3001
0100
0001
0020
0130
1000
0001
0200
0310
2000
3001
,
0020
0130
1000
0001
0200
0310
1000
0001
0020
0031
1000
0100
0020
0130
1000
0001
,
1000
0100
0010
0001
1000
0010
1000
0100
1000
0001
0100
0001
0100
0010
1000
0001
0010
0100
0010
0001
1000
0001
0100
0001
1000
0100
1000
0010
1000
0100
1000
0001
,
1000
0100
1000
0010
0100
0001
0010
0001
0010
0100
0010
0001
1000
0001
0100
0001
0100
0010
1000
0001
0010
0001
1000
0010
1000
0010
0100
0001
1000
0100
0010
0100
,
1000
0100
0010
0001
1000
0001
0100
0001
1000
0010
1000
0001
1000
0100
0010
0001
1000
0010
1000
0001
1000
0100
1000
0100
0010
0001
1000
0001
0100
0001
0010
0100
,
1000
0001
0010
0001
1000
0100
0010
0100
1000
0001
0010
0100
1000
0001
0100
0010
1000
0001
0010
0001
1000
0100
0010
0001
,
1000
0001
0100
0001
1000
0010
1000
0100
0010
0001
1000
0001
0100
0001
0010
0100
1000
0010
0100
0010
1000
0001
0100
0001
0100
0010
1000
0001
0010
0100
1000
0001
,
1000
0100
1000
0001
0100
0001
1000
0001
1000
0001
0010
0100
0010
0001
1000
0010
1000
0010
0100
0010
1000
0001
0100
0010
1000
0001
0100
0001
1000
0100
1000
0001
,
1000
0100
1000
0010
0100
0001
1000
0001
1000
0010
0100
0010
1000
0100
0010
0001
1000
0001
0100
0010
0100
0001
0010
0100
0010
0001
1000
0100
0010
0001
1000
0001
,
1000
0010
1000
0001
0010
0001
1000
0100
0010
0001
1000
0010
0100
0001
1000
0100
0010
0100
1000
0001
0010
0100
1000
0001
,
1000
0100
0010
0001
1000
0010
1000
0001
0100
0001
0010
0100
1000
0001
0100
0001
1000
0100
0010
0100
1000
0001
0010
0100
0010
0001
1000
0001
0100
0001
1000
0100
,
1000
0001
0100
0001
0100
0010
1000
0001
0010
0100
0010
0001
1000
0001
0100
0001
1000
0100
1000
0100
0010
0100
1000
0001
0100
0001
1000
0010
0100
0001
1000
0100
,
1000
0100
1000
0001
0100
0001
0100
0010
1000
0001
0010
0100
0010
0001
1000
0010
1000
0001
0100
0001
0010
0100
1000
0001
0100
0001
1000
0100
0010
0100
1000
0001
,
1000
0001
0100
0010
1000
0001
0010
0001
1000
0010
0100
0001
1000
0100
1000
0001
0100
0010
1000
0001
0010
0001
1000
0010
,
1000
0100
0010
0001
1000
0010
1000
0100
1000
0001
0100
0001
0100
0010
1000
0001
0010
0100
0010
0001
1000
0100
0010
0001
1000
0001
0100
0001
1000
0100
1000
0001
,
1000
0100
1000
0010
0100
0001
1000
0001
0010
0001
1000
0010
1000
0010
0100
0001
1000
0100
1000
0010
0100
0001
1000
0001
0010
0001
1000
0010
1000
0100
1000
0010
,
0100
0010
1000
0001
1000
0001
0100
0001
0010
0001
0010
0100
0010
0001
1000
0001
0100
0001
1000
0010
1000
0010
0100
0010
1000
0001
0100
0001
0100
0010
1000
0001
,
1000
0001
1000
0001
0010
0001
1000
0100
1000
0010
0100
0001
1000
0001
0010
0001
1000
0100
0010
0100
1000
0001
1000
0100
,
1000
0100
0010
0001
1000
0001
1000
0100
1000
0010
0100
0001
1000
0001
0010
0001
0100
0001
0100
0010
1000
0001
0010
0001
0010
0100
0010
0001
1000
0001
0100
0010
,
1000
0100
1000
0001
0100
0001
0100
0010
1000
0001
0010
0100
0010
0001
0100
0001
0100
0010
0100
0001
0010
0100
1000
0001
0100
0001
1000
0100
0010
0100
1000
0001
,
1000
0010
1000
0010
0100
0001
0100
0001
0010
0100
0010
0001
1000
0001
0100
0001
0010
0100
1000
0010
1000
0100
1000
0001
0100
0001
0010
0100
0010
0001
1000
0100
,
1000
0001
0100
0001
0010
0100
0010
0001
1000
0001
0100
0001
0100
0010
1000
0001
0010
0001
1000
0010
1000
0010
0100
0001
1000
0100
1000
0010
0100
0010
1000
0001
,
0100
0010
1000
0001
0010
0001
0010
0100
0010
0001
1000
0001
0100
0001
0100
0010
1000
0001
0010
0001
1000
0010
1000
0100
1000
0010
0100
0001
1000
0001
0100
0010
,
1000
0001
0010
0001
0010
0001
1000
0100
0010
0100
1000
0010
0100
0001
1000
0001
0100
0001
0010
0001
1000
0010
1000
0001
0100
0001
0010
0100
0010
0001
1000
0001
,
0100
0010
1000
0100
1000
0010
0100
0010
1000
0100
0010
0100
1000
0001
0010
0001
1000
0100
0010
0100
1000
0001
0100
0001
0100
0010
1000
0001
0010
0001
1000
0001
,
1000
0001
0100
0001
1000
0100
1000
0010
0100
0001
1000
0001
1000
0100
1000
0010
0100
0001
0010
0001
0100
0001
0010
0001
0100
0010
1000
0001
0100
0001
0010
0100
,
1000
0001
0100
0001
1000
0010
0100
0001
1000
0001
0010
0100
0010
0001
1000
0100
0010
0001
1000
0010
0100
0001
1000
0100
,
1000
0010
0100
0001
1000
0001
0010
0001
1000
0100
0010
0100
1000
0001
0010
0100
1000
0001
0100
0001
1000
0010
0100
0001
,
1000
0100
1000
0010
0100
0001
1000
0001
0010
0001
1000
0010
0100
0001
1000
0100
1000
0001
0010
0100
1000
0001
0100
0001
,
1000
0010
0100
0001
1000
0001
0010
0001
1000
0010
1000
0100
0010
0100
1000
0001
0010
0100
1000
0001
0100
0001
1000
0010
,
0100
0001
1000
0100
1000
0001
0100
0010
1000
0001
0010
0001
1000
0100
0010
0001
1000
0010
1000
0100
0010
0001
1000
0010
,
0100
0001
0010
0001
1000
0010
0100
0001
1000
0100
1000
0001
0010
0100
1000
0001
0100
0001
1000
0100
0010
0100
1000
0010
,
0100
0001
1000
0001
0010
0001
1000
0100
0010
0100
1000
0010
0100
0001
1000
0001
0010
0001
1000
0100
0010
0100
1000
0010
,
0100
0001
1000
0001
0100
0010
1000
0001
0010
0100
0010
0001
1000
0001
0100
0010
1000
0001
0100
0010
1000
0001
0010
0100
,
1000
0001
0100
0001
1000
0010
0100
0010
1000
0100
1000
0100
0010
0001
1000
0001
1000
0010
1000
0001
0100
0001
0100
0010
1000
0010
0100
0001
0010
0100
1000
0001
,
1000
0100
1000
0001
0100
0010
1000
0001
0100
0001
0100
0010
1000
0001
0010
0100
0010
0001
1000
0100
0010
0001
1000
0001
0100
0001
1000
0100
1000
0010
0100
0001
,
1000
0100
1000
0010
0100
0001
1000
0001
0010
0001
0010
0100
0010
0001
1000
0010
1000
0010
0100
0001
1000
0001
0010
0100
0010
0001
1000
0100
0010
0001
1000
0100
,
1000
0100
0010
0001
0100
0001
1000
0010
1000
0001
0100
0001
0010
0001
1000
0100
0010
0001
1000
0001
0100
0001
1000
0100
,
0010
0001
0100
0001
1000
0010
1000
0100
1000
0010
0100
0001
1000
0001
0010
0001
0100
0001
0100
0010
1000
0001
0010
0100
0010
0001
1000
0001
0100
0001
1000
0100
,
1000
0100
1000
0001
0100
0001
0010
0100
0010
0001
1000
0100
0010
0001
1000
0010
1000
0100
1000
0001
0100
0010
1000
0001
0010
0001
1000
0100
0010
0001
0010
0100
,
1000
0100
1000
0001
0100
0001
0010
0100
1000
0010
0100
0001
1000
0001
0100
0010
1000
0010
0100
0001
0010
0100
1000
0100
0010
0001
1000
0001
0100
0001
1000
0100
,
1000
0001
0100
0001
0010
0100
0010
0001
1000
0010
1000
0100
1000
0010
0100
0010
1000
0001
0100
0010
1000
0001
0010
0001
0100
0001
0010
0100
0010
0001
1000
0100
,
1000
0100
1000
0100
1000
0100
1000
0100
1000
0100
1000
0100
1000
0100
0010
0001
,
1000
0010
1000
0010
1000
0010
1000
0010
1000
0010
1000
0010
1000
0001
0100
0010
,
1000
0100
1000
0100
1000
0100
1000
0100
1000
0100
1000
0100
0010
0100
0010
0100
,
0010
0001
0010
0001
0010
0001
0010
0001
0010
0001
0010
0001
1000
0010
1000
0010
,
1000
0001
0100
0001
0100
0001
0100
0001
0100
0001
0100
0001
1000
0100
0010
0001
,
1000
0010
1000
0010
1000
0010
1000
0010
1000
0010
1000
0010
0100
0001
0010
0100
,
1000
0001
1000
0001
1000
0001
1000
0001
1000
0001
1000
0001
0100
0001
0100
0001
,
0100
0010
0100
0010
0100
0010
0100
0010
0100
0010
0100
0010
1000
0100
1000
0100
,
1000
0001
0100
0010
1000
0001
0010
0001
1000
0010
0100
0010
1000
0100
1000
0001
0100
0010
1000
0001
0010
0001
1000
0010
,
1000
0100
0010
0001
1000
0010
0100
0001
0010
0001
1000
0100
0010
0100
1000
0001
0010
0001
1000
0010
1000
0100
1000
0001
,
0100
0010
1000
0001
0010
0001
1000
0100
0010
0100
1000
0010
0100
0001
1000
0001
0010
0001
1000
0010
0100
0001
1000
0100
,
1000
0010
0100
0010
1000
0100
0010
0001
1000
0010
0100
0001
0010
0001
1000
0100
0010
0100
1000
0001
0010
0100
1000
0001
,
1000
0100
1000
0010
0100
0001
1000
0001
0010
0001
1000
0010
0100
0010
1000
0001
0100
0010
1000
0001
0010
0100
0010
0001
,
1000
0010
0100
0001
1000
0100
1000
0010
0100
0010
1000
0100
0010
0001
1000
0010
1000
0001
0100
0010
1000
0001
0010
0001
,
1000
0010
0100
0010
1000
0001
0100
0010
1000
0100
1000
0010
0100
0001
0010
0100
0010
0001
1000
0010
1000
0100
0010
0001
,
1000
0010
0100
0001
1000
0001
0010
0001
1000
0010
0100
0010
1000
0100
0010
0001
1000
0001
0100
0010
1000
0100
1000
0010
,
0100
0010
1000
0001
0100
0010
1000
0001
0100
0001
0010
0100
0010
0001
1000
0010
1000
0100
1000
0010
0100
0001
1000
0001
,
0010
0001
1000
0100
0010
0100
1000
0010
0100
0001
1000
0001
0010
0001
1000
0010
1000
0100
1000
0010
0100
0001
1000
0001
,
0010
0100
1000
0001
0100
0001
1000
0100
1000
0010
0100
0010
1000
0001
0100
0010
1000
0001
0010
0001
1000
0010
1000
0100
,
1000
0001
0100
0001
0010
0100
0010
0001
1000
0100
0010
0001
1000
0010
1000
0001
0100
0001
0010
0100
1000
0001
0100
0001
,
1000
0010
0100
0001
1000
0001
0010
0001
1000
0010
1000
0100
1000
0010
0100
0001
1000
0001
0010
0100
0010
0001
1000
0001
,
0100
0010
1000
0001
0010
0001
1000
0010
0100
0001
1000
0100
1000
0010
0100
0001
1000
0001
0100
0010
1000
0001
0010
0100
,
0010
0001
1000
0001
0100
0001
0010
0100
1000
0010
0100
0001
1000
0100
1000
0001
0100
0001
1000
0010
0100
0001
1000
0001
,
0010
0001
1000
0100
0010
0100
1000
0001
0100
0001
1000
0100
0010
0001
1000
0010
1000
0100
0010
0001
1000
0001
0100
0010
,
1000
0001
0100
0001
0010
0100
1000
0010
1000
0100
0010
0001
0100
0001
1000
0010
0100
0001
1000
0001
0010
0100
0010
0001
,
1000
0100
1000
0001
0100
0001
1000
0010
0100
0001
1000
0001
0010
0100
0010
0001
1000
0001
0100
0010
1000
0001
0100
0001
,
0010
0100
0010
0001
1000
0100
0010
0001
1000
0010
1000
0100
1000
0010
0100
0001
1000
0001
0010
0100
0010
0001
1000
0010
,
0100
0001
1000
0100
1000
0001
0100
0010
1000
0001
0010
0100
0010
0001
1000
0010
1000
0100
0010
0100
1000
0001
0010
0100
,
1000
0100
0010
0100
1000
0001
0100
0001
0010
0100
1000
0010
0100
0001
1000
0001
,
0010
0001
1000
0010
1000
0100
0010
0100
1000
0001
0010
0100
1000
0001
0100
0001
,
1000
0010
0100
0001
1000
0001
0010
0001
1000
0100
0010
0100
1000
0001
0100
0001
,
1000
0010
0100
0001
1000
0001
0010
0001
1000
0100
0010
0100
1000
0010
0100
0001
,
1000
0010
1000
0100
1000
0010
0100
0001
0010
0001
0100
0001
1000
0010
1000
0001
,
0100
0001
0010
0100
1000
0001
0100
0001
1000
0010
1000
0100
1000
0001
0100
0001
,
0010
0100
1000
0100
0010
0001
1000
0010
0100
0001
1000
0100
1000
0001
1000
0010
,
0100
0001
0100
0010
0100
0001
0010
0100
1000
0001
0100
0001
1000
0100
0010
0001
,
2000
0000
0000
0000
0000
0000
3020
0230
,
0302
0000
0000
0000
0000
0000
0023
0230
,
2300
0000
0000
3002
,
0203
0000
0000
0320
,
2030
0000
0000
0000
0000
0000
3200
0320
,
0032
0000
0000
0000
0000
0000
0203
0302
,
0023
0000
0000
0230
,
2300
0000
0000
0000
0000
0000
0000
0000
0000
0000
0000
0000
3002
0000
0000
0003
,
2202
0000
0000
3303
0000
0000
0000
0000
0000
0000
0000
0000
2202
0000
0000
3303
0000
0000
0000
0000
0000
0000
0000
0000
2202
0000
0000
3303
0000
0000
0000
0000
0000
0000
0000
0000
1000
0000
0000
0000
0010
0000
0000
0000
0100
0000
0000
0000
,
0002
0003
0000
0000
0000
0000
0000
0000
0000
0000
0000
0000
;
