#TITLE:Love Hina Again;
#SUBTITLE:- Kirari Takaramono;
#ARTIST:堀江由衣;
#TITLETRANSLIT:;
#SUBTITLETRANSLIT:;
#ARTISTTRANSLIT:Yui Horie;
#CREDIT:;
#BANNER:LoveHinaAgainLogo.png;
#BACKGROUND:LoveHinaAgainBG.png;
#LYRICSPATH:;
#CDTITLE:;
#MUSIC:LoveHinaAgain.mp3;
#OFFSET:4.476;
#SAMPLESTART:34.085;
#SAMPLELENGTH:12.000;
#SELECTABLE:YES;
#BPMS:0.000=156.050;
#STOPS:;
#BGCHANGES:23.500=LoveHinaAgain.avi=1.000=0=0=1,
229.000=LoveHinaAgainBG.png=1.000=0=0=1,
99999=-nosongbg-=1.000=0=0=0 // don't automatically add -songbackground-
;
// cache tags:
#FIRSTBEAT:12.000;
#LASTBEAT:232.000;
#SONGFILENAME:Songs/Anime Songs/LoveHinaAgain/Love Hina Again - Kirari Takaramono.sm;
#HASMUSIC:1;
#HASBANNER:1;
#MUSICLENGTH:89.498;
// end cache tags

//---------------dance-single - BASIC----------------
#NOTES:
     dance-single:
     BASIC:
     Easy:
     2:
     0.176,0.161,0.056,0.000,0.006,105.000,5.000,0.000,0.000,0.000:


0000
0000
0000
0000
,
0000
0000
0000
0000
,
0000
0000
0000
0000
,
0000
0000
0000
0000
0000
0001
0000
0000
,
0000
1000
0000
0000
0000
0001
0000
0000
,
0000
1000
0000
0000
0000
0100
0000
0000
,
0000
1001
0000
0000
0000
0100
0000
0000
,
0000
1000
0000
0000
0000
0001
0000
0000
,
0000
1001
0000
0000
0000
1000
0000
0000
,
0000
0100
0000
0000
0000
0001
0000
0000
,
0000
1001
0000
0000
0000
0100
0000
0000
,
0000
0000
0000
0000
0000
1000
0000
0000
,
0000
0001
0000
0000
0000
1000
0000
0000
,
0000
0100
0000
0000
0000
0010
0000
0000
,
0000
0100
0000
0000
0000
0010
0000
0000
,
0000
1000
0000
0000
0000
0001
0000
0000
,
0000
1000
0000
0000
0000
0001
0000
0000
,
0000
0001
0000
0000
0000
1000
0000
0000
,
0000
1000
0000
0000
0000
0100
0000
0000
,
0000
0010
0000
0000
0000
0010
0000
0000
,
0000
0001
0000
0000
0000
0010
0000
0000
,
0000
1000
0000
0000
0000
0100
0000
0000
,
0000
0100
0000
0000
0000
0100
0000
0000
,
0000
0100
0000
0000
0000
0001
0000
0000
,
0000
0001
0000
0000
0000
0001
0000
0000
,
0000
0010
0000
0000
0000
0010
0000
0000
,
0000
0010
0000
0000
0000
1000
0000
0000
,
0000
1000
0000
0000
0000
1000
0000
0000
,
0000
0100
0000
0000
0000
0100
0000
0000
,
0000
0100
0000
0000
0000
0001
0000
0000
,
0000
0001
0000
0000
0000
0100
0000
0000
,
0000
1000
0000
0000
0000
0100
0000
0000
,
0000
0010
0000
0000
0000
1000
0000
0000
,
0000
0001
0000
0000
0000
1000
0000
0000
,
0000
0100
0000
0000
0000
0001
0000
0000
,
0000
0001
0000
0000
0000
0001
0000
0000
,
0000
0001
0000
0000
0000
1000
0000
0000
,
0000
0100
0000
0000
0000
0010
0000
0000
,
0000
1000
0000
0000
0000
0100
0000
0000
,
0000
0100
0000
0000
0000
0100
0000
0000
,
0000
0100
0000
0000
0000
0001
0000
0000
,
0000
1000
0000
0000
0000
0001
0000
0000
,
0000
0100
0000
0000
0000
0010
0000
0000
,
0000
1000
0000
0000
0000
0001
0000
0000
,
0000
0001
0000
0000
0000
1000
0000
0000
,
0000
0100
0000
0000
0000
0010
0000
0000
,
0000
0001
0000
0000
0000
0100
0000
0000
,
0000
0100
0000
0000
0000
0100
0000
0000
,
0000
0100
0000
0000
0000
0100
0000
0000
,
0000
0001
0000
0000
0000
0001
0000
0000
,
0000
1000
0000
0000
0000
1000
0000
0000
,
0000
0100
0000
0000
0000
0100
0000
0000
,
0000
0100
0000
0000
0000
0100
0000
0000
,
0000
0100
0000
0000
0000
0010
0000
0000
,
0000
0010
0000
0000
0000
0001
0000
0000
,
0000
1000
0000
0000
0000
0000
0000
0000
,
0000
0000
0000
0000
0000
0000
0000
0000
0000
0000
0000
0000
0000
0000
0000
1001
,
0000
0000
1001
0000;

//---------------dance-single - ANOTHER----------------
#NOTES:
     dance-single:
     ANOTHER:
     Medium:
     5:
     0.378,0.356,0.190,0.045,0.006,216.000,17.000,4.000,0.000,0.000:


0000
0000
0000
0000
,
0000
0000
0000
0000
,
0000
0000
0000
0000
,
0000
0000
0000
0000
0000
0011
0000
1000
,
0000
1000
0000
0001
0000
0001
0000
1000
,
0000
1000
0000
0001
0000
0001
0000
0100
,
0000
0010
0000
1000
0000
0100
0000
0001
,
0000
0001
0000
0100
0000
1000
0000
0001
,
0000
1000
0000
0010
0000
0001
0000
1000
,
0000
0010
0000
0001
0000
0100
0000
1000
,
0000
1001
0000
0110
0000
2002
0000
0000
,
0000
3003
0000
0000
0000
0110
0000
0100
,
0000
1000
0000
0001
0000
0100
0000
0010
,
0000
0001
0000
0001
0000
1000
0000
0100
,
0000
0001
0000
0001
0000
0010
0000
1000
,
0000
0100
0000
0001
0000
1000
0000
0001
,
0000
1000
0000
0001
0000
0100
0000
0010
,
0000
0001
0000
1001
0000
0100
0000
0110
,
0000
1001
0000
0001
0000
0001
0000
0001
,
0000
0001
0000
1000
0000
0100
0000
0010
,
0000
1000
0000
0100
0000
0100
0000
1000
,
0000
0001
0000
0001
0000
1000
0000
1000
,
0000
0100
0000
1001
0000
1001
0000
1000
,
0000
1000
0000
1000
0000
0001
0000
0001
,
0000
0001
0000
0100
0000
0010
0000
0100
,
0000
0010
0000
1000
0000
0100
0000
1000
,
0000
0001
0000
0100
0000
0001
0000
0010
,
0000
1000
0000
0001
0000
0010
0000
1000
,
0000
0010
0000
0001
0000
0100
0000
0001
,
0000
0010
0000
0001
0000
0010
0000
1000
,
0000
0010
0000
0100
0000
0001
0000
1000
,
0000
0001
0000
0110
0000
0110
0000
0001
,
0000
0001
0000
0001
0000
0001
0000
1000
,
0000
1000
0000
1000
0000
1000
0000
0001
,
0000
0001
0000
0001
0000
0001
0000
1000
,
0000
0001
0000
0100
0000
0010
0000
1000
,
0000
0001
0000
0100
0000
1000
0000
0001
,
0000
0010
0000
0001
0000
1000
0000
0001
,
0000
0100
0000
0010
0000
1000
0000
0001
,
0000
0000
0001
1000
0001
1000
0001
0000
,
0000
0001
0000
0001
0000
1000
0000
1000
,
0000
1001
0000
0100
0000
0010
0000
0010
,
0000
0001
0000
1000
0000
0001
0000
0001
,
0000
1001
0000
0001
0000
0001
0000
1000
,
0000
0100
0000
0010
0000
0100
0000
0100
,
0000
0110
0000
0100
0000
0001
0000
0010
,
0000
0100
0000
0010
0000
1000
0000
0100
,
0000
0010
0000
1001
0000
0110
0000
0001
,
0000
1000
0000
0100
0000
1000
0000
0001
,
0000
0100
0000
0010
0000
0001
0000
1000
,
0000
0100
0000
1000
0000
0100
0000
0001
,
0000
1000
0000
0001
0000
0100
0000
0100
,
0000
0100
0000
0100
0000
0100
0000
0010
,
0000
0010
0000
0010
0000
0010
0000
0010
,
0000
1000
0000
0001
0000
1000
0000
0001
,
0000
1000
0000
0100
0100
0100
0100
0100
,
0100
0000
0100
0000
0100
0000
0100
0000
0000
0000
0000
0000
0000
0000
0000
0020
,
0000
0000
0000
0030
0000
0000
0000
0000
0200
0000
0000
0000
0000
0000
0000
0000
,
0300
0000
0000
0000;

//---------------dance-single - MANIAC----------------
#NOTES:
     dance-single:
     MANIAC:
     Hard:
     8:
     0.517,0.680,0.190,0.123,0.056,296.000,17.000,11.000,0.000,0.000:

0000
0000
0000
0000
,
0000
0000
0000
0000
,
0000
0000
0000
0000
,
1000
0100
2000
0000
0000
3001
0000
0000
,
0001
0100
0002
0000
0000
1003
0000
0000
,
1000
0100
2000
0000
0000
3001
0000
0001
,
0000
1000
0000
1010
0000
0101
0000
1100
,
0000
0011
0000
0001
0001
0000
0000
0010
,
0000
0010
1000
0100
1000
0001
1000
0000
,
0000
0100
0000
0001
0000
1000
0001
0010
,
0100
1000
0100
0110
0001
1001
1000
0001
,
0010
0100
0001
0000
0000
1000
0100
0000
,
0000
0001
0000
0100
0000
0001
0100
0000
,
0000
0010
0000
1000
0000
1000
0010
0000
,
0000
0100
0000
0001
0000
0100
0001
0000
,
0000
1010
0000
0001
0001
0100
0000
1000
,
0000
0001
0000
1000
1000
0010
0000
0100
,
0000
1000
0001
1000
0100
0001
0100
0000
,
0110
0000
0100
0100
0010
0010
0100
0010
,
0000
1000
0000
0001
0100
0100
0000
0010
,
0000
0001
1000
0010
0000
0010
0000
0100
,
0010
0100
0001
1000
0001
0100
0010
0000
,
0100
0100
0100
1000
0000
0001
0000
1000
,
0001
1000
0000
0100
0010
0100
0000
0001
,
0010
0001
0000
0010
0100
0010
0000
1000
,
0001
0100
0000
0001
1000
0010
0000
1000
,
0100
0001
0000
0001
1000
0010
0000
0000
,
1010
0000
0101
0000
0000
1000
0000
0010
,
0000
0001
1000
1000
0100
0001
0100
0000
,
0000
0001
0000
0100
0100
0010
0000
1000
,
1000
0001
0000
0100
0001
0001
0000
1000
,
0001
1000
0100
0100
0100
0100
0000
0000
,
1000
0100
2000
0000
0000
3001
0000
0000
,
0001
0100
0002
0000
0000
1003
0000
0000
,
0001
0001
2000
0000
0000
3001
0000
0010
,
0001
1000
0000
0100
0000
0001
0100
0010
,
0000
1000
0000
0001
1000
0000
0000
0100
,
0001
0001
0000
1000
0000
0100
0010
0000
,
0000
1000
1000
0001
0001
1000
1000
0001
,
0000
0000
1000
0001
1000
0100
0100
0000
,
1000
1000
0002
0000
0000
1003
0000
0000
,
0001
1000
2000
0000
0000
3001
0000
0000
,
0100
0100
0002
0000
0000
1003
0000
1000
,
1000
0100
0000
0001
0000
1000
0100
0100
,
0000
0010
0000
1000
0001
0001
0001
1000
,
0100
0100
0000
0010
0000
0010
0010
0000
,
0000
0100
0000
0001
0000
1000
0001
0010
,
0010
0100
0001
0011
1001
1100
0010
0001
,
0010
1000
0001
0000
0000
0100
1000
0001
,
0001
0100
0000
0010
1000
0100
0100
0001
,
0000
0001
0001
1000
1000
1000
0000
0001
,
0000
1000
1000
0000
0000
0010
0000
0100
,
0100
1000
0000
0001
0010
0001
0000
0001
,
0000
0001
0001
0000
0000
0100
0100
0100
,
0100
0100
0000
1001
0000
1001
0000
1001
,
0000
0000
1001
0000
0000
0000
1000
0001
1000
0001
1000
0001
1000
0001
1000
0001
,
1000
0001
1000
0001
1000
0001
1000
0001
0000
0000
0000
0000
0000
0000
0000
2000
,
0000
0000
0200
0000
,
3300
0000
0000
0000;
