#TITLE:Life of a Butterfly;
#SUBTITLE:;
#ARTIST:Nina;
#TITLETRANSLIT:;
#SUBTITLETRANSLIT:;
#ARTISTTRANSLIT:;
#CREDIT:;
#BANNER:Life of a Butterfly-banner.png;
#BACKGROUND:Life of a Butterfly-bg.png;
#LYRICSPATH:;
#CDTITLE:;
#MUSIC:music.ogg;
#OFFSET:0.011;
#SAMPLESTART:58.000;
#SAMPLELENGTH:9.960;
#SELECTABLE:YES;
#BPMS:0.000=136.000,167.000=68.000,183.000=136.000;
#STOPS:129.750=0.441
;
#BGCHANGES:-10000.000=songbackground=1.000=0=0=1,
0.000=Life of a Butterfly-bg.png=1.000=0=0=1,
56.000=In The Groove 2/761_JumpBack.mpg=1.000=0=0=1,
92.000=In The Groove 2/761_JumpBack.mpg=1.000=0=0=1,
108.000=In The Groove 2/934_JumpBack.mpg=1.000=0=0=1,
131.000=In The Groove 2/807_JumpBack.mpg=1.000=0=0=1,
183.000=In The Groove 2/433_JumpBack.mpg=1.000=0=0=1,
219.000=Life of a Butterfly-bg.png=1.000=0=0=1,
99999=-nosongbg-=1.000=0=0=0 // don't automatically add -songbackground-
;
// cache tags:
#FIRSTBEAT:8.000;
#LASTBEAT:219.000;
#SONGFILENAME:Songs/In The Groove 2 (Official)/Life of a Butterfly/Life of a Butterfly.sm;
#HASMUSIC:1;
#HASBANNER:1;
#MUSICLENGTH:105.882;
// end cache tags

//---------------dance-single - K. Ward----------------
#NOTES:
     dance-single:
     K. Ward:
     Hard:
     7:
     0.417,0.465,0.217,0.274,0.071,257.000,23.000,29.000,4.000,0.000:










0000
0000
0000
0000
,
0000
0000
0000
0000
,
0000
0000
0000
0000
,
2002
0000
3003
M00M
,
0010
0000
0100
0001
0000
0001
0010
0000
,
0100
0000
0100
1000
0000
1000
0010
0000
,
0100
0000
0010
0001
0010
0000
0100
0000
,
0001
1000
0000
0110
0000
0000
1001
0000
,
2002
0000
0000
0000
3003
0000
0100
1000
,
0100
0000
0000
0000
0010
0000
0100
0000
0000
0000
0001
0010
0001
0000
0000
0000
,
1000
1000
2000
0100
,
3010
0001
0020
0001
,
0130
0000
0000
0010
0110
0000
0000
0000
,
0100
1000
0010
0100
1001
0000
0000
0000
,
1000
0000
0000
1000
0100
0000
0000
0000
0010
0000
0000
0010
0001
0000
0000
0000
,
0100
1000
0010
0001
,
0100
0100
0100
0000
0010
0010
0010
0000
,
1000
0001
0100
1000
0100
0000
1001
0000
,
0010
0000
0000
0010
0001
0000
0000
0000
1000
0000
0000
1000
0100
0000
0000
0000
,
0010
0001
0100
1000
,
0010
0100
0001
0000
1000
0100
0010
0000
,
0100
0000
0000
0100
0000
0000
0100
0000
2000
0000
0000
0000
0000
0000
0000
0000
,
3100
0000
0000
0010
0001
0010
0100
1000
,
0100
0000
0100
0001
0000
0001
0010
0000
,
0100
0000
0000
0000
1000
0000
0001
0000
0000
0000
0100
0010
0100
0000
0000
0000
,
1100
0110
0002
1000
,
0103
1000
0100
0010
0100
0001
1000
0000
,
0100
0000
0100
0010
0100
0000
0010
0001
,
1000
0010
0000
2002
0000
0000
3003
0000
,
0100
0000
0100
0010
0100
0000
0001
0000
,
1000
0100
0000
0020
0000
0000
0100
0100
,
0130
0000
1100
0000
,
0010
0000
0100
0000
0001
0010
0000
0001
0000
0000
0000
0000
1000
0000
0100
0000
,
0010
0100
1000
0100
0010
0001
0100
0000
,
1000
0000
0010
0000
0001
0000
1000
0100
,
1000
0000
0001
0010
0001
0000
1100
0000
,
0110
0000
1001
0000
0000
0000
0100
0010
,
0100
0010
0001
0010
0100
0001
0010
0000
,
0001
0000
0100
0000
1000
0000
0010
0100
,
0001
0000
0010
0100
1000
0000
0010
0100
,
0001
0010
0200
0000
0000
0000
0010
0000
,
1000
0010
0310
0022
,
0033
0100
2200
0000
3300
0000
0220
0000
,
0330
1001
2002
0000
0000
3003
0020
0000
,
0030
0100
0200
1000
0300
1000
0010
0100
,
0001
0000
0010
0000
0100
1000
0010
0000
0100
0001
0010
0000
1001
0000
0000
0000
,
1000
0000
0000
0000
0010
0000
0100
0000
0001
0000
0000
0000
0010
0000
0000
0010
,
0100
0000
0000
0100
1000
0000
0000
1000
0001
0000
0000
0000
0100
0000
1000
0000
,
0100
0000
0001
0010
0001
0000
1000
0010
,
0001
0010
1000
0000
M11M
0000
0002
0000
,
1003
0200
0310
0200
,
1300
0000
0010
0100
0001
0000
0010
0010
,
0200
0000
0000
0000
1300
0000
1000
0000
0020
0000
0000
0000
0130
0000
0000
0010
,
0000
0100
2002
0000
0000
0000
3003
0000
,
0010
0001
0100
1001
;

//---------------dance-single - K. Ward----------------
#NOTES:
     dance-single:
     K. Ward:
     Easy:
     3:
     0.217,0.259,0.151,0.123,0.000,132.000,16.000,13.000,0.000,0.000:
















0000
0000
0000
0000
,
0000
0000
0000
0000
,
0000
0000
0000
0000
,
0002
0000
0003
0000
,
1000
0010
0100
0000
,
0100
0001
0010
0001
,
1000
0000
0010
0000
,
0100
0010
0001
0010
,
0200
0000
0300
0001
,
1000
0001
1000
0000
,
0000
0010
0100
0001
,
0010
0010
0010
0000
,
1001
0000
0110
0000
,
0001
1000
1001
0000
,
0000
1000
0000
0001
,
0000
0100
0000
0010
,
0000
1000
0000
0001
,
0000
0100
0100
0000
,
0000
0001
0000
1000
,
0000
0010
0000
0100
,
0000
0001
0000
1000
,
0100
0100
0200
0000
,
0000
0300
0000
0000
,
1000
0100
0010
0000
,
0010
0001
1000
0000
,
0010
0100
0100
0001
,
0010
0010
0010
0000
,
0001
0000
1000
0000
,
0010
0100
0100
0000
,
0001
1000
0100
0010
,
0200
0000
0000
0300
,
0010
0000
0001
0000
,
1000
1001
0000
0000
,
0100
0000
0001
0000
,
1000
0001
1000
0000
,
0010
0000
0100
0000
,
0001
1000
0001
0000
,
1100
0000
0011
0000
,
0110
0000
1001
0000
,
0100
0010
0100
0002
,
0000
2000
0000
0000
,
3003
0000
0000
0200
,
0000
0320
0000
2030
,
0000
3001
0000
0100
,
0100
0010
0010
2000
,
0000
0001
0002
0000
3003
0000
0100
0000
,
0100
0110
0000
0010
,
0010
0110
0000
1000
,
0001
1001
0000
0010
,
0100
0110
0000
1000
,
0001
1001
0000
0010
,
0100
0110
0000
1000
,
0001
0100
0010
1000
,
0001
2002
0000
3003
,
0100
0000
0010
1001
;

//---------------dance-single - K. Ward----------------
#NOTES:
     dance-single:
     K. Ward:
     Medium:
     5:
     0.305,0.310,0.217,0.094,0.000,193.000,23.000,10.000,0.000,0.000:

0000
0000
0000
0000
,
0000
0000
0000
0000
,
0000
0000
0000
0000
,
0220
0000
0330
0000
,
1000
0010
0100
0000
0100
0000
0000
0000
,
0100
0001
0010
0000
0010
0000
0000
0000
,
0100
1000
0100
0000
0010
0000
0001
0000
,
1000
0000
0000
0110
0000
0000
0000
0000
,
0002
0000
0003
0010
,
0100
0100
0100
0000
,
1000
0000
1000
0001
0100
0000
0010
0000
,
0100
0000
0000
0001
0000
0000
0010
0000
,
1100
0000
0011
0000
,
0100
0000
0010
0000
1001
0000
0000
1000
,
0100
0000
0000
0100
0010
0000
0000
0010
,
0001
0001
1000
1000
,
0010
0000
0000
0010
0100
0000
0000
0100
,
0001
0010
0011
0000
,
0100
0000
0000
0100
0010
0000
0000
0010
,
0001
1000
0100
1001
,
0100
1000
0001
0010
,
0001
1000
0010
0000
0200
0000
0000
0000
,
0000
0300
0011
1100
,
1001
0000
0000
0000
0000
0000
1000
0010
,
0100
0000
0001
0010
0000
0000
0001
0000
,
1100
1100
0000
0000
,
0010
0100
0010
0100
0010
0000
0000
0000
,
1000
0000
0001
0000
0010
0001
0010
0000
,
0100
0100
0010
0001
,
2000
0000
0010
3100
,
0002
0000
0100
0013
,
0011
0000
1100
0000
,
0110
0000
1001
0000
0000
0000
0001
0010
,
0001
0000
1000
0000
1000
0000
0010
0100
,
0010
0000
1000
0000
1000
0000
0001
0010
,
0001
0000
1000
0000
1000
0000
0010
0100
,
0010
0000
1001
0000
0000
0000
0100
0010
,
0100
0000
0001
0000
0001
0000
1000
0100
,
1000
0001
0001
0010
,
0001
0100
1000
0010
,
0001
2002
0000
3003
,
0100
1000
0010
1001
,
0000
0010
0011
0000
0000
0000
0110
0000
,
0000
0100
1001
0000
0000
0000
1000
0000
,
0001
0000
0100
0000
0010
0000
1000
0001
,
1000
0001
2000
0000
0000
0000
3001
0010
,
0001
0010
0001
0000
0000
0000
0100
1000
,
0100
1000
0100
0000
0000
0000
0001
1000
,
0001
1000
0001
0000
0000
0000
0010
0000
,
0001
0000
0100
0000
1000
0000
0010
0100
,
0010
0100
0010
0000
0000
0000
1000
0001
,
1000
0001
1000
0000
0000
0000
0010
0000
,
0010
0010
0010
0200
,
0000
0000
0000
0300
,
0000
0000
0001
0010
0100
0000
1001
0000
;

//---------------dance-single - K. Ward----------------
#NOTES:
     dance-single:
     K. Ward:
     Beginner:
     1:
     0.092,0.155,0.104,0.000,0.000,57.000,11.000,0.000,0.000,0.000:
















0000
0000
0000
0000
,
0000
0000
0000
0000
,
0000
0000
0000
0000
,
0000
0000
0000
0000
,
1000
0000
0000
0000
,
0001
0000
0000
0000
,
0010
0000
0000
0000
,
0001
0000
0000
0000
,
0100
0000
0000
0000
,
0010
0000
0000
0000
,
1000
0000
0000
0000
,
0001
0000
0000
0000
,
0001
0000
1000
0000
,
0001
0000
0000
0000
,
0110
0000
0000
0000
,
1001
0000
0000
0000
,
1001
0000
0000
0000
,
0110
0000
0000
0000
,
1001
0000
0000
0000
,
0110
0000
0000
0000
,
0001
0000
1000
0000
,
0001
0000
0000
0000
,
0000
0000
0000
0000
,
1000
0000
0000
0000
,
0001
0000
0000
0000
,
0010
0000
0000
0000
,
0001
0000
0000
0000
,
1000
0000
0000
0000
,
0100
0000
0000
0000
,
1000
0000
0000
0000
,
0001
0000
0000
0000
,
1000
0000
1000
0000
,
1000
0000
0000
0001
,
0000
0000
0000
0001
,
0000
0000
0000
0010
,
0000
0000
0000
0010
,
0000
0000
0000
1001
,
0000
0000
0000
0110
,
0000
0000
0000
1001
,
0000
0000
0000
0001
,
0000
1000
0000
0000
,
0000
0000
0000
0010
,
0000
0000
0000
1000
,
0000
0000
0000
0001
,
0000
1000
0000
0010
,
0000
0100
0000
0001
,
0000
0000
0000
1000
,
0000
0000
0000
0010
,
0000
0000
0000
0100
,
0000
0000
0000
1001
,
0000
0000
0000
0110
,
0000
0000
0000
0001
,
0000
1000
0000
0001
,
0000
0000
0000
0000
,
0000
0010
0000
0100
;

//---------------dance-double - M. Emirzian----------------
#NOTES:
     dance-double:
     M. Emirzian:
     Hard:
     7:
     0.447,0.414,0.161,0.038,0.189,310.000,17.000,4.000,0.000,0.000:





































00000000
00000000
00000000
00000000
,
00000000
00000000
00000000
00000000
,
00000000
00000000
00000000
00000000
,
00000000
00000000
00000000
00000000
,
10010000
00000000
00000000
00000000
11000000
00000000
00000000
00100000
01000000
00000000
00010000
00000000
01000000
00000000
00100000
00000000
,
10000000
01000000
00000000
00100000
00000000
00010000
01000000
00001000
,
00010000
00000000
00000000
00000000
00000100
00000000
00000000
00010000
00001000
00000000
00000100
00000000
00001000
00000000
00010000
00000000
,
00000100
00002000
00000000
00000010
00000000
00000001
00000000
00003100
,
00000010
00000000
00000000
00000000
00001001
00000000
00000000
00000010
00000100
00000000
00000001
00000000
00000100
00000000
00000010
00000000
,
00001000
00000100
00000000
00010000
00000000
00001000
00000000
01000000
,
00010000
00000000
10000000
00000000
01000000
00000000
00000000
01000000
00100000
00000000
00010000
00000000
10000000
00000000
00100000
00000000
,
00010000
00001000
01000000
00010000
00000000
00100000
00001000
00010000
,
00000010
00000000
00000000
00000000
00001010
00000000
00000000
00000100
00001000
00000000
00000001
00000000
00000100
00000000
00001000
00000000
,
00010000
00001000
00000100
00000001
00000000
00001000
00000000
00000100
,
00010000
00000000
00000000
00001000
00000000
00000000
00010000
00000000
00000100
00000000
00000000
00000000
00010000
00000000
00001000
00000000
,
01000000
00000000
00000000
00010000
00000000
00000000
10000000
00000000
01000000
00000000
00100000
00000000
00010000
00000000
10000000
00000000
,
00100000
00000000
00000000
01000000
00000000
00000000
00001000
00000000
00010000
00000000
00000000
00100000
00000000
00000000
00010000
00000000
,
00001000
01000000
00000000
00001000
00010000
00000000
00010010
00000000
,
00000100
00000000
00000000
00000010
00000000
00000000
00001000
00000000
00000010
00000000
00000000
00000000
00000001
00000000
00001000
00000000
,
00000010
00000000
00000000
00000100
00000000
00000000
00000001
00000000
00000100
00000000
00001000
00000000
00010000
00000000
00001000
00000000
,
00000100
00000000
00000000
00000001
00000000
00000000
00000010
00000000
00001000
00000000
00000000
00010000
00000000
00000000
00100000
00000000
,
10000000
00000000
00000000
01000000
00000000
00000000
00100000
00000000
00010000
00000000
00000000
00000000
01010000
00000000
00000000
00000000
,
00100000
00000000
00000000
10000000
00000000
00000000
00010000
00000000
01000000
00000000
00000000
00000000
10010000
00000000
00000000
00000000
,
00110000
00000000
00000000
00000000
01000000
00000000
00000000
01000000
10000000
00000000
00100000
00000000
00010000
00000000
00001000
00000000
,
00010000
00100000
00000000
00010000
00000000
00001000
00010000
00000010
,
00001000
00000000
00000000
00000000
00000010
00000000
00000000
00000010
00000100
00000000
00000001
00000000
00001000
00000000
00000100
00000000
,
00000010
00000002
00000000
00001000
00000000
00000100
00000000
00000013
,
00000100
00000000
00001000
00000000
00000001
00000000
00000000
00000001
00000100
00000000
00001000
00000000
00010000
00000000
00100000
00000000
,
10000000
01000000
00000000
00100000
00000000
00001000
00000000
00010000
,
00000100
00000000
00010000
00000000
00001000
00000000
00000000
00010000
01000000
00000000
10000000
00000000
01000000
00000000
00010000
00000000
,
00001000
00000100
00000000
00000001
00000000
00001000
00000100
00000010
,
00000001
00000000
00000000
00000000
00001100
00000000
00000000
00000001
00000100
00000000
00000010
00000000
00001000
00000000
00000100
00000000
,
00010000
00000000
00001000
00000000
01000000
00000000
00000000
00022000
00000000
00033000
00000000
00000000
00010000
00000000
00000000
00001000
,
00000000
00000000
01000000
00000000
10000000
00000000
00000000
00000000
01000000
00000000
00010000
00000000
00100000
00000000
00000000
01000000
,
00000000
00000000
10000000
00000000
00100000
00000000
00010000
00000000
00001000
00000000
00010000
00000000
00100000
00000000
00000000
10000000
,
00000000
00000000
01000000
00000000
00010000
00000000
00000000
00001000
00000000
00000000
01000000
00000000
00100000
00000000
01000000
00000000
,
00000000
00000000
00001000
00000000
00010000
00000000
00000000
00000000
00010010
00000000
00000000
00000000
00010000
00000000
00000000
00000010
,
00000000
00000000
00000001
00000000
00000010
00000000
00000000
00000000
00000100
00000000
00010000
00000000
00001000
00000000
00000000
00000100
,
00000000
00000000
00000001
00000000
00000010
00000000
00001000
00000000
00010000
00000000
00000100
00000000
00010000
00000000
00000000
00100000
,
00000000
00000000
10000000
00000000
01000000
00000000
00000000
00010000
00000000
00000000
01000000
00000000
10000000
00000000
00000000
00100000
,
00000000
00000000
01000000
00000000
00001000
00000000
00000000
00000000
00011000
00000000
00000000
00000000
00010000
00000000
00000000
00001000
,
00000000
00000010
00000001
00000000
00000000
00000000
00000010
00010000
,
00001000
01000000
00100000
00000000
10000000
01000000
00010000
00000000
,
00000000
01000000
00010000
00000010
00000100
00000000
00000001
00000000
,
00000000
00000010
00001000
01000000
00000000
00100000
10000000
01000000
,
00000000
00000000
00100000
00000000
00010000
00000000
01000000
00000000
00001000
00000000
00000100
00000000
00000001
00000000
00000000
00000010
,
00000000
00000000
00000100
00000000
00001000
00000000
00000000
00000000
00000001
00000000
00000100
00000000
00001000
00000000
00000000
00010000
,
00000000
00000000
00100000
00000000
10000000
00000000
00100000
00000000
00010000
00000000
00001000
00000000
00010000
00000000
00000000
01000000
,
00000000
00000000
10000000
00000000
01000000
00000000
00000000
00010000
00000000
00000000
00001000
00000000
00000100
00000000
00001000
00000000
,
00000000
00000000
00100000
00000000
00010000
00000000
00000000
00000000
00011000
00000000
00000000
00000000
00000010
00000000
00000000
00001000
,
00000000
00000000
00000100
00000000
00000010
00000000
00000000
00000000
00000001
00000000
00000100
00000000
00000010
00000000
00000000
00001000
,
00000000
00000000
00000100
00000000
00010000
00000000
00001000
00000000
00010000
00000000
00100000
00000000
01000000
00000000
00000000
00010000
,
00000000
00000000
01000000
00000000
10000000
00000000
00000000
01000000
00000000
00000000
00001000
00000000
00010000
00000000
00000000
00000100
,
00000000
00000010
00000100
00000000
00001001
00000000
00000010
00000000
,
00010010
00001000
01001000
01010000
;

//---------------dance-double - M. Emirzian----------------
#NOTES:
     dance-double:
     M. Emirzian:
     Easy:
     3:
     0.205,0.207,0.009,0.000,0.000,151.000,1.000,0.000,0.000,0.000:





































00000000
00000000
00000000
00000000
,
00000000
00000000
00000000
00000000
,
00000000
00000000
00000000
00000000
,
00000000
00000000
00000000
00000000
,
00010000
00000000
10000000
01000000
,
10000000
01000000
10000000
00000000
,
00100000
00000000
01000000
00010000
,
01000000
00010000
01000000
00000000
,
00100000
00000000
00001000
00010000
,
00001000
00010000
00001000
00000000
,
00000100
00000000
00001000
00010000
,
00001000
00010000
00001000
00000000
,
00000001
00000000
00001000
00000000
,
00000100
00000000
00010000
00000000
,
00001000
01000000
00010000
01000000
,
10000000
00000000
00010000
00000000
,
10000000
01000000
10000000
01000000
,
00100000
00000000
00010000
00000000
,
01000000
00001000
01000000
00001000
,
00010000
00000000
00001000
00000000
,
00010000
00010000
00000100
00000100
,
00001000
00000000
00000001
00000000
,
00000100
00000100
00000010
00001000
,
00000100
00000000
00001000
00000100
,
00001000
00000100
00001000
00000000
,
00010000
00000000
00001000
00010000
,
00001000
00010000
00001000
00000000
,
01000000
00000000
00010000
10000000
,
00010000
10000000
00010000
00000000
,
00100000
00000000
00001000
00010000
,
00001000
00010000
00001000
00000000
,
00010000
00000000
00010000
00010000
,
00001000
00001000
00000000
00000100
,
00000100
00000010
00000010
00000001
,
00000000
00000100
00000000
00000010
,
00000010
00001000
00001000
00000100
,
00000000
00010000
00000000
00001000
,
01000000
00010000
01000000
00100000
,
00000000
01000000
00000000
00010000
,
01000000
00001000
00010000
00000100
,
00000000
00010000
00010000
00001000
,
00001000
00000100
00000000
00000001
,
00000000
00001000
00000000
01000000
,
00000000
00010000
00000000
00001000
,
00000000
00000010
00000000
00001000
,
00000000
00000000
00010000
00000000
00000000
00000100
00010000
00000000
,
00001000
00000000
00010000
00000000
,
00001000
01000000
00010000
01000000
,
00010000
00000000
10000000
00000000
,
01000000
00100000
00010000
00100000
,
00010000
00000000
00001000
00000000
,
00010000
00010000
00001000
00001000
,
00000100
00000000
00000001
00000000
,
00001000
00001000
00000100
00000100
,
00010000
00001000
00010000
00011000
;

//---------------dance-double - M. Emirzian----------------
#NOTES:
     dance-double:
     M. Emirzian:
     Medium:
     6:
     0.363,0.336,0.085,0.019,0.005,258.000,9.000,2.000,0.000,0.000:





































00000000
00000000
00000000
00000000
,
00000000
00000000
00000000
00000000
,
00000000
00000000
00000000
00000000
,
00000000
00000000
00000000
00000000
,
00010000
00000000
10000000
00000000
10000000
00100000
01000000
00010000
,
10000000
00000000
01000000
00000000
01000000
00100000
00010000
10000000
,
01000000
00000000
00100000
00000000
00100000
00001000
00010000
00001000
,
01000000
00000000
00001000
00000000
00001000
00010000
00000100
00010000
,
00001000
00000000
00000010
00000000
00000010
00000100
00001000
00000100
,
00000010
00000000
00000001
00000000
00000001
00000100
00000010
00000100
,
00000001
00000000
00001000
00000000
00001000
00000100
00001000
00000001
,
00001000
00000000
00000100
00000000
00000100
00010000
00001000
00010000
,
00000010
00000000
00010000
00000000
00010000
00001000
01000000
00001000
,
00010000
00000000
01000000
00000000
01000000
00100000
00010000
00100000
,
01000000
10000000
00010000
01000000
,
00100000
00000000
10000000
01000000
00100000
00010000
00100000
00000000
,
01000000
10000000
01000000
00100000
,
00001000
00000000
00010000
00001000
00010000
00000100
00010000
00000000
,
00000010
00001000
00000100
00000010
,
00000001
00000000
00001000
00000010
00000100
00000010
00001000
00000000
,
00000001
00000010
00001000
00010000
,
00000100
00000000
00010000
00001000
01000000
00010000
01000000
00000000
,
00010000
10000000
01000000
00100000
,
00010000
00000000
10000000
00000000
00100000
01000000
00010000
01000000
,
00100000
00000000
10000000
00000000
01000000
00100000
00010000
00100000
,
01000000
00000000
00100000
00000000
00001000
00010000
00001000
01000000
,
00001000
00000000
00010000
00000000
00000100
00001000
00000100
00010000
,
00001000
00000000
00010000
00000000
00000100
00001000
00000001
00000100
,
00000010
00000000
00001000
00000000
00000100
00000010
00000001
00001000
,
00000100
00000000
00000010
00000000
00000100
00001000
00000001
00000100
,
00000010
00000000
00001000
00000000
00000100
00010000
00001000
00100000
,
00001000
00000000
00010000
00000000
00001000
01000000
00010000
01000000
,
00100000
00000000
00000000
00000000
10000000
00000000
00000000
00010000
00000000
00000000
00000000
00000000
10000000
00000000
00000000
00000000
,
01000000
00100000
00010000
01000000
,
00010000
01000000
00100000
10000000
00100000
00000000
01000000
00000000
,
00001000
00010000
00000100
00001000
,
00000001
00000010
00000100
00001000
00000100
00000000
00000010
00000000
,
00000001
00000100
00000010
00001000
,
00000100
00010000
00000100
00010000
00001000
00000000
00010000
00000000
,
00001000
00000100
00001000
00010000
,
00100000
20200000
00000000
00000000
,
00000000
00000000
30300000
11000000
,
00000000
00100000
00101000
00000000
00000000
00010000
00011000
00000000
,
00000000
00000100
00010100
00000000
00000000
00000010
00010010
00000000
,
00000000
00000001
00000110
00000000
00000000
00010000
00011000
00000000
,
00000000
00000100
00010000
00001000
01000000
00100000
10000000
00000000
,
01000000
00100000
00010000
00100000
,
01000000
10000000
01000000
00100000
00010000
00000000
00100000
00000000
,
00001000
00010000
00000100
00001000
,
00000010
00000100
00000001
00000100
00000010
00000000
00001000
00000000
,
00000100
00000010
00000100
00001000
,
00000010
00000100
00001000
00000100
00000010
00000000
00000100
00000000
,
00001000
00010000
00000100
00010000
,
00001000
01000000
00000000
00010000
,
10000000
01000000
00100000
00110000
;

//---------------dance-single - K. Ward----------------
#NOTES:
     dance-single:
     K. Ward:
     Challenge:
     9:
     0.542,0.621,0.387,0.321,0.085,327.000,41.000,34.000,26.000,13.000:



0000
0000
0000
0000
,
0000
0000
0000
0000
,
0001
0000
1000
0000
0100
0010
0000
0000
0100
0000
0010
0000
0001
0100
0000
0000
,
2M02
00M0
0M00
30M3
,
2100
0000
0000
0000
3010
0000
0001
0000
0010
0100
0000
0000
1001
0000
0000
0000
,
0012
0000
0000
0000
1003
0000
0100
0000
0010
0100
0000
0000
1010
0000
0000
0000
,
0120
0000
0000
0000
0031
0000
0010
0000
0100
0010
0000
0000
1100
0000
0000
0000
,
0100
0010
0001
0100
1000
0100
0001
0000
,
2000
0100
3100
0000
0002
0010
0013
0000
,
0100
0000
0010
0000
0001
0000
0010
0000
0100
0000
0000
0000
0001
1000
0001
1000
,
0001
0000
0100
0010
1000
0000
1100
0000
,
0001
0100
1000
0100
0001
0100
1000
0100
,
0020
0000
1000
1030
0200
0000
0010
0310
,
0001
0100
1000
0100
0010
0100
2001
0000
,
3010
0001
0010
0100
0010
0001
0010
1000
,
0100
0001
0100
2000
0100
0100
3100
0000
,
1001
0001
0001
0000
0110
0100
0100
0000
,
0011
0001
0001
0000
1100
0000
0011
0000
,
0100
0010
0100
1000
0100
0010
0100
0001
,
0010
0100
1000
0200
0010
0010
0310
0000
,
1001
1000
1000
0000
0110
0010
0010
0000
,
1000
0100
0001
0100
1000
0010
0100
1000
,
0100
0001
0010
0200
0010
0000
1300
0000
,
2002
0000
0010
3003
,
2000
0200
0001
3300
,
MM00
0000
0010
0100
0001
0000
0010
0100
,
0010
M10M
0000
2200
0000
0000
0010
0000
,
0001
0000
3300
0000
MM00
0000
0010
0100
,
0001
0010
0000
0202
0000
0000
0000
0000
,
1000
0010
1000
0010
1000
0000
M3M3
0M0M
,
1000
0100
0010
0001
0001
0010
0100
0010
,
1001
0000
0010
0100
1100
0000
0100
0010
,
0101
0000
0000
0000
0010
0000
0100
0002
0003
0000
000M
0000
1000
0000
1000
0000
,
0010
0010
0100
0100
0001
0001
1000
1000
,
0100
0010
0100
0100
1001
0000
0011
0001
,
0001
0000
0110
0100
0100
0000
0001
0100
,
1000
0100
0010
0000
1100
0000
0001
0001
,
0100
0100
0010
0010
1000
1000
0100
0100
,
0010
0000
0100
0000
0010
0000
0010
0000
1001
0000
0000
0000
1000
0000
0000
0010
,
0000
0000
0100
0000
0001
0000
0000
0010
0000
0000
0100
0000
1000
0000
0100
0000
,
0010
0001
0020
0000
0100
0000
0031
0000
,
0001
0100
1000
0100
0010
0100
2002
0000
,
0000
0010
0010
3003
M00M
0000
2200
0000
,
0000
0001
0010
3300
MM00
0000
0110
0001
,
0010
0000
0100
0000
0010
0000
0102
0000
0000
0000
1003
0000
0100
1000
0100
0000
,
0010
0001
0010
0000
0100
0010
0001
0100
0010
0100
1001
0000
1000
0000
0100
0000
,
0001
0100
1000
0010
0001
0010
1000
0100
,
0001
0100
1000
0100
1010
0000
0001
0100
,
1000
0100
0001
0010
1000
0010
0001
0100
,
1000
0000
0100
0000
0001
0000
0000
1000
0000
0000
0100
0000
0010
0000
0100
0000
,
0210
000M
0310
0M01
0012
0000
0103
1000
,
120M
0000
M310
0100
1002
0000
1003
0100
,
0001
0000
0100
0000
1000
0000
0010
0000
0001
0000
0010
0000
0100
0000
0000
1001
,
0000
0110
2002
0000
0000
0000
3003
M01M
,
0100
0000
0000
0001
0000
0000
0000
0000
000M
0010
0000
0000
0100
0000
0000
0010
0000
0000
1001
0000
0000
0000
0000
0000
;

//---------------dance-double - M. Emirzian----------------
#NOTES:
     dance-double:
     M. Emirzian:
     Challenge:
     9:
     0.530,0.465,0.378,0.104,0.165,342.000,40.000,11.000,2.000,7.000:












00000000
00000000
00000000
00000000
,
00000000
00000000
00000000
00000000
,
10000000
00000000
01000000
00000000
00100000
00001000
00000000
00000000
01000000
00000000
00010000
00000000
00100000
00001000
00000000
00000000
,
00020200
00000000
00000000
00030300
,
00000010
00000000
00000100
00000000
00000001
00000000
00000000
00000001
00000100
00000000
00000010
00000000
00010000
00000000
00000100
00000000
,
00010000
00011000
00000000
00100010
00000000
00010000
00001000
01000000
,
00010000
00000000
00100000
00000000
00010000
00000000
00000000
00010000
00100000
00000000
10000000
00000000
00100000
00000000
00001000
00000000
,
01000000
01010000
00000000
01000100
00000000
00000110
00000000
00000001
,
00001000
00000000
00000010
00000000
00000100
00000000
00000000
00000100
00000010
00000000
00000001
00000000
00000010
00000000
00010000
00000000
,
00000100
00020000
00000000
00000010
00000000
00001000
00000000
00030100
,
00010000
00000000
00001000
00000000
01000000
00000000
00000000
01000000
00100000
00000000
00010000
00000000
00100000
00000000
10000000
00000000
,
00001000
00010000
00000001
00000010
00000000
00000001
00010000
00001000
,
10000000
00000000
00000000
00000000
11000000
00000000
00000000
00100000
01000000
00000000
00010000
00000000
00100000
00000000
01000000
00000000
,
00200000
10000000
00000000
00001000
00000000
00000100
00300000
00001000
,
00000100
00000010
00000001
00000010
00001000
00000010
00000100
00010000
,
00000100
00000000
00000000
00001000
00000000
00000000
00000010
00000000
00000100
00000000
00001000
00000000
00010000
00000000
00100000
00000000
,
10000000
00000000
00000000
01000000
00000000
00000000
00100000
00000000
01000000
00000000
00000000
10000000
00000000
00000000
00100000
00000000
,
00010000
00100000
00000000
01000000
00000100
00000000
00000010
00000001
,
00001000
00000010
00000100
00000010
00001000
00000001
00010000
00001000
,
10000000
00000000
00000000
00100000
00000000
00000000
00010000
00000000
00001000
00000000
00000100
00000000
00001000
00000000
00010000
00000000
,
01000000
00000000
00000000
10010000
00000000
00000000
00100000
00000000
01000000
00000000
00000000
00011000
00000000
00000000
00000100
00000000
,
00000010
00000000
00000000
00001001
00000000
00000000
00000010
00000000
00000100
00000000
00000001
00000000
00001000
00000000
00000100
00000000
,
00000010
00000000
00000000
00001100
00000000
00000000
00000010
00000000
00010000
00000000
00000000
00000000
00011000
00000000
00000000
00000000
,
01000000
00000000
10000000
00000000
00100000
00000000
00000000
00100000
10000000
00000000
01000000
00000000
00100000
00000000
00001000
00000000
,
01000000
00110000
00000000
01001000
00000000
00100000
01000000
00100000
,
00001000
00000000
01000000
00000000
00010000
00000000
00000000
00010000
10000000
00000000
01000000
00000000
00010000
00000000
00001000
00000000
,
00000100
00001001
00000000
00010010
00000000
00110000
00000000
01000000
,
00100000
00000000
01000000
00000000
00010000
00000000
00000000
00010000
10000000
00000000
00100000
00000000
01000000
00000000
00010000
00000000
,
10000000
21000000
00000000
00010000
00000000
00100000
00000000
31000000
,
00100000
00000000
00010000
00000000
00100000
00000000
00000000
00100000
00001000
00000000
00010000
00000000
01000000
00000000
00010000
00000000
,
00001000
00000010
00000001
00001000
00000000
00000001
00010000
00001000
,
10000000
00000000
00000000
00000000
00110000
00000000
00000000
01000000
00100000
00000000
10000000
00000000
01000000
00000000
00100000
00000000
,
00001000
00000000
00010000
00000000
00000100
00000000
00000000
00010010
00000000
000M00M0
00000000
00000000
00010000
00000000
00000010
00000000
,
00000100
00000000
00000001
00000000
00000100
00000000
00000010
00000000
00010000
00000000
00001000
00000000
01000000
00000000
00000000
00001000
,
00000000
00000000
00010000
00000000
00001000
00000000
01000000
00000000
00010000
00000000
10000000
00000000
01000000
00000000
00000000
00100000
,
00000000
00000000
00001000
00000000
00000100
00000000
00000000
00001000
00000000
00000000
00100000
00000000
00001000
00000000
00000010
00000000
,
00000000
00000100
01000000
00000000
00000010
00000100
00000001
00010000
,
00001000
00000000
10000000
00000000
00100000
00000000
01000000
00000000
00001000
00000000
00010000
00000000
01000000
00000000
00000000
10000000
,
00000000
00000000
00100000
00000000
01000000
00000000
00100000
00000000
10000000
00000000
01000000
00000000
00100000
00000000
00000000
10010000
,
00000000
00000000
00001000
00000000
00010000
00000000
00000000
01000100
00000000
00000000
00000010
00000000
00000100
00000000
00000000
00001001
,
00000000
00000000
00000010
00000000
00000100
00000000
00001000
00000000
00000100
00000000
00000010
00000000
00000001
00000000
00000000
00001100
,
00000000
00001000
00010000
00000000
10010000
00000000
02002000
00000000
,
00000000
00000000
00000000
00000000
00010000
00000000
00000000
00000000
10000000
03003000
00000000
00000000
00000000
00000000
00000000
00000000
00000000
00000000
00000000
00000000
00000000
00000000
00000000
00000000
00020002
00000000
00000000
00000000
00000000
00000000
00000000
00000000
,
00000000
00000000
00000000
00000000
00000010
00000000
00000000
00000000
00001000
00030003
00000000
00000000
00000000
00000000
00000000
00000000
00000000
00000000
00000000
00000000
00000000
00000000
00000000
00000000
02200000
00000000
00000000
00000000
00000000
00000000
00000000
00000000
,
00000000
00000000
00001000
00000000
00010000
00000000
00001000
03300000
00000000
00000000
00010000
00000000
00100010
00000000
00011000
00000000
,
00000000
00000100
00001000
00000010
00001001
00001100
00000010
00001000
,
00000100
00000000
00000010
00000000
00000100
00000000
00010000
00000000
00001000
00000000
01000000
00000000
00001000
00000000
00000000
00010000
,
00000000
00000100
00010000
00000010
00001000
00000100
00010000
00001000
,
01000000
00010000
01000000
00001000
00010000
00000001
00001000
00000100
,
00000000
00000010
00001001
00000000
00000001
00000010
00000100
00001000
,
00000100
00000000
00000010
00000000
00000001
00000000
00010000
00000000
00001000
00000000
10000000
00000000
00010000
00000000
00000000
01000000
,
00000000
00000000
00100000
00000000
10000000
00000000
00100000
00000000
00010000
00000000
00100000
00000000
10000000
00000000
00000000
11000000
,
00000000
00000000
00100000
00000000
00001000
00000000
00000000
00010010
00000000
00000000
00001000
00000000
00000100
00000000
00000000
00010100
,
00000000
00001000
00010000
00100000
00010000
00001000
00000010
00000000
,
00001001
00010010
00011000
01100000
;
