#TITLE:Got a Lego;
#SUBTITLE:;
#ARTIST:Trucks Factory;
#TITLETRANSLIT:;
#SUBTITLETRANSLIT:;
#ARTISTTRANSLIT:;
#CREDIT:;
#BANNER:../Jawn - ban.png;
#BACKGROUND:../Jawn - bg.png;
#LYRICSPATH:;
#CDTITLE:;
#MUSIC:Got a Lego.ogg;
#OFFSET:0.009;
#SAMPLESTART:77.205;
#SAMPLELENGTH:12.000;
#SELECTABLE:YES;
#BPMS:0.000=240.000;
#STOPS:;
#BGCHANGES:;
// cache tags:
#FIRSTBEAT:12.000;
#LASTBEAT:443.000;
#SONGFILENAME:Songs/Jimmy Jawns/Got a Lego - [Aoreo]/Got a Lego.sm;
#HASMUSIC:1;
#HASBANNER:1;
#MUSICLENGTH:112.000;
// end cache tags

//---------------dance-single - J. Nero----------------
#NOTES:
     dance-single:
     J. Nero:
     Challenge:
     20:
     1.000,1.000,0.000,0.009,1.000,1304.000,0.000,1.000,0.000,0.000:
0000
0000
0000
0000
,
0000
0000
0000
0000
,
0000
0000
0000
0000
,
0001
0000
0100
0001
0000
1000
0000
0100
,
0000
0010
0001
0000
0100
0000
0010
0000
,
1000
0000
0100
1000
0000
0010
0000
0100
,
0000
0001
0000
1000
0100
0000
1000
0000
,
0001
0000
0100
0010
0000
0100
0000
0001
,
0000
0010
0100
0000
1000
0000
0001
0000
,
0100
0000
0001
1000
0000
0100
0000
0010
,
0000
0001
0000
1000
0010
0000
0100
0000
,
0001
0100
0010
1000
,
0100
0000
0010
0000
0001
0000
1000
0010
,
1000
0100
0010
0001
,
0100
0000
0001
0000
1000
0001
0100
0001
,
0010
0100
1000
0010
,
0100
0000
0001
0000
1000
0000
0100
0010
,
0001
1000
0010
0100
,
0010
0000
1000
0000
0001
0100
0001
1000
,
0000
0000
0000
0000
,
0000
0000
0000
0000
,
0000
0000
0000
0000
,
0000
0000
0000
0000
,
0001
0100
0001
1000
0100
0010
0001
1000
0001
0100
0010
1000
0001
0010
0100
1000
,
0001
0100
0001
1000
0010
1000
0001
0100
0010
0100
0001
0010
0100
1000
0001
1000
,
0010
0100
0010
0100
0001
1000
0100
1000
0010
0100
0001
1000
0001
0010
0100
1000
,
0001
0100
0001
1000
0100
0010
0001
1000
0001
0100
0010
0100
0001
1000
0010
1000
,
0100
0010
0001
0100
0001
1000
0010
0100
0001
1000
0100
0010
0001
1000
0010
0100
,
0001
1000
0001
0100
0010
0100
0001
1000
0001
0010
0100
1000
0010
0100
0010
1000
,
0001
1000
0100
0010
0001
1000
0001
0100
0010
0100
0001
0010
0100
1000
0001
1000
,
0010
1000
0001
0100
0001
1000
0100
0010
0001
1000
0001
0100
0010
0100
0001
1000
,
0001
0010
0100
1000
0001
1000
0010
0100
0001
0010
0100
1000
0001
0100
0010
1000
,
0001
1000
0100
0010
0001
1000
0001
0100
0010
1000
0100
0010
0001
1000
0001
0100
,
0001
1000
0010
0100
0010
1000
0001
1000
0100
0010
0001
0100
0001
1000
0001
0100
,
0010
0100
0001
1000
0100
0010
0001
1000
0001
0100
0010
0100
0001
1000
0001
0100
,
0010
0100
0001
1000
0001
0010
0100
1000
0001
0100
0010
1000
0001
0010
0100
1000
,
0001
0100
0001
1000
0010
0100
0010
1000
0100
0010
0001
1000
0001
0100
0001
1000
,
0010
1000
0001
1000
0010
0100
0001
0010
0100
1000
0001
0100
0001
1000
0100
1000
,
0001
0100
0001
1000
0100
1000
0001
0010
0100
1000
0001
0010
0001
1000
0100
1000
,
0001
0000
0000
0000
,
1000
0100
0010
0001
,
1000
0010
0100
0001
,
1000
0100
0010
0001
,
1000
0001
1000
0010
0100
0010
1000
0001
0100
0001
1000
0100
0010
0001
1000
0001
,
0100
0010
0100
0001
1000
0001
0010
0100
1000
0001
0100
0001
1000
0010
0100
0010
,
1000
0001
1000
0100
0010
0001
1000
0001
0100
0001
1000
0100
0010
0100
1000
0001
,
0100
0001
0010
0100
1000
0010
0100
0010
1000
0001
1000
0100
0010
0001
1000
0001
,
0100
0010
0100
0001
1000
0100
1000
0001
1000
0010
0100
0010
1000
0001
0010
0100
,
1000
0001
0100
0001
1000
0001
0010
0100
1000
0001
0100
0001
1000
0010
0100
0010
,
1000
0001
1000
0010
0100
0001
1000
0001
0010
0100
1000
0001
0100
0001
1000
0100
,
1000
0010
0100
0001
0010
0100
1000
0001
0100
0001
1000
0001
1000
0010
0100
0010
,
1000
0001
0010
0100
1000
0001
0100
0001
1000
0100
1000
0001
0010
0100
1000
0001
,
0100
0010
0100
0001
1000
0100
0010
0001
1000
0001
0100
0010
0100
0001
1000
0001
,
0100
0010
0100
0001
1000
0100
1000
0001
1000
0010
0100
0001
1000
0100
1000
0010
,
0100
0001
0010
0100
1000
0001
1000
0010
0100
0001
1000
0001
0100
0010
0100
0001
,
1000
0100
1000
0001
0010
0100
1000
0001
0100
0001
1000
0001
0100
0010
0100
0001
,
1000
0100
1000
0001
0100
0010
0100
0001
1000
0100
0010
0001
1000
0001
0100
0010
,
0100
0001
1000
0001
0010
0100
1000
0001
1000
0010
0100
0010
1000
0001
0100
0001
,
0010
0100
1000
0010
0100
0010
1000
0001
0100
0001
1000
0100
0010
0001
1000
0010
,
0100
0010
1000
0001
0100
0010
0100
0001
1000
0100
0010
0001
1000
0010
1000
0010
,
0100
0001
1000
0001
0010
0100
1000
0001
0010
0001
1000
0010
1000
0001
0010
0100
,
1000
0001
0010
0001
1000
0010
1000
0001
0100
0010
0100
0001
1000
0001
0010
0001
,
0100
0010
1000
0100
0010
0001
1000
0001
1000
0100
0010
0100
1000
0001
1000
0010
,
0100
0010
1000
0001
1000
0010
1000
0001
0010
0100
1000
0001
0010
0001
1000
0001
,
0100
0010
0100
0001
1000
0010
0100
0010
1000
0001
0010
0100
0010
0001
1000
0001
,
0010
0100
0010
0100
1000
0001
1000
0010
0100
0010
1000
0001
0010
0100
0010
0001
,
0100
0010
1000
0100
0010
0001
1000
0001
0100
0010
1000
0001
1000
0010
1000
0001
,
0010
0100
1000
0001
1000
0010
0100
0001
0100
0010
1000
0001
0010
0001
1000
0001
,
0100
0010
1000
0001
0100
0001
0010
0100
1000
0001
1000
0010
0100
0010
1000
0001
,
0010
0100
0010
0001
1000
0010
1000
0001
0010
0100
1000
0001
0010
0001
1000
0010
,
1000
0100
0010
0001
0100
0001
1000
0010
1000
0010
0100
0001
1000
0001
0010
0100
,
0010
0001
1000
0010
0100
0010
1000
0001
1000
0010
0100
0010
1000
0001
0010
0100
,
1000
0001
1000
0010
1000
0001
0010
0001
1000
0010
1000
0001
0100
0010
0100
0001
,
1000
0010
1000
0001
0010
0100
1000
0001
1000
0010
0100
0001
1000
0001
0010
0001
,
0100
0010
1000
0100
0010
0001
1000
0010
0100
0010
1000
0001
0010
0100
1000
0001
,
0010
0001
1000
0010
1000
0001
0010
0100
1000
0001
0100
0010
0100
0001
1000
0001
,
0010
0100
1000
0001
0100
0010
0100
0001
1000
0100
0010
0100
1000
0001
0100
0010
,
0100
0001
1000
0001
0010
0100
1000
0001
0100
0010
0100
0001
1000
0100
0010
0100
,
1000
0001
0100
0010
0100
0001
1000
0001
0010
0100
1000
0001
0100
0001
1000
0100
,
0010
0001
0100
0001
1000
0010
0100
0010
1000
0001
0010
0100
0010
0001
1000
0001
,
0100
0010
0100
0001
1000
0100
0010
0100
1000
0001
0100
0010
0100
0001
1000
0100
,
0010
0001
1000
0001
0100
0010
0100
0001
1000
0001
0010
0100
1000
0001
0100
0010
,
0100
0001
1000
0100
0010
0001
1000
0010
0100
0010
1000
0001
0010
0100
1000
0001
,
0100
0001
1000
0100
1000
0010
0100
0010
1000
0001
0100
0001
0010
0100
1000
0001
,
0100
0010
0100
0001
1000
0100
0010
0100
1000
0001
0100
0010
0100
0001
1000
0100
,
0010
0001
1000
0001
0100
0010
0100
0001
1000
0100
0010
0001
1000
0001
0100
0010
,
0100
0001
1000
0001
0010
0100
1000
0010
0100
0010
1000
0001
0100
0001
1000
0001
,
0010
0100
1000
0001
0100
0010
0100
0001
1000
0100
1000
0010
0100
0001
1000
0001
,
0010
0100
1000
0010
1000
0001
0100
0001
0010
0100
1000
0001
0100
0010
0100
0001
,
1000
0100
0010
0001
1000
0010
0100
0010
0100
0001
1000
0100
0010
0001
0100
0001
,
1000
0010
1000
0001
0010
0100
1000
0010
1000
0001
0100
0010
0100
0001
1000
0100
,
0010
0001
1000
0001
0010
0100
0010
0001
1000
0010
1000
0100
0010
0001
1000
0001
,
0100
0010
0100
0001
0010
0001
1000
0100
1000
0001
0100
0010
0100
0001
1000
0100
,
1000
0010
0100
0010
1000
0001
0010
0100
1000
0001
0100
0010
0100
0001
1000
0010
,
1000
0100
0010
0001
1000
0001
0100
0010
0100
0001
1000
0001
0010
0100
1000
0001
,
0100
0010
0100
0001
1000
0100
0010
0100
1000
0001
0100
0010
0100
0001
1000
0001
,
0010
0100
0010
0100
1000
0001
0100
0010
0100
0001
1000
0100
1000
0001
1000
0010
,
0100
0010
1000
0001
0100
0010
0100
0001
0010
0100
1000
0001
0100
0010
0100
0001
,
1000
0100
0010
0001
1000
0010
0100
0010
1000
0001
0010
0100
1000
0001
0100
0001
,
1000
0100
0010
0100
1000
0001
0100
0010
,
0100
0001
1000
0100
0010
0001
1000
0001
,
0100
0010
0100
0001
1000
0001
0100
0001
,
1000
0100
0010
0100
1000
0001
0100
0010
,
0100
0001
1000
0100
1000
0001
1000
0010
,
0100
0010
1000
0001
0010
0100
1000
0001
,
0100
0010
0100
0001
1000
0100
0010
0100
,
1000
0001
0100
0001
1000
0100
1000
0010
,
0200
0000
0000
0000
,
0000
0000
0000
0000
,
0000
0000
0000
0000
,
0000
0000
0300
0000
;

//---------------dance-single - J. Nero----------------
#NOTES:
     dance-single:
     J. Nero:
     Hard:
     19:
     1.000,1.000,0.098,0.009,1.000,1104.000,11.000,1.000,0.000,0.000:
0000
0000
0000
0000
,
0000
0000
0000
0000
,
0000
0000
0000
0000
,
0001
0000
0100
0001
0000
1000
0000
0100
,
0000
0010
0001
0000
0100
0000
0010
0000
,
1000
0000
0100
1000
0000
0010
0000
0100
,
0000
0001
0000
1000
0100
0000
1000
0000
,
0001
0000
0100
0010
0000
0100
0000
0001
,
0000
0010
0100
0000
1000
0000
0001
0000
,
0100
0000
0001
1000
0000
0100
0000
0010
,
0000
0001
0000
1000
0010
0000
0100
0000
,
0001
0100
0010
1000
,
0100
0000
0010
0000
0001
0000
1000
0010
,
1000
0100
0010
0001
,
0100
0000
0001
0000
1000
0001
0100
0001
,
0010
0100
1000
0010
,
0100
0000
0001
0000
1000
0000
0100
0010
,
0001
1000
0010
0100
,
0010
0000
1000
0000
0001
0100
0001
1000
,
0000
0000
0000
0000
,
0000
0000
0000
0000
,
0000
0000
0000
0000
,
0000
0000
0000
0000
,
0001
0100
0001
1000
0100
0010
0001
1000
0001
0100
0010
1000
0001
0010
0100
1000
,
0001
0100
0001
1000
0010
1000
0001
0100
0010
0100
0001
0010
0100
1000
0001
1000
,
0010
0100
0010
0100
0001
1000
0100
1000
0010
0100
0001
1000
0001
0010
0100
1000
,
0001
0100
0001
1000
0100
0010
0001
1000
0001
0100
0010
0100
0001
1000
0010
1000
,
0100
0010
0001
0100
0001
1000
0010
0100
0001
1000
0100
0010
0001
1000
0010
0100
,
0001
1000
0001
0100
0010
0100
0001
1000
0001
0010
0100
1000
0010
0100
0010
1000
,
0001
1000
0100
0010
0001
1000
0001
0100
0010
0100
0001
0010
0100
1000
0001
1000
,
0010
1000
0001
0100
0001
1000
0100
0010
0001
1000
0001
0100
0010
0100
0001
1000
,
0001
0010
0100
1000
0001
1000
0010
0100
0001
0010
0100
1000
0001
0100
0010
1000
,
0001
1000
0100
0010
0001
1000
0001
0100
0010
1000
0100
0010
0001
1000
0001
0100
,
0001
1000
0010
0100
0010
1000
0001
1000
0100
0010
0001
0100
0001
1000
0001
0100
,
0010
0100
0001
1000
0100
0010
0001
1000
0001
0100
0010
0100
0001
1000
0001
0100
,
0010
0100
0001
1000
0001
0010
0100
1000
0001
0100
0010
1000
0001
0010
0100
1000
,
0001
0100
0001
1000
0010
0100
0010
1000
0100
0010
0001
1000
0001
0100
0001
1000
,
0010
1000
0001
1000
0010
0100
0001
0010
0100
1000
0001
0100
0001
1000
0100
1000
,
0001
0100
0001
1000
0100
1000
0001
0010
0100
1000
0001
0010
0001
1000
0100
1000
,
0001
0000
0000
0000
,
1000
0100
0010
0001
,
1000
0010
0100
0001
,
1000
0100
0010
0001
,
1000
0001
1000
0010
0100
0010
1000
0001
0100
0001
1000
0100
0010
0001
1000
0001
,
0100
0010
0100
0001
1000
0001
0010
0100
1000
0001
0100
0001
1000
0010
0100
0010
,
1000
0001
1000
0100
0010
0001
1000
0001
0100
0001
1000
0100
0010
0100
1000
0001
,
0100
0001
0010
0100
1000
0010
0100
0010
1000
0001
1000
0100
0010
0001
1000
0001
,
0100
0010
0100
0001
1000
0100
1000
0001
1000
0010
0100
0010
1000
0001
0010
0100
,
1000
0001
0100
0001
1000
0001
0010
0100
1000
0001
0100
0001
1000
0010
0100
0010
,
1000
0001
1000
0010
0100
0001
1000
0001
0010
0100
1000
0001
0100
0001
1000
0100
,
1000
0010
0100
0001
0010
0100
1000
0001
0100
0001
1000
0001
1000
0010
0100
0010
,
1000
0001
0010
0100
1000
0001
0100
0001
1000
0100
1000
0001
0010
0100
1000
0001
,
0100
0010
0100
0001
1000
0100
0010
0001
1000
0001
0100
0010
0100
0001
1000
0001
,
0100
0010
0100
0001
1000
0100
1000
0001
1000
0010
0100
0001
1000
0100
1000
0010
,
0100
0001
0010
0100
1000
0001
1000
0010
0100
0001
1000
0001
0100
0010
0100
0001
,
1000
0100
1000
0001
0010
0100
1000
0001
0100
0001
1000
0001
0100
0010
0100
0001
,
1000
0100
1000
0001
0100
0010
0100
0001
1000
0100
0010
0001
1000
0001
0100
0010
,
0100
0001
1000
0001
0010
0100
1000
0001
1000
0010
0100
0010
1000
0001
0100
0001
,
0010
0100
1000
0010
0100
0010
1000
0001
0100
0001
1000
0100
0010
0001
1000
0010
,
0100
0010
1000
0001
0100
0010
0100
0001
1000
0100
0010
0001
1000
0010
1000
0010
,
0100
0001
1000
0001
0010
0100
1000
0001
0010
0001
1000
0010
1000
0001
0010
0100
,
1000
0001
0010
0001
1000
0010
1000
0001
0100
0010
0100
0001
1000
0001
0010
0001
,
0100
0010
1000
0100
0010
0001
1000
0001
1000
0100
0010
0100
1000
0001
1000
0010
,
0100
0000
0000
0101
0000
0000
0000
0000
,
0001
0000
0000
1001
0000
0000
0000
0000
,
1000
0000
0000
1100
0000
0000
0110
0000
,
0010
0000
0000
0011
0000
0000
0000
0000
,
0001
0000
0000
1001
0000
0000
0000
0000
,
1000
0000
0000
1010
0000
0000
0000
0000
,
0010
0000
0000
0110
0000
0000
0101
0000
,
0001
0000
0000
1001
0000
0000
1100
0000
,
0100
0000
1000
0001
0000
0100
0000
0001
,
0000
0010
0100
0000
1000
0000
0001
0000
,
0100
0000
0001
0010
0000
0100
0000
1000
,
0000
0001
0000
0100
0001
0000
1000
0000
,
0100
0000
0010
0100
0000
1000
0000
0001
,
0000
0100
0010
0000
0100
0000
0001
0000
,
1000
0000
0100
1000
0000
0001
0000
1000
,
0000
0100
0010
0000
0001
0000
1000
0010
,
1000
0001
0100
0001
1000
0010
0100
0010
1000
0001
0010
0100
0010
0001
1000
0001
,
0100
0010
0100
0001
1000
0100
0010
0100
1000
0001
0100
0010
0100
0001
1000
0100
,
0010
0001
1000
0001
0100
0010
0100
0001
1000
0001
0010
0100
1000
0001
0100
0010
,
0100
0001
1000
0100
0010
0001
1000
0010
0100
0010
1000
0001
0010
0100
1000
0001
,
0100
0001
1000
0100
1000
0010
0100
0010
1000
0001
0100
0001
0010
0100
1000
0001
,
0100
0010
0100
0001
1000
0100
0010
0100
1000
0001
0100
0010
0100
0001
1000
0100
,
0010
0001
1000
0001
0100
0010
0100
0001
1000
0100
0010
0001
1000
0001
0100
0010
,
0100
0001
1000
0001
0010
0100
1000
0010
0100
0010
1000
0001
0100
0001
1000
0001
,
0010
0100
1000
0001
0100
0010
0100
0001
1000
0100
1000
0010
0100
0001
1000
0001
,
0010
0100
1000
0010
1000
0001
0100
0001
0010
0100
1000
0001
0100
0010
0100
0001
,
1000
0100
0010
0001
1000
0010
0100
0010
0100
0001
1000
0100
0010
0001
0100
0001
,
1000
0010
1000
0001
0010
0100
1000
0010
1000
0001
0100
0010
0100
0001
1000
0100
,
0010
0001
1000
0001
0010
0100
0010
0001
1000
0010
1000
0100
0010
0001
1000
0001
,
0100
0010
0100
0001
0010
0001
1000
0100
1000
0001
0100
0010
0100
0001
1000
0100
,
1000
0010
0100
0010
1000
0001
0010
0100
1000
0001
0100
0010
0100
0001
1000
0010
,
1000
0100
0010
0001
1000
0001
0100
0010
0100
0001
1000
0001
0010
0100
1000
0001
,
0100
0010
0100
0001
1000
0100
0010
0100
1000
0001
0100
0010
0100
0001
1000
0001
,
0010
0100
0010
0100
1000
0001
0100
0010
0100
0001
1000
0100
1000
0001
1000
0010
,
0100
0010
1000
0001
0100
0010
0100
0001
0010
0100
1000
0001
0100
0010
0100
0001
,
1000
0100
0010
0001
1000
0010
0100
0010
1000
0001
0010
0100
1000
0001
0100
0001
,
1000
0100
0010
0100
1000
0001
0100
0010
,
0100
0001
1000
0100
0010
0001
1000
0001
,
0100
0010
0100
0001
1000
0001
0100
0001
,
1000
0100
0010
0100
1000
0001
0100
0010
,
0100
0001
1000
0100
1000
0001
1000
0010
,
0100
0010
1000
0001
0010
0100
1000
0001
,
0100
0010
0100
0001
1000
0100
0010
0100
,
1000
0001
0100
0001
1000
0100
1000
0010
,
0200
0000
0000
0000
,
0000
0000
0000
0000
,
0000
0000
0000
0000
,
0000
0000
0300
0000
;

//---------------dance-single - J. Nero----------------
#NOTES:
     dance-single:
     J. Nero:
     Medium:
     18:
     1.000,1.000,0.196,0.009,1.000,904.000,22.000,1.000,0.000,0.000:
0000
0000
0000
0000
,
0000
0000
0000
0000
,
0000
0000
0000
0000
,
0001
0000
0100
0001
0000
1000
0000
0100
,
0000
0010
0001
0000
0100
0000
0010
0000
,
1000
0000
0100
1000
0000
0010
0000
0100
,
0000
0001
0000
1000
0100
0000
1000
0000
,
0001
0000
0100
0010
0000
0100
0000
0001
,
0000
0010
0100
0000
1000
0000
0001
0000
,
0100
0000
0001
1000
0000
0100
0000
0010
,
0000
0001
0000
1000
0010
0000
0100
0000
,
0001
0100
0010
1000
,
0100
0000
0010
0000
0001
0000
1000
0010
,
1000
0100
0010
0001
,
0100
0000
0001
0000
1000
0001
0100
0001
,
0010
0100
1000
0010
,
0100
0000
0001
0000
1000
0000
0100
0010
,
0001
1000
0010
0100
,
0010
0000
1000
0000
0001
0100
0001
1000
,
0000
0000
0000
0000
,
0000
0000
0000
0000
,
0000
0000
0000
0000
,
0000
0000
0000
0000
,
0001
0000
0000
1001
0000
0000
0000
0000
,
1000
0000
0000
1001
0000
0000
0000
0000
,
0001
0000
0000
0011
0000
0000
0110
0000
,
0100
0000
0000
1100
0000
0000
0000
0000
,
1000
0000
0000
1001
0000
0000
0000
0000
,
0001
0000
0000
0101
0000
0000
0000
0000
,
0100
0000
0000
0110
0000
0000
1010
0000
,
1000
0000
0000
1001
0000
0000
0011
0000
,
0010
0000
0001
1000
0000
0010
0000
1000
,
0000
0100
0010
0000
0001
0000
1000
0000
,
0010
0000
1000
0100
0000
0010
0000
0001
,
0000
1000
0000
0010
1000
0000
0001
0000
,
0010
0000
0100
0010
0000
0001
0000
1000
,
0000
0010
0100
0000
0010
0000
1000
0000
,
0001
0000
0010
0001
0000
1000
0000
0001
,
0000
0010
0000
0100
1000
0000
0001
1000
,
0001
0000
0000
0000
,
1000
0100
0010
0001
,
1000
0010
0100
0001
,
1000
0100
0010
0001
,
1000
0001
1000
0010
0100
0010
1000
0001
0100
0001
1000
0100
0010
0001
1000
0001
,
0100
0010
0100
0001
1000
0001
0010
0100
1000
0001
0100
0001
1000
0010
0100
0010
,
1000
0001
1000
0100
0010
0001
1000
0001
0100
0001
1000
0100
0010
0100
1000
0001
,
0100
0001
0010
0100
1000
0010
0100
0010
1000
0001
1000
0100
0010
0001
1000
0001
,
0100
0010
0100
0001
1000
0100
1000
0001
1000
0010
0100
0010
1000
0001
0010
0100
,
1000
0001
0100
0001
1000
0001
0010
0100
1000
0001
0100
0001
1000
0010
0100
0010
,
1000
0001
1000
0010
0100
0001
1000
0001
0010
0100
1000
0001
0100
0001
1000
0100
,
1000
0010
0100
0001
0010
0100
1000
0001
0100
0001
1000
0001
1000
0010
0100
0010
,
1000
0001
0010
0100
1000
0001
0100
0001
1000
0100
1000
0001
0010
0100
1000
0001
,
0100
0010
0100
0001
1000
0100
0010
0001
1000
0001
0100
0010
0100
0001
1000
0001
,
0100
0010
0100
0001
1000
0100
1000
0001
1000
0010
0100
0001
1000
0100
1000
0010
,
0100
0001
0010
0100
1000
0001
1000
0010
0100
0001
1000
0001
0100
0010
0100
0001
,
1000
0100
1000
0001
0010
0100
1000
0001
0100
0001
1000
0001
0100
0010
0100
0001
,
1000
0100
1000
0001
0100
0010
0100
0001
1000
0100
0010
0001
1000
0001
0100
0010
,
0100
0001
1000
0001
0010
0100
1000
0001
1000
0010
0100
0010
1000
0001
0100
0001
,
0010
0100
1000
0010
0100
0010
1000
0001
0100
0001
1000
0100
0010
0001
1000
0010
,
0100
0010
1000
0001
0100
0010
0100
0001
1000
0100
0010
0001
1000
0010
1000
0010
,
0100
0001
1000
0001
0010
0100
1000
0001
0010
0001
1000
0010
1000
0001
0010
0100
,
1000
0001
0010
0001
1000
0010
1000
0001
0100
0010
0100
0001
1000
0001
0010
0001
,
0100
0010
1000
0100
0010
0001
1000
0001
1000
0100
0010
0100
1000
0001
1000
0010
,
0100
0000
0000
0101
0000
0000
0000
0000
,
0001
0000
0000
1001
0000
0000
0000
0000
,
1000
0000
0000
1100
0000
0000
0110
0000
,
0010
0000
0000
0011
0000
0000
0000
0000
,
0001
0000
0000
1001
0000
0000
0000
0000
,
1000
0000
0000
1010
0000
0000
0000
0000
,
0010
0000
0000
0110
0000
0000
0101
0000
,
0001
0000
0000
1001
0000
0000
1100
0000
,
0100
0000
1000
0001
0000
0100
0000
0001
,
0000
0010
0100
0000
1000
0000
0001
0000
,
0100
0000
0001
0010
0000
0100
0000
1000
,
0000
0001
0000
0100
0001
0000
1000
0000
,
0100
0000
0010
0100
0000
1000
0000
0001
,
0000
0100
0010
0000
0100
0000
0001
0000
,
1000
0000
0100
1000
0000
0001
0000
1000
,
0000
0100
0010
0000
0001
0000
1000
0010
,
1000
0001
0100
0001
1000
0010
0100
0010
1000
0001
0010
0100
0010
0001
1000
0001
,
0100
0010
0100
0001
1000
0100
0010
0100
1000
0001
0100
0010
0100
0001
1000
0100
,
0010
0001
1000
0001
0100
0010
0100
0001
1000
0001
0010
0100
1000
0001
0100
0010
,
0100
0001
1000
0100
0010
0001
1000
0010
0100
0010
1000
0001
0010
0100
1000
0001
,
0100
0001
1000
0100
1000
0010
0100
0010
1000
0001
0100
0001
0010
0100
1000
0001
,
0100
0010
0100
0001
1000
0100
0010
0100
1000
0001
0100
0010
0100
0001
1000
0100
,
0010
0001
1000
0001
0100
0010
0100
0001
1000
0100
0010
0001
1000
0001
0100
0010
,
0100
0001
1000
0001
0010
0100
1000
0010
0100
0010
1000
0001
0100
0001
1000
0001
,
0010
0100
1000
0001
0100
0010
0100
0001
1000
0100
1000
0010
0100
0001
1000
0001
,
0010
0100
1000
0010
1000
0001
0100
0001
0010
0100
1000
0001
0100
0010
0100
0001
,
1000
0100
0010
0001
1000
0010
0100
0010
0100
0001
1000
0100
0010
0001
0100
0001
,
1000
0010
1000
0001
0010
0100
1000
0010
1000
0001
0100
0010
0100
0001
1000
0100
,
0010
0001
1000
0001
0010
0100
0010
0001
1000
0010
1000
0100
0010
0001
1000
0001
,
0100
0010
0100
0001
0010
0001
1000
0100
1000
0001
0100
0010
0100
0001
1000
0100
,
1000
0010
0100
0010
1000
0001
0010
0100
1000
0001
0100
0010
0100
0001
1000
0010
,
1000
0100
0010
0001
1000
0001
0100
0010
0100
0001
1000
0001
0010
0100
1000
0001
,
0100
0010
0100
0001
1000
0100
0010
0100
1000
0001
0100
0010
0100
0001
1000
0001
,
0010
0100
0010
0100
1000
0001
0100
0010
0100
0001
1000
0100
1000
0001
1000
0010
,
0100
0010
1000
0001
0100
0010
0100
0001
0010
0100
1000
0001
0100
0010
0100
0001
,
1000
0100
0010
0001
1000
0010
0100
0010
1000
0001
0010
0100
1000
0001
0100
0001
,
1000
0100
0010
0100
1000
0001
0100
0010
,
0100
0001
1000
0100
0010
0001
1000
0001
,
0100
0010
0100
0001
1000
0001
0100
0001
,
1000
0100
0010
0100
1000
0001
0100
0010
,
0100
0001
1000
0100
1000
0001
1000
0010
,
0100
0010
1000
0001
0010
0100
1000
0001
,
0100
0010
0100
0001
1000
0100
0010
0100
,
1000
0001
0100
0001
1000
0100
1000
0010
,
0200
0000
0000
0000
,
0000
0000
0000
0000
,
0000
0000
0000
0000
,
0000
0000
0300
0000
;

//---------------dance-single - J. Nero----------------
#NOTES:
     dance-single:
     J. Nero:
     Easy:
     17:
     1.000,1.000,0.196,0.027,1.000,806.000,22.000,3.000,0.000,0.000:
0000
0000
0000
0000
,
0000
0000
0000
0000
,
0000
0000
0000
0000
,
0001
0000
0100
0001
0000
1000
0000
0100
,
0000
0010
0001
0000
0100
0000
0010
0000
,
1000
0000
0100
1000
0000
0010
0000
0100
,
0000
0001
0000
1000
0100
0000
1000
0000
,
0001
0000
0100
0010
0000
0100
0000
0001
,
0000
0010
0100
0000
1000
0000
0001
0000
,
0100
0000
0001
1000
0000
0100
0000
0010
,
0000
0001
0000
1000
0010
0000
0100
0000
,
0001
0100
0010
1000
,
0100
0000
0010
0000
0001
0000
1000
0010
,
1000
0100
0010
0001
,
0100
0000
0001
0000
1000
0001
0100
0001
,
0010
0100
1000
0010
,
0100
0000
0001
0000
1000
0000
0100
0010
,
0001
1000
0010
0100
,
0010
0000
1000
0000
0001
0100
0001
1000
,
0000
0000
0000
0000
,
0000
0000
0000
0000
,
0000
0000
0000
0000
,
0000
0000
0000
0000
,
0001
0000
0000
1001
0000
0000
0000
0000
,
1000
0000
0000
1001
0000
0000
0000
0000
,
0001
0000
0000
0011
0000
0000
0110
0000
,
0100
0000
0000
1100
0000
0000
0000
0000
,
1000
0000
0000
1001
0000
0000
0000
0000
,
0001
0000
0000
0101
0000
0000
0000
0000
,
0100
0000
0000
0110
0000
0000
1010
0000
,
1000
0000
0000
1001
0000
0000
0011
0000
,
0010
0000
0001
1000
0000
0010
0000
1000
,
0000
0100
0010
0000
0001
0000
1000
0000
,
0010
0000
1000
0100
0000
0010
0000
0001
,
0000
1000
0000
0010
1000
0000
0001
0000
,
0010
0000
0100
0010
0000
0001
0000
1000
,
0000
0010
0100
0000
0010
0000
1000
0000
,
0001
0000
0010
0001
0000
1000
0000
0001
,
0000
0010
0000
0100
1000
0000
0001
1000
,
0001
0000
0000
0000
,
1000
0100
0010
0001
,
1000
0010
0100
0001
,
1000
0100
0010
0001
,
1000
0001
1000
0010
0100
0010
1000
0001
0100
0001
1000
0100
0010
0001
1000
0001
,
0100
0010
0100
0001
1000
0001
0010
0100
1000
0001
0100
0001
1000
0010
0100
0010
,
1000
0001
1000
0100
0010
0001
1000
0001
0100
0001
1000
0100
0010
0100
1000
0001
,
0100
0001
0010
0100
1000
0010
0100
0010
1000
0001
1000
0100
0010
0001
1000
0001
,
0100
0010
0100
0001
1000
0100
1000
0001
1000
0010
0100
0010
1000
0001
0010
0100
,
1000
0001
0100
0001
1000
0001
0010
0100
1000
0001
0100
0001
1000
0010
0100
0010
,
1000
0001
1000
0010
0100
0001
1000
0001
0010
0100
1000
0001
0100
0001
1000
0100
,
1000
0010
0100
0001
0010
0100
1000
0001
0100
0001
1000
0001
1000
0010
0100
0010
,
1000
0001
0010
0100
1000
0001
0100
0001
1000
0100
1000
0001
0010
0100
1000
0001
,
0100
0010
0100
0001
1000
0100
0010
0001
1000
0001
0100
0010
0100
0001
1000
0001
,
0100
0010
0100
0001
1000
0100
1000
0001
1000
0010
0100
0001
1000
0100
1000
0010
,
0100
0001
0010
0100
1000
0001
1000
0010
0100
0001
1000
0001
0100
0010
0100
0001
,
1000
0100
1000
0001
0010
0100
1000
0001
0100
0001
1000
0001
0100
0010
0100
0001
,
1000
0100
1000
0001
0100
0010
0100
0001
1000
0100
0010
0001
1000
0001
0100
0010
,
0100
0001
1000
0001
0010
0100
1000
0001
1000
0010
0100
0010
1000
0001
0100
0001
,
0010
0100
1000
0010
0100
0010
1000
0001
0100
0001
1000
0100
0010
0001
1000
0001
,
0200
0000
0000
0000
,
0000
0000
0000
0000
0000
0000
0301
1000
,
0010
1000
0100
0010
,
0100
1000
0010
0100
0001
1000
0100
0010
,
0001
0000
0000
1001
0000
0000
0000
0000
,
0001
0000
0000
1001
0000
0000
0000
0000
,
1000
0000
0000
1100
0000
0000
0110
0000
,
0010
0000
0000
0011
0000
0000
0000
0000
,
0001
0000
0000
1001
0000
0000
0000
0000
,
1000
0000
0000
1010
0000
0000
0000
0000
,
0010
0000
0000
0110
0000
0000
0101
0000
,
0001
0000
0000
1001
0000
0000
1100
0000
,
0100
0000
1000
0001
0000
0100
0000
0001
,
0000
0010
0100
0000
1000
0000
0001
0000
,
0100
0000
0001
0010
0000
0100
0000
1000
,
0000
0001
0000
0100
0001
0000
1000
0000
,
0100
0000
0010
0100
0000
1000
0000
0001
,
0000
0100
0010
0000
0100
0000
0001
0000
,
1000
0000
0100
1000
0000
0001
0000
1000
,
0000
0100
0010
0000
0001
0000
1000
0010
,
1000
0001
0100
0001
1000
0010
0100
0010
1000
0001
0010
0100
0010
0001
1000
0001
,
0100
0010
0100
0001
1000
0100
0010
0100
1000
0001
0100
0010
0100
0001
1000
0100
,
0010
0001
1000
0001
0100
0010
0100
0001
1000
0001
0010
0100
1000
0001
0100
0010
,
0100
0001
1000
0100
0010
0001
1000
0010
0100
0010
1000
0001
0010
0100
1000
0001
,
0100
0001
1000
0100
1000
0010
0100
0010
1000
0001
0100
0001
0010
0100
1000
0001
,
0100
0010
0100
0001
1000
0100
0010
0100
1000
0001
0100
0010
0100
0001
1000
0100
,
0010
0001
1000
0001
0100
0010
0100
0001
1000
0100
0010
0001
1000
0001
0100
0010
,
0100
0001
1000
0001
0010
0100
1000
0010
0100
0010
1000
0001
0100
0001
1000
0001
,
0010
0100
1000
0001
0100
0010
0100
0001
1000
0100
1000
0010
0100
0001
1000
0001
,
0010
0100
1000
0010
1000
0001
0100
0001
0010
0100
1000
0001
0100
0010
0100
0001
,
1000
0100
0010
0001
1000
0010
0100
0010
0100
0001
1000
0100
0010
0001
0100
0001
,
1000
0010
1000
0001
0010
0100
1000
0010
1000
0001
0100
0010
0100
0001
1000
0100
,
0010
0001
1000
0001
0010
0100
0010
0001
1000
0010
1000
0100
0010
0001
1000
0001
,
0100
0010
0100
0001
0010
0001
1000
0100
1000
0001
0100
0010
0100
0001
1000
0100
,
1000
0010
0100
0010
1000
0001
0010
0100
1000
0001
0100
0010
0100
0001
1000
0010
,
1000
0100
0010
0001
1000
0001
0100
0010
0100
0001
1000
0001
0010
0100
1000
0001
,
0200
0000
0000
0000
,
0000
0000
0000
0000
0000
0000
0301
1000
,
0001
0010
0100
1000
,
0001
0100
0010
0100
0001
1000
0100
1000
,
0010
0100
0001
0010
0001
1000
0010
0100
,
0010
1000
0001
0010
0100
1000
0001
1000
,
0010
0100
0010
1000
0001
1000
0010
1000
,
0001
0010
0100
0010
0001
1000
0010
0100
,
0010
1000
0001
0010
0001
1000
0001
0100
,
0010
0100
0001
1000
0100
0010
0001
1000
,
0010
0100
0010
1000
0001
0010
0100
0010
,
0001
1000
0100
1000
0001
0100
0001
0010
,
0200
0000
0000
0000
,
0000
0000
0000
0000
,
0000
0000
0000
0000
,
0000
0000
0000
0300
;
