#TITLE:Gravity;
#SUBTITLE:;
#ARTIST:TaQ;
#TITLETRANSLIT:;
#SUBTITLETRANSLIT:;
#ARTISTTRANSLIT:;
#CREDIT:;
#BANNER:Gravity.png;
#BACKGROUND:Gravity-bg.png;
#LYRICSPATH:;
#CDTITLE:!toph-cdtitle.png;
#MUSIC:Gravity.mp3;
#OFFSET:-0.093;
#SAMPLESTART:84.500;
#SAMPLELENGTH:15.100;
#SELECTABLE:YES;
#BPMS:0.000=125.000;
#STOPS:14.000=0.480
;
#BGCHANGES:;
// cache tags:
#FIRSTBEAT:14.500;
#LASTBEAT:238.000;
#SONGFILENAME:Songs/Community Keyboard Megapack - Volume 1/(Toph) Gravity/Gravity.sm;
#HASMUSIC:1;
#HASBANNER:1;
#MUSICLENGTH:116.299;
// end cache tags

//---------------dance-single - ----------------
#NOTES:
     dance-single:
     :
     Hard:
     12:
     1.000,1.000,1.000,0.000,1.000,835.000,227.000,0.000,0.000,0.000:  // measure 1
0000
0000
0000
0000
,  // measure 2
0000
0000
0000
0000
,  // measure 3
0000
0000
0000
0000
,  // measure 4
0000
0000
0000
0000
0000
0000
0000
0000
0000
0000
0110
0000
1001
0100
0010
0100
,  // measure 5
1001
0000
0100
0000
0010
0000
1000
0000
0001
0000
0010
0000
0100
0000
1000
0000
0110
0000
0001
0000
1000
0000
0010
0100
0001
0000
0010
0000
0100
0000
0010
0000
,  // measure 6
1001
0000
0100
0000
0010
0000
0001
0000
1000
0000
0010
0000
1000
0000
0100
0000
0011
0000
1000
0000
0010
0000
0100
0001
1000
0000
0100
0000
0010
0000
0001
0000
,  // measure 7
0110
0000
1000
0000
0001
0000
0100
0000
0010
0000
1000
0000
0100
0000
1000
0000
0011
0000
0100
0000
1000
0000
0001
0100
0010
0000
1000
0000
0001
0000
1000
0000
,  // measure 8
0011
0000
1000
0000
0100
0000
0010
0000
0001
0000
0100
0000
0010
0000
1000
0000
0011
0000
0100
0000
1000
0001
0100
0010
1001
0000
0100
0000
0010
0000
0100
0000
,  // measure 9
1001
0000
0000
0000
0100
0000
0011
0000
0000
0000
0101
0000
0000
0000
1001
0000
0110
0000
1000
0000
0001
0000
0010
0100
1000
0000
0001
0000
0100
0000
0010
0000
,  // measure 10
1001
0000
0000
0000
1000
0000
0110
0000
0000
0000
0011
0000
0000
0000
0101
0000
1010
0000
0001
0000
0100
0000
0010
1000
0001
0000
0010
0000
0100
0000
0010
0000
,  // measure 11
1001
0000
0000
0000
0001
0000
0110
0000
0000
0000
1010
0000
0000
0000
0101
0000
1010
0000
0001
0000
1000
0000
0100
0010
0001
0000
1000
0000
0001
0000
0100
0000
,  // measure 12
1010
0000
0001
0000
0010
0000
0101
0000
1000
0000
0011
0000
0100
0000
0001
0010
0100
0000
1000
0000
0001
0000
0100
0000
1001
0000
0000
0000
0100
0000
0010
0000
,  // measure 13
0000
0001
0100
0010
1000
0001
0000
1000
0100
0000
0010
0001
0100
0000
0010
1000
,  // measure 14
0000
0001
0010
0100
1000
0001
0000
0100
0010
0000
1010
0100
1001
0000
0100
0010
,  // measure 15
0000
0001
0100
0010
1000
0100
0000
0010
0001
0000
1000
0010
0100
0000
0001
1000
,  // measure 16
0000
0100
0010
0001
0100
0010
0000
1000
0100
0010
0001
0100
1001
0110
0001
0100
,  // measure 17
1001
0000
0010
1100
0000
0011
0000
0101
1010
0001
1000
0100
1010
0101
0010
0100
,  // measure 18
1001
0000
0100
1010
0000
1001
0000
0101
1010
0100
0010
0100
1001
0110
0001
1000
,  // measure 19
0110
0000
0001
1100
0000
0011
0000
0101
1010
0001
0100
0010
1001
0100
0010
1000
,  // measure 20
0001
0000
0100
0000
0001
0000
0100
0000
0010
0000
1000
0000
0001
0010
0001
0100
0010
0000
1000
0000
0100
0000
0000
0000
1001
0000
0100
0000
0010
0000
0100
0000
,  // measure 21
1001
0000
0010
0000
0100
0000
1000
0000
0001
0000
0110
0000
0001
0000
1000
0000
0110
0000
0000
0000
0010
0000
0001
0010
0100
0000
1000
0000
0001
0000
0010
0000
,  // measure 22
1100
0000
0001
0000
0100
0000
0010
0000
1000
0000
0011
0000
0100
0000
0010
0000
1001
0000
0000
0000
0100
0000
0010
0100
1001
0000
0010
0000
0100
0000
1000
0000
,  // measure 23
0110
0001
1000
0010
0100
1001
0010
0100
1001
0000
0010
0001
1100
0010
0001
0100
,  // measure 24
1010
0000
0001
0000
1000
0000
0100
0000
0010
0000
1001
0000
0100
0010
0100
0000
1001
0000
0000
0000
0110
0000
0000
0000
1001
0000
0100
0000
0010
0000
1100
0000
,  // measure 25
0010
0000
0001
0000
1010
0000
0100
0000
1001
0000
0010
0000
0100
0000
0011
0000
0100
0000
1000
0000
0101
0000
0010
0100
1001
0000
0010
0000
0100
0000
1001
0000
,  // measure 26
0100
0000
0010
0000
1001
0000
0100
0000
0010
0000
1000
0000
0001
0000
0100
0000
1010
0000
0101
0000
0010
0000
1000
0100
0011
0000
1000
0000
0100
0000
0011
0000
,  // measure 27
0100
0000
1000
0000
0110
0000
0001
0000
1100
0000
0010
0000
0001
0000
0110
0000
1000
0000
0010
0000
0101
0000
0010
0100
1001
0000
0010
0000
0100
0000
1001
0000
,  // measure 28
0100
0000
0010
0000
1001
0000
0100
0000
0010
0000
0001
0000
0100
0010
0100
0001
1000
0000
0100
0000
0010
0000
0100
0000
1001
0000
0000
0000
1000
0000
0100
0000
,  // measure 29
0000
0100
0010
0001
0100
0010
0000
0010
1000
0000
1000
0100
0010
0000
0010
0001
,  // measure 30
0000
0001
1000
0010
1000
0100
0000
0100
0010
0000
0010
0001
0100
0000
0100
0010
,  // measure 31
0000
0010
1000
0100
1000
0001
0000
0001
0100
0000
0100
0010
1000
0000
1000
0100
,  // measure 32
0000
0100
0010
0001
1000
0010
0000
0100
1001
0000
0100
0010
1100
0000
0100
0010
,  // measure 33
0000
0010
0001
1000
0010
0100
0000
0100
0001
0000
1000
0100
0010
0000
0010
0001
,  // measure 34
0000
0100
0010
1000
0100
0010
0000
0010
0001
0000
0001
0100
0010
0000
1000
0001
,  // measure 35
0000
1000
0100
0010
0001
0100
0000
0100
0010
0000
0010
1000
0100
0000
0100
0010
,  // measure 36
0000
0010
0001
0100
0010
1000
0000
0100
1001
0000
0110
1000
0011
1000
0101
0010
,  // measure 37
0101
1000
0100
0011
1000
0101
0000
0110
1001
0100
0010
1000
0100
0010
0101
0010
,  // measure 38
0101
1000
0100
0011
0100
1001
0000
1010
0101
0010
1000
0100
0010
0001
1010
0100
,  // measure 39
1010
0001
1000
0101
0010
1100
0000
0110
1001
0100
0010
1000
0001
0010
1100
0010
,  // measure 40
1100
0001
0100
1010
0001
1100
0000
0011
1100
0001
0100
0010
1001
0010
1100
0001
,  // measure 41
1100
0010
0001
1010
0100
0011
0000
1100
0011
0100
0010
1000
0001
0010
1100
0010
,  // measure 42
1100
0001
0010
1001
0100
1010
0000
0101
1010
0001
0010
0100
1000
0001
0110
1000
,  // measure 43
0110
0001
0010
1100
0001
0110
0000
1001
0110
1000
0100
0010
0001
1000
0110
0001
,  // measure 44
0110
0000
1000
0000
0001
0000
0010
0100
1000
0000
0001
0000
0100
0000
0010
0000
1001
0000
0100
0000
0010
0000
0100
0000
1001
0000
0010
0000
0101
0000
0010
0000
,  // measure 45
0101
0000
1000
0000
0100
0000
0011
0000
1000
0000
0101
0000
0000
0000
1100
0000
0011
0000
1000
0000
0010
0000
0100
0001
1000
0000
0100
0000
0011
0000
0100
0000
,  // measure 46
0011
1000
0001
1010
0100
1001
0000
0101
1010
0001
0010
0100
1001
0010
1100
0010
,  // measure 47
1100
0000
0001
0000
0100
0000
0011
0000
1000
0000
0110
0000
0000
0000
0101
0000
1010
0000
0100
0000
0010
0000
0001
1000
0010
0000
1000
0000
0011
0000
0100
0000
,  // measure 48
0011
1000
0100
0011
0100
1010
0000
0101
1010
0100
1001
0010
0101
1000
0110
0001
,  // measure 49
0110
0000
1000
0000
0100
0000
0011
0000
0100
0000
1010
0000
0000
0000
1001
0000
0110
0000
1000
0000
0001
0000
0010
0100
1000
0000
0001
0000
0110
0000
1000
0000
,  // measure 50
0110
0001
1000
0110
0001
1010
0000
0101
1010
0001
0010
0100
1001
0100
1010
0001
,  // measure 51
1010
0000
0100
0000
0001
0000
1100
0000
0010
0000
0101
0000
0000
0000
0110
0000
1001
0000
0100
0000
0010
0000
1000
0001
0010
0000
0100
0000
1010
0000
0100
0000
,  // measure 52
1010
0000
0001
0000
0100
0000
0010
1000
0001
0000
0010
0000
0100
0000
1000
0000
0110
0000
0000
0000
0000
0000
0000
0000
1001
0000
0100
0000
0010
0000
0100
0000
,  // measure 53
1001
0000
0100
0000
0010
0000
0001
0000
1000
0000
0010
0000
0100
0000
0001
0000
0110
0000
1000
0000
0001
0000
0010
0100
1000
0000
0010
0000
0100
0000
0010
0000
,  // measure 54
1001
0000
0100
0000
0010
0000
1000
0000
0001
0000
0010
0000
0001
0000
0100
0000
1010
0000
0001
0000
0010
0000
0100
1000
0001
0000
0100
0000
0010
0000
1000
0000
,  // measure 55
0110
0000
0001
0000
1000
0000
0100
0000
0010
0000
0001
0000
0100
0000
0001
0000
1010
0000
0100
0000
0001
0000
1000
0100
0010
0000
0001
0000
1000
0000
0001
0000
,  // measure 56
0110
1000
0010
1000
0100
0010
0001
1000
0110
0000
0101
0000
1001
0100
1010
0100
,  // measure 57
1010
0000
0001
0000
0010
0000
1100
0000
0001
0000
0110
0000
1000
0000
0011
0000
1100
0000
0001
0000
1000
0000
0100
0010
0001
0000
1000
0000
0110
0000
0001
0000
,  // measure 58
0110
0000
1000
0000
0100
0000
0011
0000
0100
0000
1010
0000
0100
0000
1001
0000
0110
0000
1000
0000
0100
0000
0010
0001
1000
0000
0010
0000
0101
0000
0010
0000
,  // measure 59
0101
0000
1000
0000
0100
0000
0011
0000
0100
0000
1010
0000
0001
0000
0110
0000
1001
0000
0010
0000
0100
0000
0001
1000
0100
0000
0010
0000
0101
0000
0010
0000
,  // measure 60
0101
1000
0100
0011
1000
0101
0010
1100
0011
0000
0000
0000
0000
0000
0000
0000
;
