#TITLE:Reason Ray;
#SUBTITLE:Oh Henry!;
#ARTIST:you;
#TITLETRANSLIT:;
#SUBTITLETRANSLIT:;
#ARTISTTRANSLIT:;
#CREDIT:;
#BANNER:../Fallback-Ban.png;
#BACKGROUND:../Fallback-BG.png;
#LYRICSPATH:;
#CDTITLE:../~CDTitle-@@.png;
#MUSIC:you - Reason Ray.ogg;
#OFFSET:-0.898;
#SAMPLESTART:44.534;
#SAMPLELENGTH:26.182;
#SELECTABLE:YES;
#BPMS:0.000=220.000;
#STOPS:;
#BGCHANGES:;
// cache tags:
#FIRSTBEAT:0.000;
#LASTBEAT:912.000;
#SONGFILENAME:Songs/Oh Henry! Mad Stamina/Reason Ray (19)/Reason Ray.sm;
#HASMUSIC:1;
#HASBANNER:1;
#MUSICLENGTH:252.212;
// end cache tags

//---------------dance-single - @@----------------
#NOTES:
     dance-single:
     @@:
     Challenge:
     19:
     1.000,1.000,0.020,0.040,1.000,2816.000,5.000,10.000,1.000,0.000:
1001
0000
1000
0000
0010
0000
1000
0000
0001
0100
0001
0000
1000
0000
0001
0000
,
0010
0000
0100
0000
1000
0000
0001
0000
0010
0100
0010
0000
0001
0000
1000
0000
,
0010
0000
0100
0000
0001
0000
0100
0000
0010
1000
0010
0000
1000
0000
0001
0000
,
0010
0000
0100
0000
0010
0000
0001
0000
1000
0100
1000
0000
0001
0000
1000
0000
,
0010
0000
0100
0000
0010
0000
1000
0000
0001
0100
0001
0000
1000
0000
0001
0000
,
0010
0000
0100
0000
1000
0000
0100
0000
0010
0001
0010
0000
0100
0000
1000
0000
,
0001
0000
0100
0000
0010
0000
1000
0000
0010
0100
0010
0000
1000
0000
0001
0000
,
1000
0000
0100
0000
0010
0000
0001
0000
1000
0100
1000
0000
0001
0000
1000
0000
,
1001
0001
0000
1000
0000
0001
0000
1000
,
0000
0100
0000
0010
0000
0100
0000
0010
,
0000
0001
0000
1000
0000
0001
0000
1000
,
0000
0010
0000
0100
0000
0010
0000
0100
,
0000
0001
0000
0100
0000
0001
0000
0100
,
0000
0001
0000
0010
0000
0001
0000
0010
,
0000
0100
0000
1000
0000
0100
0000
1000
,
1001
0000
0001
0000
0100
0010
0100
0001
1000
0001
0010
0100
1000
0001
1000
0000
,
0001
0010
0100
0010
0001
0001
0001
1000
,
0010
0000
0100
0000
0001
0000
0100
0000
0010
0000
0010
0000
0010
0000
1000
0100
,
0010
0000
0100
0000
1000
0000
0001
1000
0001
0100
0010
1000
0001
0000
1000
0000
,
0100
0010
0001
0000
1000
0100
0010
0100
1000
0010
0100
0001
1000
0000
0001
0000
,
0100
0010
0100
0001
0010
0000
0100
0000
0010
0000
0001
1000
0100
0000
1000
0001
,
1000
0000
0010
0000
0100
0000
0010
0000
1000
0000
0001
0000
0100
0001
1000
0000
,
0100
0000
1000
0100
0010
0001
1000
0100
1000
0001
0100
0010
1000
0000
0100
0000
,
1000
0000
0100
0010
0001
0000
1000
0000
0001
0100
0010
1000
0010
0100
0001
0010
,
0100
0000
0000
0000
0000
0000
1000
0000
0000
0000
0000
0000
0001
0000
0000
0000
0000
0000
0000
0000
0001
0000
0000
0000
0000
0000
0000
0000
1000
0000
0000
0000
0000
0000
0000
0000
0100
0000
0000
0000
0000
0000
1000
0000
0000
0001
0000
0000
,
0010
0000
0001
0000
0100
0010
1000
0010
0100
0000
0001
0000
1000
0100
0010
0001
,
0100
0000
0010
0000
1000
0000
1000
0000
0001
0000
1000
0000
0100
0010
0001
1000
,
0001
0000
0000
1000
0000
0000
0100
0000
0000
0000
1000
0000
0100
0000
0010
0000
0001
0000
0100
0000
0010
0000
1000
0000
,
0001
0000
1000
0000
0010
0000
1000
0001
0100
0010
1000
0010
0100
0001
1000
0001
,
0010
0000
0100
1000
0001
0010
0001
0100
0010
0000
1000
0000
0001
0100
0010
1000
,
0001
0100
0001
1000
0010
1000
0001
1000
0100
0010
0001
1000
0100
1000
0001
0010
,
0100
1000
0001
1000
0100
0010
0100
0010
0001
0100
0010
1000
0010
1000
0100
0010
,
0001
1000
0100
1000
0001
0100
0010
0100
,
0001
0000
1000
0000
0100
0000
1000
0000
0001
0100
0001
0000
1000
0000
0010
1000
,
0100
0000
0010
0000
0001
0000
1000
0100
1000
0001
1000
0000
0100
0000
0010
0000
,
0001
1000
0010
1000
0100
0010
0001
0100
,
0001
1000
0010
0100
0001
1000
0100
0010
,
0001
0000
1000
0000
0010
0000
1000
0000
0001
0010
0001
0000
1000
0000
0100
1000
,
0010
0000
0100
0000
0001
0000
1000
0010
1000
0001
1000
0000
0010
0000
0100
0000
,
0001
1000
0100
1000
0010
0100
0001
1000
,
1001
0001
0010
0001
1000
0010
0100
0010
,
1000
0000
0001
0000
0010
0000
0001
0000
1000
0010
1000
0000
0001
0000
0100
0001
,
0010
0000
0100
0000
1000
0000
0001
0010
0001
1000
0001
0000
0010
0000
0100
0000
,
1000
0001
0100
0001
0010
0100
1000
0010
,
1000
0001
0100
0010
1000
0001
0010
0100
,
1000
0000
0001
0000
0100
0000
0001
0000
1000
0100
1000
0000
0001
0000
0010
0001
,
0100
0000
0010
0000
1000
0000
0001
0100
0001
1000
0001
0000
0100
0000
0010
0000
,
1000
0000
0001
0000
0010
0000
0001
0000
0100
0000
0010
0000
1000
0001
1000
0001
,
0010
0100
1000
0001
1000
0100
0010
0001
1000
0100
1000
0100
1000
0010
0100
0001
,
1000
0010
1000
0001
0100
0010
1000
0001
0100
0010
0100
0010
0100
0001
0010
0100
,
1000
0001
0010
0001
1000
0100
0010
0100
1000
0001
0100
0001
1000
0010
0100
0001
,
0010
0100
1000
0001
0010
0001
0100
0010
1000
0001
0100
0001
1000
0010
0100
0001
,
1000
0100
0010
0100
1000
0001
0010
0001
1000
0100
1000
0100
1000
0010
0100
0010
,
1000
0001
0100
0001
1000
0010
0100
0001
1000
0010
1000
0010
1000
0100
0010
0100
,
1000
0010
0100
0001
1000
0010
1000
0001
0100
0010
0100
0001
0100
0010
1000
0001
,
1000
0100
0010
0001
1000
0001
0010
0100
1000
0001
0010
0001
1000
0001
0100
0001
,
0010
0100
1000
0001
1000
0100
0010
0001
0010
0100
0010
0100
1000
0010
0100
0001
,
1000
0010
1000
0001
0100
0010
1000
0001
0100
0010
0100
0010
0100
0001
0010
0001
,
1000
0010
1000
0001
0100
0001
1000
0010
0100
0001
0100
0001
0010
0100
1000
0001
,
1000
0100
0010
0001
1000
0100
1000
0001
0010
0100
0010
0100
1000
0010
0100
0001
,
1000
0001
0100
0010
1000
0001
0100
0001
1000
0010
1000
0001
1000
0010
0100
0001
,
1000
0010
1000
0001
0010
0100
1000
0100
0010
0001
0010
0001
1000
0010
0100
0001
,
0010
0100
1000
0100
0010
0001
1000
0001
0010
0100
0010
0100
1000
0001
0100
0001
,
1000
0010
0100
0001
0010
0100
0010
0001
1000
0100
1000
0100
1000
0010
0100
0001
,
0100
0010
1000
0001
1000
0010
0100
0001
1000
0010
1000
0010
1000
0100
0010
0001
,
1000
0100
1000
0001
0010
0100
1000
0001
0010
0100
0010
0100
0010
0001
0100
0010
,
1000
0001
0100
0001
1000
0010
0100
0010
1000
0001
0010
0001
1000
0100
0010
0001
,
0100
0010
1000
0001
0100
0001
0010
0100
1000
0001
0010
0001
1000
0100
0010
0001
,
1000
0010
0100
0010
1000
0001
0100
0001
1000
0010
1000
0010
1000
0100
0010
0100
,
1000
0001
0010
0001
1000
0100
0010
0001
1000
0100
1000
0100
1000
0010
0100
0010
,
1000
0100
0010
0001
1000
0100
1000
0001
0010
0100
0010
0001
0010
0100
1000
0001
,
1000
0010
0100
0001
1000
0001
0100
0010
1000
0001
0100
0001
1000
0001
0010
0001
,
0100
0010
1000
0001
1000
0010
0100
0001
0100
0010
0100
0010
1000
0100
0010
0001
,
1000
0100
1000
0001
0010
0100
1000
0001
0010
0100
0010
0100
0010
0001
0100
0001
,
1000
0100
1000
0001
0010
0001
1000
0100
0010
0001
0010
0001
0100
0010
1000
0001
,
1000
0010
0100
0001
1000
0010
1000
0001
0100
0010
0100
0010
1000
0100
0010
0001
,
1000
0001
0010
0100
1000
0001
0010
0001
1000
0100
1000
0001
1000
0100
0010
0001
,
1000
0100
1000
0001
0100
0010
1000
0010
0100
0001
0100
0001
1000
0100
0010
0001
,
0100
0010
1000
0010
0100
0001
1000
0001
0100
0010
0100
0010
1000
0001
0010
0001
,
1000
0100
0010
0001
1000
0010
1000
0010
0100
0001
1000
0100
1000
0100
0010
0001
,
1000
0010
0100
0001
1000
0100
0010
0001
,
1000
0000
0010
0000
0100
0000
0001
0000
1000
0100
1000
0000
0001
0000
0010
0001
,
0100
0000
0010
0000
1000
0000
0001
0100
0010
0100
0001
0000
1000
0000
0010
0000
,
1000
0100
0010
0001
0100
0010
1000
0001
,
1000
0100
0010
0100
1000
0001
0100
0001
,
1000
0000
0100
0000
0010
0000
0001
0000
1000
0010
1000
0000
0001
0000
0100
0001
,
0010
0000
0100
0000
1000
0000
0001
0010
0100
0010
0001
0000
1000
0000
0100
0000
,
1000
0010
0100
0001
0010
0100
1000
0001
,
1001
1000
0010
1000
0001
0010
0100
1000
,
0001
0000
0100
0000
0010
0000
1000
0000
0001
0010
0001
0000
1000
0000
0100
1000
,
0010
0000
0100
0000
0001
0000
1000
0010
0100
0010
1000
0000
0001
0000
0100
0000
,
0001
0010
0100
1000
0010
0100
0001
1000
,
0001
0010
0100
0010
0001
1000
0010
1000
,
0001
0000
0010
0000
0100
0000
1000
0000
0001
0100
0001
0000
1000
0000
0010
1000
,
0100
0000
0010
0000
0001
0000
1000
0100
0010
0100
1000
0000
0001
0000
0010
0000
,
0001
0100
0010
1000
0100
0010
0001
1000
,
0002
0000
0000
0000
,
0203
0000
0000
0000
,
0320
0000
0000
0000
,
0000
0000
0000
0000
,
2030
0000
0000
0000
,
0000
0000
0000
0000
,
3200
0000
0000
0000
,
0000
0000
0000
0000
,
2300
0000
0000
0000
,
3002
0000
0000
0000
,
0023
0000
0000
0000
,
0000
0000
0000
0000
,
0032
0000
0000
0000
,
0000
0000
0000
0000
,
0203
0000
0000
0000
,
0000
0000
0000
0000
,
0301
0000
1000
0000
0010
0000
0100
0001
0100
0010
1000
0001
1000
0100
0010
0000
,
0001
0000
1000
0000
0100
0000
0010
0100
0000
0000
1000
0000
0001
0000
1000
0000
,
0010
0000
0100
0000
0010
0000
1000
0001
0100
0001
1000
0000
0001
0000
0010
0100
,
0010
0000
0001
0000
1000
0000
0100
0000
0010
0000
0100
0000
1000
0001
0000
0000
,
1000
0000
0010
0000
0100
0000
0010
1000
0000
0001
0100
0001
1000
0000
0001
1000
,
0100
0010
0100
0000
1000
1000
0001
0100
,
0010
0000
1000
0000
0100
1000
0010
0000
1000
0001
0100
0000
0001
0010
0100
0000
,
1000
0000
0100
0000
0010
0001
0010
0000
0100
0000
1000
0001
1000
0000
0010
0100
,
0001
0000
1000
0010
1000
0000
0001
1000
0100
0000
0010
0000
0100
1000
0100
0000
,
1000
0000
0001
0000
0100
0010
0100
0000
0001
0000
1000
0010
1000
0000
0001
0100
,
0010
0000
1000
0001
1000
0000
0100
0010
0001
0000
1000
0000
0001
0010
0001
0000
,
1000
0000
0001
0000
0100
0010
1000
0000
0001
0000
0100
0010
0100
0000
0001
1000
,
0100
0000
0010
0001
0010
0000
0100
1000
0001
0000
1000
0000
0001
0100
0001
0000
,
1000
0000
0010
0000
1000
0001
1000
0000
0100
0000
0010
0001
1000
0000
0001
1000
,
0100
0010
0001
1000
0001
0100
0010
1000
0010
0100
0001
1000
0001
0010
0100
1000
,
0001
0000
0001
0000
0000
0000
0000
0000
0010
0000
0000
0000
0001
0000
1000
0010
,
1000
0001
0100
0001
1000
0100
1000
0001
0100
0010
0100
0001
1000
0010
1000
0001
,
1000
0100
0010
0001
1000
0001
0010
0100
1000
0001
0100
0001
1000
0010
0100
0001
,
0010
0100
1000
0001
0100
0010
0100
0001
1000
0100
0010
0100
1000
0001
0010
0100
,
1000
0001
0100
0001
1000
0010
1000
0001
0010
0100
1000
0001
1000
0100
0010
0001
,
0100
0010
1000
0001
1000
0100
0010
0001
1000
0001
0100
0010
1000
0001
0100
0001
,
1000
0100
1000
0001
0010
0100
1000
0001
1000
0010
0100
0010
1000
0001
0100
0001
,
0010
0100
1000
0001
1000
0010
0100
0010
1000
0001
0010
0100
1000
0100
0010
0001
,
1000
0010
1000
0001
0100
0010
0100
0001
1000
0100
0010
0001
1000
0100
0010
0100
,
1000
0010
0100
0001
1000
0100
0010
0100
1000
0001
0100
0010
0100
0001
1000
0001
,
0010
0100
1000
0001
1000
0100
0010
0100
1000
0001
0100
0010
0100
0001
1000
0010
,
1000
0100
0010
0001
1000
0010
1000
0001
0010
0100
0010
0001
1000
0100
0010
0001
,
1000
0010
0100
0010
1000
0001
0100
0001
1000
0100
0010
0100
1000
0001
0010
0001
,
0100
0010
1000
0001
0010
0100
0010
0001
1000
0010
0100
0001
0100
0010
1000
0001
,
1000
0100
0010
0100
1000
0001
0010
0100
1000
0001
0100
0010
0100
0001
1000
0010
,
1000
0100
0010
0001
1000
0001
0100
0010
1000
0001
0010
0100
1000
0001
0010
0001
,
1000
0010
0100
0001
1000
0010
1000
0010
0100
0001
1000
0010
1000
0010
0100
0001
,
0010
0100
0010
0001
1000
0010
1000
0001
0010
0100
0010
0001
1000
0100
1000
0001
,
1000
0010
0100
0001
1000
0001
0100
0010
1000
0001
0010
0001
1000
0100
0010
0001
,
0100
0010
1000
0001
0010
0100
0010
0001
1000
0010
0100
0010
1000
0001
0100
0010
,
1000
0001
0010
0001
1000
0100
1000
0001
0100
0010
1000
0001
1000
0010
0100
0001
,
0010
0100
1000
0001
1000
0010
0100
0001
1000
0001
0010
0100
1000
0001
0010
0001
,
1000
0010
1000
0001
0100
0010
1000
0001
1000
0100
0010
0100
1000
0001
0010
0001
,
0100
0010
1000
0001
1000
0100
0010
0100
1000
0001
0100
0010
1000
0010
0100
0001
,
1000
0100
1000
0001
0010
0100
0010
0001
1000
0010
0100
0001
1000
0010
0100
0010
,
1000
0100
0010
0001
1000
0010
0100
0010
1000
0001
0010
0100
0010
0001
1000
0001
,
0100
0010
1000
0001
1000
0010
0100
0010
1000
0001
0010
0100
0010
0001
1000
0100
,
1000
0010
0100
0001
1000
0100
1000
0001
0100
0010
0100
0001
1000
0010
0100
0001
,
1000
0100
0010
0100
1000
0001
0010
0001
1000
0010
0100
0010
1000
0001
0100
0001
,
0010
0100
1000
0001
0100
0010
0100
0001
1000
0100
0010
0001
0010
0100
1000
0001
,
1000
0010
0100
0010
1000
0001
0100
0010
1000
0001
0010
0100
0010
0001
1000
0100
,
1000
0010
0100
0001
1000
0001
0010
0100
1000
0001
0100
0010
1000
0001
0100
0001
,
1000
0100
0010
0001
1000
0100
1000
0100
0010
0001
1000
0100
1000
0100
0010
0001
,
1000
0010
0100
0001
1000
0100
1000
0001
0100
0010
0100
0001
1000
0010
1000
0001
,
1000
0100
0010
0001
1000
0001
0010
0100
1000
0001
0100
0001
1000
0010
0100
0001
,
0010
0100
1000
0001
0010
0100
0010
0001
0100
0010
1000
0100
1000
0001
0010
0100
,
1000
0001
0100
0001
0010
0100
1000
0100
0010
0001
0100
0001
1000
0010
0100
0001
,
0100
0010
1000
0001
0010
0100
0010
0001
1000
0001
0100
0010
1000
0001
0100
0001
,
0010
0100
1000
0001
0010
0001
1000
0100
1000
0001
0100
0010
1000
0001
0100
0001
,
0010
0100
1000
0001
1000
0001
0100
0010
1000
0100
0010
0100
1000
0100
0010
0001
,
1000
0010
1000
0001
0010
0001
0100
0001
1000
0100
0010
0001
1000
0010
0100
0010
,
1000
0100
0010
0001
1000
0100
0010
0100
1000
0001
0100
0010
0100
0001
1000
0001
,
0010
0100
1000
0001
0100
0010
1000
0001
0100
0001
1000
0010
0100
0001
0010
0100
,
1000
0100
0010
0001
1000
0010
1000
0001
0010
0100
0010
0001
1000
0100
0010
0001
,
0100
0010
1000
0010
0100
0001
1000
0001
0010
0100
1000
0001
0010
0100
0010
0001
,
0100
0010
1000
0001
0010
0100
0010
0001
0100
0010
1000
0001
0010
0100
1000
0001
,
1000
0100
0010
0100
1000
0010
0100
0001
1000
0001
0100
0010
0100
0001
1000
0010
,
1000
0100
0010
0001
1000
0001
0100
0010
1000
0001
0010
0100
1000
0001
0010
0001
,
0100
0010
1000
0001
0010
0100
1000
0001
1000
0010
0100
0001
1000
0100
1000
0001
,
1000
0100
0010
0001
1000
0010
1000
0001
0010
0100
0010
0001
1000
0100
1000
0001
,
1000
0010
0100
0001
1000
0001
0100
0010
1000
0001
0010
0001
1000
0100
0010
0001
,
0100
0010
1000
0001
0100
0010
0100
0001
0010
0100
1000
0010
1000
0001
0100
0010
,
1000
0001
0010
0001
0100
0010
1000
0010
0100
0001
0010
0001
1000
0100
0010
0001
,
0010
0100
1000
0001
0100
0010
0100
0001
1000
0001
0010
0100
1000
0001
0010
0001
,
0100
0010
1000
0001
0100
0001
1000
0010
1000
0001
0010
0100
1000
0001
0010
0001
,
0100
0010
1000
0001
1000
0001
0010
0100
1000
0010
0100
0010
1000
0010
0100
0001
,
1000
0100
1000
0001
0100
0001
0010
0001
1000
0010
0100
0001
1000
0100
0010
0100
,
1000
0010
0100
0001
1000
0010
0100
0010
1000
0001
0010
0100
0010
0001
1000
0001
,
0100
0010
1000
0001
0010
0100
1000
0001
0010
0001
1000
0100
0010
0001
0100
0010
,
1000
0010
0100
0001
1000
0100
1000
0001
0100
0010
0100
0001
1000
0010
0100
0001
,
0010
0100
1000
0100
0010
0001
1000
0001
0100
0010
1000
0001
0100
0010
0100
0001
,
0010
0100
1000
0001
0100
0010
0100
0001
0010
0100
1000
0001
0100
0010
1000
0001
,
1000
0010
0100
0010
1000
0100
0010
0001
1000
0001
0010
0100
0010
0001
1000
0100
,
1000
0010
0100
0001
1000
0001
0010
0100
1000
0001
0100
0010
1000
0001
0100
0001
,
1000
0100
1000
0001
0100
0010
0100
0010
1000
0100
0010
0001
0010
0001
1000
0100
,
1000
0001
0100
0010
0100
0001
1000
0010
0100
0010
1000
0001
1000
0100
0010
0001
,
1000
0010
1000
0001
0100
0001
1000
0010
0100
0001
0100
0010
1000
0001
0010
0100
,
1000
0001
0100
0001
1000
0010
1000
0001
0100
0001
0010
0100
1000
0100
0010
0100
,
1000
0001
0100
0010
1000
0001
0100
0001
0010
0100
0010
0001
1000
0100
1000
0001
,
0010
0100
1000
0001
1000
0010
0100
0001
1000
0010
1000
0100
0010
0001
1000
0100
,
1000
0010
0100
0001
1000
0010
1000
0001
1000
0010
0100
0010
1000
0001
0010
0001
,
1000
0010
0100
0001
1000
0100
0010
0100
1000
0010
0100
0001
1000
0001
0100
0010
,
1000
0001
0100
0001
1000
0100
0010
0001
1000
0010
0100
0001
1000
0100
0010
0100
,
1000
0001
0010
0100
0010
0001
1000
0100
0010
0100
1000
0001
1000
0010
0100
0001
,
1000
0100
1000
0001
0010
0001
1000
0100
0010
0001
0010
0100
1000
0001
0100
0010
,
1000
0001
0010
0001
1000
0100
1000
0001
0010
0001
0100
0010
1000
0010
0100
0010
,
1000
0001
0010
0100
1000
0001
0010
0001
0100
0010
0100
0001
1000
0010
1000
0001
,
0100
0010
1000
0001
1000
0100
0010
0001
1000
0100
1000
0010
0100
0001
1000
0010
,
1000
0100
0010
0001
1000
0100
1000
0001
1000
0100
0010
0100
1000
0001
0100
0001
,
1000
0100
0010
0001
1000
0010
0100
0010
1000
0100
0010
0001
1000
0001
0010
0100
,
1000
0001
0010
0001
1000
0010
0100
0001
1000
0100
0010
0001
1000
0010
1000
0001
,
0100
0010
1000
0010
0100
0001
1000
0010
0100
0010
1000
0001
1000
0100
0010
0001
,
1000
0010
1000
0001
0100
0001
1000
0010
0100
0001
0100
0010
1000
0001
0010
0100
,
1000
0001
0100
0001
1000
0010
1000
0001
0100
0001
0010
0100
1000
0001
0010
0001
,
1000
0001
0100
0010
1000
0001
0100
0001
0010
0100
0010
0001
1000
0100
1000
0001
,
0010
0100
1000
0001
1000
0010
0100
0001
1000
0010
1000
0100
0010
0001
1000
0100
,
1000
0010
0100
0001
1000
0010
1000
0001
0100
0010
1000
0010
0100
0001
1000
0100
,
1000
0001
0100
0001
1000
0100
0010
0100
1000
0010
0100
0001
1000
0001
0100
0010
,
1000
0001
0100
0001
1000
0100
0010
0001
1000
0010
0100
0001
1000
0100
0010
0100
,
1000
0001
0010
0100
0010
0001
1000
0100
0010
0100
1000
0001
1000
0010
0100
0001
,
1000
0100
1000
0001
0010
0001
1000
0100
0010
0001
0010
0100
1000
0001
0100
0010
,
1000
0001
0010
0001
1000
0100
1000
0001
0010
0001
0100
0010
1000
0001
1000
0010
,
0100
0001
1000
0100
1000
0001
0010
0001
0100
0010
0100
0001
1000
0010
1000
0001
,
0100
0010
1000
0001
1000
0100
0010
0001
1000
0100
1000
0010
0100
0001
1000
0010
,
1000
0100
0010
0001
1000
0100
1000
0001
1000
0100
0010
0100
1000
0001
0100
0001
,
1000
0100
0010
0001
1000
0010
0100
0010
1000
0100
0010
0001
1000
0001
0010
0100
,
1000
0001
0010
0001
1000
0100
1000
0100
0010
0001
1000
0010
1000
0010
0100
0001
,
1000
0000
0000
0000
,
0000
0000
0000
0000
,
0000
0000
0000
0000
,
0000
0000
0000
0000
,
000M
0000
0000
0000
;
