#TITLE:V.L.S.I;
#SUBTITLE:225;
#ARTIST:Cranky;
#TITLETRANSLIT:;
#SUBTITLETRANSLIT:;
#ARTISTTRANSLIT:;
#CREDIT:;
#BANNER:../bn.png;
#BACKGROUND:../bg.png;
#LYRICSPATH:;
#CDTITLE:;
#MUSIC:V.L.S.I.ogg;
#OFFSET:-1.094;
#SAMPLESTART:39.490;
#SAMPLELENGTH:25.800;
#SELECTABLE:YES;
#DISPLAYBPM:150.000;
#BPMS:0.000=150.034;
#STOPS:;
#BGCHANGES:;
// cache tags:
#FIRSTBEAT:16.000;
#LASTBEAT:333.000;
#SONGFILENAME:Songs/Cirque du Zonda/Zaia - V.L.S.I 225/V.L.S.I.sm;
#HASMUSIC:1;
#HASBANNER:1;
#MUSICLENGTH:137.104;
// end cache tags

//---------------dance-single - Zaia - 16.4----------------
#NOTES:
     dance-single:
     Zaia - 16.4:
     Challenge:
     16:
     1.000,1.000,0.058,0.255,1.000,1268.000,8.000,35.000,31.000,0.000:
0000
0000
0000
0000
,
0000
0000
0000
0000
,
0000
0000
0000
0000
,
0000
0000
0000
0000
,
1000
0000
0000
0001
0000
0000
0100
0000
0000
0001
0000
0000
0010
0000
0100
0000
,
1000
0000
0000
0010
0000
0000
0100
0000
0000
0001
0000
0000
0100
0000
0010
0000
,
1000
0000
0000
0001
0000
0000
0010
0000
0000
0100
0000
0000
1000
0000
0001
0000
,
1001
0000
0000
0000
1000
0100
0010
0100
1000
0001
0100
0010
1000
0001
1000
0001
,
0010
0100
0010
0001
1000
0010
1000
0001
0100
0001
0010
0100
1000
0001
1000
0010
,
0100
0001
1000
0100
1000
0001
1000
0010
0100
0001
0100
0010
1000
0001
0010
0100
,
1000
0001
0010
0001
1000
0001
0100
0010
0100
0001
1000
0001
0010
0100
0010
0001
,
0100
0010
1000
0001
0010
0001
1000
0100
0010
0100
1000
0001
0100
0010
0100
0001
,
0010
0100
1000
0001
0100
0001
1000
0100
0010
0100
1000
0001
1000
0010
0100
0001
,
0010
0100
1000
0001
0100
0001
1000
0100
0010
0100
1000
0010
0100
0001
1000
0010
,
1000
0100
0010
0001
0100
0001
1000
0001
0010
0100
1000
0001
1000
0100
1000
0001
,
0010
0001
0100
0010
1000
0001
1000
0100
1000
0001
0100
0010
1000
0001
1000
0010
,
0100
0001
0010
0100
1000
0001
1000
0010
0100
0001
0010
0001
1000
0010
1000
0001
,
1000
0100
0010
0001
1000
0001
1000
0010
1000
0100
0010
0001
0100
0010
0100
0001
,
0010
0100
1000
0001
1000
0001
0100
0001
0010
0100
1000
0010
0100
0001
0100
0010
,
1000
0100
0010
0001
1000
0100
1000
0010
1000
0001
0100
0010
0100
0001
0010
0100
,
0010
0001
0100
0010
1000
0001
1000
0100
0010
0001
0100
0001
1000
0100
1000
0001
,
1000
0010
0100
0001
1000
0001
1000
0100
1000
0010
0100
0001
0010
0100
0010
0001
,
0100
0010
1000
0001
1000
0001
0010
0001
0100
0010
1000
0100
0010
0001
1000
0001
,
0100
0010
0100
0010
0100
0010
0100
0010
0100
0010
0100
0010
0100
0001
0100
0001
,
1000
0010
0100
0001
1000
0001
0010
0100
1000
0001
1000
0010
0100
0001
1000
0001
0010
0001
1000
0010
0100
0001
1000
0001
,
0010
0100
1000
0001
1000
0010
0100
0001
1000
0001
0010
0100
1000
0001
0100
0001
1000
0100
0010
0100
1000
0001
1000
0010
,
1000
0001
0010
0001
1000
0100
1000
0001
0100
0010
1000
0001
0010
0100
1000
0001
0100
0001
1000
0100
1000
0001
0100
0010
,
1000
0100
0010
0001
1000
0010
1000
0001
0010
0100
1000
0010
0100
0001
0100
0010
1000
0100
0010
0100
1000
0010
0100
0001
,
0010
0100
1000
0001
1000
0100
0010
0001
1000
0001
1000
0010
0100
0001
1000
0001
0010
0100
1000
0001
0100
0001
1000
0001
,
0010
0100
0010
0001
1000
0100
1000
0001
0100
0010
1000
0100
0010
0001
0010
0100
1000
0001
0100
0010
0100
0001
1000
0001
,
0100
0010
1000
0001
1000
0010
0100
0001
1000
0001
1000
0100
0010
0001
1000
0001
0100
0010
1000
0001
0010
0001
1000
0100
,
0010
0001
1000
0001
0010
0100
1000
0001
1000
0001
0100
0010
1000
0001
1000
0100
0010
0001
1000
0010
1000
0001
1000
0100
,
0010
0100
1000
0001
0010
0001
1000
0010
0100
0001
0010
0100
1000
0100
0010
0001
1000
0010
0100
0010
1000
0001
1000
0010
,
0100
0001
1000
0001
0100
0010
1000
0001
1000
0001
0010
0100
1000
0001
1000
0010
0100
0001
1000
0100
1000
0001
0100
0010
,
0100
0001
1000
0100
0010
0100
1000
0001
1000
0010
0100
0001
1000
0001
0010
0100
1000
0001
1000
0010
0100
0010
1000
0001
,
0010
0100
1000
0001
0100
0001
1000
0100
0010
0001
1000
0010
0100
0001
0010
0100
1000
0001
0100
0001
1000
0001
0010
0100
,
1000
0001
1000
0010
0100
0010
1000
0001
1000
0100
0010
0001
1000
0001
0100
0010
1000
0001
1000
0100
0010
0100
1000
0001
,
0100
0010
1000
0001
0010
0001
1000
0010
0100
0001
1000
0100
0010
0001
0100
0010
1000
0001
1000
0100
0010
0001
1000
0001
,
1000
0100
1000
0001
0010
0001
1000
0001
0100
0010
1000
0001
1000
0100
0010
0001
1000
0001
0100
0010
0100
0001
1000
0100
,
0010
0001
1000
0010
1000
0001
0010
0100
1000
0001
0100
0010
1000
0100
0010
0001
1000
0010
1000
0001
1000
0100
0010
0001
,
1000
0001
0100
0010
0100
0001
1000
0001
0010
0100
1000
0001
1000
0010
0100
0001
1000
0001
0010
0100
0010
0001
1000
0010
,
0100
0001
1000
0100
1000
0001
0100
0010
1000
0001
0010
0100
1000
0010
0100
0001
1000
0001
1000
0100
0010
0001
1000
0001
,
1000
0010
0100
0001
1000
0001
1000
0100
0010
0001
1000
0001
0100
0010
1000
0001
1000
0100
0010
0100
1000
0001
0100
0010
,
1000
0001
0010
0001
1000
0010
0100
0001
1000
0100
0010
0001
0100
0010
1000
0001
0010
0001
1000
0001
0100
0010
1000
0001
,
1000
0100
0010
0100
1000
0001
1000
0010
0100
0001
1000
0001
0010
0100
1000
0001
1000
0010
0100
0010
1000
0001
0010
0100
,
1000
0001
0100
0001
1000
0100
0010
0001
1000
0010
0100
0001
0010
0001
1000
0001
1000
0010
0100
0001
1000
0001
1000
0100
,
0010
0001
1000
0001
1000
0010
0100
0001
1000
0001
0010
0100
1000
0001
1000
0010
0100
0001
1000
0001
0010
0001
1000
0010
,
0100
0001
1000
0001
0010
0100
1000
0001
1000
0010
0100
0001
1000
0001
0010
0100
1000
0001
0100
0001
1000
0001
0010
0100
,
2000
0000
0000
3002
0000
0000
0203
0000
0000
0302
0000
2003
0000
3200
2300
0000
,
3020
0000
0000
0230
0000
0000
0310
0000
1001
0000
0000
0000
1001
0000
0000
0000
,
2010
0000
0000
3020
0000
0000
0230
0000
0000
0320
0000
2030
0000
3200
2300
0000
,
3020
0000
0000
0230
0000
0000
0301
0000
0101
0000
0000
0000
0010
1000
0100
0000
,
2000
0000
0000
3200
0000
0000
2300
0000
0000
3020
0000
0230
0000
0302
0023
0000
,
0032
0000
0000
0203
0000
0000
0310
0000
0110
0000
0000
0000
0110
0000
0000
0000
,
1020
0000
0000
2030
0000
0000
3002
0000
0000
0023
0000
0032
0000
0203
0320
0000
,
1030
0000
0000
0100
0000
0000
1000
0000
0000
0010
0000
1000
0001
0010
0001
0000
,
1000
0100
1000
0000
0001
0M10
0000
0M10
0000
0M10
0000
0M10
1000
0001
0010
0000
,
0100
0010
0100
0000
1000
01M0
0000
01M0
0000
01M0
0000
01M0
0001
0010
0001
1000
,
0010
0100
0001
0000
1000
01M0
0000
01M0
0000
01M0
0000
01M0
0001
0100
0010
0000
,
1000
0100
0010
0000
0001
0M10
0000
0M10
0000
0M10
0000
0M10
1000
0001
0010
0000
,
0100
0010
0001
0000
1000
01M0
0000
01M0
0000
01M0
0000
01M0
0001
1000
0010
0000
,
0100
0010
1000
0000
0001
01M0
0000
01M0
0000
01M0
0000
01M0
1000
0001
0010
0001
,
0100
0010
1000
0000
0001
0010
0000
0M10
0000
0M10
0000
0M10
1000
0001
0100
0000
,
0010
0100
0001
0000
0010
0100
1000
0010
0100
0001
0010
0100
1000
0010
0100
0001
,
0000
0000
0000
MMMM
,
0001
0010
0100
1000
0001
0100
0001
1000
0010
1000
0100
0010
0001
1000
0001
0100
,
0010
1000
0001
0010
0001
1000
0001
0100
0010
1000
0010
0100
0001
1000
0100
0010
,
0001
1000
0100
1000
0001
1000
0010
0100
0010
1000
0001
1000
0100
0010
0100
1000
,
0010
0100
0001
1000
0100
1000
0001
0010
0100
0010
0001
1000
0010
0100
0010
1000
,
0100
0010
0001
1000
0010
1000
0001
0010
0100
0010
0001
1000
0001
0100
0010
1000
,
0100
0010
0001
1000
0010
1000
0001
0010
0100
0010
0001
0100
0010
1000
0001
0100
,
0001
0010
0100
1000
0010
1000
0001
1000
0100
0010
0001
1000
0001
0010
0001
1000
,
0100
1000
0010
0100
0001
1000
0001
0010
0001
1000
0010
0100
0001
1000
0001
1000
,
0010
1000
0100
0010
0001
1000
0001
0100
0010
1000
0100
1000
0001
0100
0001
1000
,
0001
0010
0100
1000
0001
1000
0001
0100
0001
0010
0100
1000
0010
0100
0010
1000
,
0100
0010
0001
1000
0001
1000
0010
1000
0100
0010
0001
0100
0010
1000
0010
0100
,
0001
0010
0100
1000
0001
0010
0001
0100
0001
1000
0010
0100
0010
1000
0100
0010
,
0100
1000
0010
0100
0001
1000
0001
0010
0100
1000
0010
1000
0001
0010
0001
1000
,
0001
0100
0010
1000
0001
1000
0001
0010
0001
0100
0010
1000
0100
0010
0100
1000
,
0010
0100
0001
1000
0001
1000
0100
1000
0010
0100
0001
0010
0100
1000
0001
1000
,
0010
0000
0000
0100
0000
0000
0001
0000
0010
0000
0100
0000
1000
0000
0000
0001
0000
0000
1000
0000
0000
0001
0000
0000
1000
0000
0010
0000
0100
0000
0001
0000
0000
0010
0000
0000
0100
0000
0000
1000
0000
0000
0010
0000
0000
0200
0000
0000
,
0000
0000
0000
0000
,
0000
0000
0000
0000
,
0000
0300
0000
0000
;
