#TITLE:Warrior of Ice;
#SUBTITLE:;
#ARTIST:Rhapsody;
#TITLETRANSLIT:;
#SUBTITLETRANSLIT:;
#ARTISTTRANSLIT:;
#CREDIT:Arvin;
#BANNER:../bn-Rhapsody.png;
#BACKGROUND:../Rhapsody-bg.png;
#LYRICSPATH:;
#CDTITLE:;
#MUSIC:02 - Warrior Of Ice.ogg;
#OFFSET:-0.177;
#SAMPLESTART:33.293;
#SAMPLELENGTH:11.780;
#SELECTABLE:YES;
#DISPLAYBPM:175.000;
#BPMS:0.000=100.000,56.000=80.000,58.000=75.000,60.000=70.000,64.000=70.070,68.000=174.992,596.000=119.382,600.000=115.001,630.000=112.501,632.000=174.992,664.000=170.012,666.000=174.992,702.000=180.012,704.000=170.992,712.000=170.012,752.000=174.992,816.000=170.892,818.000=174.992,831.000=180.012,832.000=174.992;
#STOPS:;
#BGCHANGES:;
// cache tags:
#FIRSTBEAT:0.000;
#LASTBEAT:956.500;
#SONGFILENAME:Songs/Rhapsody of Fire/Warrior of Ice - [Arvin]/warriorice.sm;
#HASMUSIC:1;
#HASBANNER:1;
#MUSICLENGTH:358.400;
// end cache tags

//---------------dance-single - ----------------
#NOTES:
     dance-single:
     :
     Challenge:
     13:
     0.990,1.000,0.312,0.499,1.000,2192.000,112.000,179.000,320.000,0.000:

2MM2
0000
0000
3003
2000
0000
3002
0003
,
M2M2
0000
0000
0303
0200
0000
0000
0300
,
22MM
0000
0000
3300
2000
3000
M22M
0330
,
M2M2
0000
0000
0000
0303
0000
0001
0010
0200
0000
0000
0000
0000
0000
0300
0000
,
2MM2
0000
0000
3003
2000
0000
3020
0030
,
M2M2
0000
0000
0303
0200
0000
0301
0010
,
MM22
0000
0000
0033
2MM2
3003
2000
3000
,
2M2M
0000
0000
0000
0000
0000
3030
1000
0100
0000
0010
0000
0001
0100
0001
0000
,
2MM2
0000
0000
3003
0002
0000
2003
3000
,
2M2M
0000
0000
3030
0020
0000
0000
0030
,
MM22
0000
0000
0033
0002
0003
M22M
0330
,
2M2M
0000
0000
0000
3030
0000
1000
0100
0020
0000
0000
0000
0000
0000
0030
0000
,
2MM2
0000
0000
3003
0002
0000
0203
0300
,
2M2M
0000
0000
3030
2000
0000
0000
3000
,
22MM
0000
0000
0000
0000
0000
0000
3300
2MM2
0000
0000
3003
MM22
0000
0000
0033
,
M2M2
0000
0000
0000
0000
0000
0000
0303
2MM2
0000
3003
0000
2MM2
0000
3003
0000
,
2MM2
0000
0MM0
0000
0MM0
0000
0MM0
3003
,
1MM1
0000
1000
0010
0100
0000
0100
0010
1000
0000
0001
0010
0100
0000
1100
0000
,
1001
0000
0001
0100
0010
0000
0010
0100
0001
0000
1000
0100
0010
0000
0011
0000
,
1001
0000
1000
0001
0010
0000
0010
0001
1000
0000
0010
0100
0001
0000
0101
0000
,
1001
0000
1000
0010
1000
0010
0100
0001
0100
0001
0010
0100
1000
0001
1000
0001
,
1000
0100
0010
0001
0100
0001
0100
0010
1000
0001
0010
0100
1000
0001
0100
0001
,
0100
0010
1000
0001
0100
0010
0100
0001
0010
0100
1000
0001
1000
0100
1000
0100
,
0010
0001
0100
0010
1000
0001
0010
0100
1000
0100
1000
0001
0100
0010
0100
0001
,
2MM0
3000
0101
0101
2MM2
0000
0000
3003
,
0001
0010
0100
1000
0010
1000
0010
0100
0001
1000
0100
0010
0001
1000
0010
1000
,
0010
0100
0001
1000
0010
0100
0010
1000
0100
0010
0001
1000
0001
0010
0001
0010
,
0100
1000
0010
0100
0001
1000
0100
0010
0001
0010
0001
1000
0010
0100
0010
1000
,
0MM2
0000
0003
0000
1010
0000
1010
0000
1MM1
0000
0001
0010
0001
0000
1000
0000
,
2MM2
0000
0000
0000
3003
0000
0011
0000
1001
0000
1000
0100
1000
0000
0010
0100
,
0010
0000
1000
0100
1000
0000
0MM1
0000
0100
0000
0001
0010
0001
0000
0100
0010
,
0100
0000
0001
1000
0001
1000
0001
1000
0100
0000
1000
0010
1000
0000
0100
0010
,
0100
0000
1000
0010
1000
0000
0MM1
0000
1000
0000
0001
0010
0001
0000
1000
0100
,
1000
0000
0001
0100
0001
0000
1MM0
0000
0001
0000
1000
0100
1000
0000
0001
0010
,
0001
0000
1000
0010
1000
0000
0MM1
0000
1000
0000
0001
0010
0001
0000
0100
0010
,
0100
0000
0001
0010
0001
0000
1MM0
0000
0010
0000
0100
0001
0100
0000
0010
1000
,
0010
0000
0100
0001
0100
0000
M01M
0000
1000
0000
0001
0100
0001
0000
1000
0010
,
1000
0000
0001
0100
0001
0000
1000
0000
M10M
0000
0010
0001
0010
0000
0100
1000
,
0100
0000
1000
0010
1000
0000
0MM1
0000
0100
0000
0010
1000
0010
0000
1000
0100
,
1000
0000
0001
0010
0001
0000
1MM0
0000
1001
0000
1000
0000
0100
0000
0010
0000
,
0011
0001
1000
0010
1010
1000
0100
0010
,
0001
0010
0000
0000
0000
0100
1000
0000
0000
0000
0001
0100
0000
0000
0000
0010
1M0M
0000
0000
0000
0100
0000
0000
0000
0010
0000
0000
0000
0001
0000
0000
0000
,
0011
0000
0000
0000
0010
0000
0000
0000
0100
0000
0000
0000
1000
0000
0000
0000
0001
0100
0000
0000
0000
0010
1000
0000
0000
0000
0001
0010
0000
0000
0000
0100
,
1000
0000
0000
0000
0001
0010
0000
0000
0000
0100
1000
0000
0000
0000
0001
0100
M0M0
0000
0000
0000
0010
0000
0000
0000
1000
0000
0000
0000
0001
0000
0000
0000
,
0011
0010
0100
1000
1001
0001
0100
0010
,
1010
0000
1000
0000
0001
1000
0001
1000
0MM1
0000
1000
0100
0010
0000
0001
0100
,
0010
0000
1000
0010
0100
0000
0001
0100
0010
0000
1000
0001
0010
0000
0001
1000
,
0010
0000
0100
0000
0101
0000
0001
0010
0100
0000
1000
0010
0100
0000
0001
0100
,
0010
0000
1000
0010
0100
0000
0001
1000
0100
0000
1000
0001
0100
0000
0010
0000
,
1000
0100
0010
0001
0010
0100
1000
0001
1000
0000
0001
0010
0100
0000
1000
0010
,
0100
0000
0001
0100
0010
0000
1000
0010
0100
0000
0001
1000
0100
0000
1000
0001
,
0100
0000
0010
0000
1010
0000
1000
0100
0010
0000
0001
0100
0010
0000
1000
0010
,
0100
0000
0001
0100
0010
0000
1000
0001
0010
0000
0001
1000
0010
0000
0100
0000
,
0001
1000
0001
1000
0001
1000
0001
1000
0001
0000
1000
0010
0100
0000
0MM1
0000
,
1000
0000
0001
0010
0100
0000
1MM0
0000
0001
0000
0100
0010
1000
0000
0MM1
0000
,
1000
0000
0100
0010
0001
0000
01MM
0000
0010
0000
1000
0001
0010
0000
01MM
0000
,
1000
0000
0001
0100
0010
0000
1MM0
0000
0001
0000
0010
0100
0010
0100
0010
0100
,
1000
0001
0010
0100
1000
0100
0010
0001
1000
0000
0001
0100
0010
0000
1MM0
0000
,
0001
0000
1000
0100
0010
0000
0MM1
0000
1000
0000
0010
0100
0001
0000
1MM0
0000
,
0001
0000
0010
0100
1000
0000
MM10
0000
0100
0000
0001
1000
0100
0000
MM10
0000
,
0001
0000
1000
0010
0100
0000
0MM1
0000
1000
0000
0001
0010
0001
0000
1000
0000
,
0010
0100
0001
1000
2MM2
0000
0000
0000
,
0M00
0000
0000
00M0
0000
0000
0M00
0000
0000
30M3
0000
0000
1000
0000
0010
0000
1000
0000
0010
0000
0100
0000
0001
0000
,
0010
0100
1000
0001
1000
0001
2MM0
0000
0000
3200
0000
0000
,
0320
0000
0000
0032
0000
0000
1003
0100
1000
0100
0010
0001
,
0100
0000
0000
0000
0010
0000
0000
0000
1000
0000
0000
0000
0001
0000
0000
0000
1000
0000
0000
0000
0001
0000
0000
0000
1000
0000
0000
0010
0000
0000
0100
0000
0000
0010
0000
0000
1000
0000
0000
0001
0000
0000
0010
0000
0000
0100
0000
0000
,
1000
0100
0010
0001
0100
0010
1000
0001
1000
0010
0100
0001
0010
0100
1000
0001
,
1000
0001
0100
0010
1000
0001
0010
0100
1000
0010
0100
0001
0010
0100
1000
0001
,
1000
0100
0010
0001
0010
0100
1000
0010
0100
0010
1000
0100
0010
0001
1000
0001
,
1000
0100
0010
0001
1000
0001
1000
0010
2000
0000
0000
0000
0000
0000
0000
0000
,
3200
0000
M00M
M00M
M31M
0001
2000
0000
,
0000
0000
0000
0000
3010
0000
0100
0000
0001
0010
0100
1000
0001
0010
0100
1000
,
0001
1000
0100
0010
0100
1000
0001
0010
0100
1000
0010
0100
0001
0010
0100
1000
,
0001
1000
0100
0010
0001
1000
0001
1000
0M2M
0000
0000
0000
0000
0000
0000
0000
,
0230
0000
M3M1
MM10
M20M
0000
0000
0000
,
1300
0001
1000
0001
1000
0001
1000
0001
1000
0100
0010
0001
0100
0010
1000
0001
,
1000
0100
0010
0001
0010
0100
1000
0001
1000
0010
0100
0001
0010
0100
1000
0001
,
0010
0100
0010
0001
1000
0001
1000
0010
1000
0100
0010
0001
0100
0001
0100
0010
,
1000
0001
0010
0100
1000
0001
0100
0001
0100
0010
1000
0001
0100
0010
0100
0001
,
0010
0100
1000
0001
1000
0100
1000
0100
0010
0001
0100
0010
1000
0001
0010
0100
,
1000
0100
1000
0001
0100
0010
0100
0001
2MM0
0000
3000
0000
0101
0000
0101
0000
,
2MM2
0000
0000
0000
0000
0000
3003
0000
0001
0010
0100
1000
0010
1000
0010
0100
,
0001
1000
0100
0010
0001
1000
0010
1000
0010
0100
0001
1000
0010
0100
0010
1000
,
0100
0010
0001
1000
0001
0010
0001
0010
0100
1000
0010
0100
0001
1000
0100
0010
,
0001
0010
0001
1000
0010
0100
0010
1000
0MM2
0000
0003
0000
1010
0000
1010
0000
,
1MM1
0000
0000
0000
0100
0001
0100
0001
1MM0
0000
0001
0010
0100
0000
1000
0010
,
0100
0000
0001
0100
0010
0000
1000
0010
0100
0000
0001
1000
0100
0000
1000
0001
,
0100
0000
0010
0000
1010
0000
1000
0100
0010
0000
0001
0100
0010
0000
1000
0010
,
0100
0000
0001
0100
0010
0000
1000
0001
0010
0000
0001
1000
0010
0000
0100
0000
,
0001
0010
0100
1000
0100
0010
0001
1000
0001
0000
1000
0100
0010
0000
0001
0100
,
0010
0000
1000
0010
0100
0000
0001
0100
0010
0000
1000
0001
0010
0000
0001
1000
,
0010
0000
0100
0000
0101
0000
0001
0010
0100
0000
1000
0010
0100
0000
0001
0100
,
0010
0000
1000
0010
0100
0000
0001
1000
0100
0000
1000
0001
0100
0000
0010
0000
,
1000
0001
1000
0001
1000
0001
1000
0001
1000
0000
0001
0100
0010
0000
1MM0
0000
,
0001
0000
1000
0100
0010
0000
0MM1
0000
1000
0000
0010
0100
0001
0000
1MM0
0000
,
0001
0000
0010
0100
1000
0000
MM10
0000
0100
0000
0001
1000
0100
0000
MM10
0000
,
0001
0000
1000
0010
0100
0000
0MM1
0000
1000
0000
0100
0010
0100
0010
0100
0010
,
0001
1000
0100
0010
0001
0010
0100
1000
0001
0000
1000
0010
0100
0000
0MM1
0000
,
1000
0000
0001
0010
0100
0000
1MM0
0000
0001
0000
0100
0010
1000
0000
0MM1
0000
,
1000
0000
0100
0010
0001
0000
01MM
0000
0010
0000
1000
0001
0010
0000
01MM
0000
,
1000
0000
0001
0100
0010
0000
1MM0
0000
0001
0000
1000
0100
1000
0000
0001
0000
,
0100
0010
1000
0001
2MM2
0000
0000
0000
,
00M0
0000
0000
0M00
0000
0000
00M0
0000
0000
3M03
0000
0000
0001
0000
0100
0000
0001
0000
0100
0000
0010
0000
1000
0000
,
0100
0010
0001
1000
0001
1000
0MM2
0000
0000
0023
0000
0000
,
0230
0000
0000
2300
0000
0000
3001
0010
0001
0010
0100
1000
,
0010
0000
0000
0000
0100
0000
0000
0000
0001
0000
0000
0000
1000
0000
0000
0000
0001
0000
0000
0000
1000
0000
0000
0000
0001
0000
0000
0100
0000
0000
0010
0000
0000
0100
0000
0000
0001
0000
0000
1000
0000
0000
0100
0000
0000
0010
0000
0000
,
0001
0010
0100
1000
0010
0100
0001
1000
0001
0100
0010
1000
0100
0010
0001
1000
,
0001
1000
0010
0100
0001
1000
0100
0010
0001
0100
0010
1000
0100
0010
0001
1000
,
0001
0010
0100
1000
0100
0010
0001
0100
0010
0100
0001
0010
0100
1000
0001
1000
,
0001
0010
0100
1000
0001
1000
0001
0100
0002
0000
0000
0000
0000
0000
0000
0000
,
0023
0000
M00M
M00M
M13M
1000
0002
0000
,
0000
0000
0000
0000
0103
0000
0010
0000
1000
0100
0010
0001
1000
0100
0010
0001
,
1000
0001
0010
0100
0010
0001
1000
0100
0010
0001
0100
0010
1000
0100
0010
0001
,
1000
0001
0010
0100
1000
0001
1000
0001
M2M0
0000
0000
0000
0000
0000
0000
0000
,
0320
0000
0000
0000
103M
0000
01MM
0000
M02M
0000
0000
0000
0031
0010
0001
1000
,
0001
1000
0001
0000
1000
0100
1000
0001
1000
0100
0010
0001
0100
0010
1000
0001
,
1000
0100
0010
0001
0010
0100
1000
0001
1000
0010
0100
0001
0010
0100
1000
0001
,
0010
0100
0010
0001
1000
0001
1000
0010
1000
0100
0010
0001
0100
0001
0100
0010
,
1000
0001
0010
0100
1000
0001
0100
0001
0100
0010
1000
0001
0100
0010
0100
0001
,
0010
0100
1000
0001
1000
0100
1000
0100
0010
0001
0100
0010
1000
0001
0010
0100
,
1000
0100
1000
0001
0100
0010
0100
0001
2MM0
0000
3000
0000
0101
0000
0101
0000
,
2MM2
0000
0000
0000
0000
0000
3003
0000
0001
0010
0100
1000
0010
1000
0010
0100
,
0001
1000
0100
0010
0001
1000
0010
1000
0010
0100
0001
1000
0010
0100
0010
1000
,
0100
0010
0001
1000
0001
0010
0001
0010
0100
1000
0010
0100
0001
1000
0100
0010
,
0001
0010
0001
1000
0010
0100
0010
1000
0MM2
0000
0003
0000
1010
0000
1010
0000
,
1MM1
0000
0000
0000
0100
0001
0100
0001
2000
0000
0000
0000
0000
0000
0000
0000
,
3002
0000
0000
0003
2MM2
0000
0000
0000
,
0000
0000
0000
3003
2M2M
0000
0000
3030
,
1000
0000
0001
0000
MM11
0000
0010
0001
,
1000
0000
0100
0000
2200
0000
0000
3300
,
1000
0010
M11M
0100
,
M2M2
0000
0000
0303
2MM2
0000
0000
3003
,
0001
0010
MM22
0000
,
0000
0000
0000
0033
0002
0000
0000
0000
,
2003
0000
0000
3000
2MM2
0000
0000
0000
,
0000
0000
0000
3003
M2M2
0000
0000
0303
,
0001
0000
1000
0000
11MM
0000
0100
1000
,
0001
0000
0010
0000
0022
0000
0000
0033
,
0001
0100
M11M
0010
,
2M2M
0000
0000
3030
2MM2
0000
0000
3003
,
1000
0100
22MM
0000
,
0000
3300
M000
0000
,
000M
0000
0000
0000
0000
0000
0000
0000
0M00
0000
0000
0000
0000
0000
0000
0000
1000
0001
0000
0000
0000
0000
0000
0000
0000
0000
0000
0000
0000
0000
0000
0000
,
0000
0000
0000
0000
0000
0000
0000
0000
00M0
0000
0000
0000
0000
0000
0000
0000
1M00
0010
0000
0000
0000
0000
0000
0000
0000
0000
0000
0000
0000
0000
0000
0000
,
MMMM
0000
0000
0000
0000
0000
0000
0000
0000
0000
0000
0000
0000
0000
0000
0000
01M0
0001
0000
0000
0000
0000
0000
0000
0000
0000
0000
0000
0000
0000
0000
0000
,
0000
0000
0000
0000
0000
0000
0000
0000
0000
0000
0000
0000
0000
0000
0000
0000
00M1
0100
0000
0000
0000
0000
0000
0000
0000
0000
0000
0000
0000
0000
0000
0000
,
0001
0010
0100
0000
,
MMMM
0000
0000
0000
0000
0000
0000
0000
0000
0000
0000
0000
0000
0000
0000
0000
100M
0010
0000
0000
0000
0000
0000
0000
0000
0000
0000
0000
0M00
0000
0000
0000
,
0000
0000
0000
0000
0000
0000
0000
0000
00M0
0000
0000
0000
0000
0000
0000
0000
M100
0001
0000
0000
0000
0000
0000
0000
M0M0
0000
0000
0000
0000
0000
0000
0000
,
0000
0000
0000
0000
,
2000
0000
0000
3001
0010
0001
2000
0000
0000
3001
0100
0001
,
2000
0000
0000
3001
0010
0001
2000
0000
0000
3001
0100
0001
,
2000
3200
0320
0032
,
2003
0000
0000
3002
,
2003
0000
0000
3001
0100
0001
2000
0000
0000
3001
0010
0001
,
2000
0000
0000
3001
0100
0001
2000
0000
0000
3001
0010
0001
,
2000
3200
0320
0230
,
2300
0000
0000
0000
0000
0000
0000
3002
,
1003
0001
1000
0001
1000
0001
1000
0001
0100
0001
0100
0001
0100
0010
0100
0010
,
1000
0001
1000
0001
0100
0010
0100
0010
1000
0100
0010
0001
0100
0010
1000
0100
,
0010
0001
0010
0001
0100
0010
0100
0010
1000
0001
1000
0001
0010
0100
0010
0100
,
1000
0010
0100
0001
0010
0100
1000
0010
0100
0001
0010
0100
1000
0001
1000
0100
,
0010
0001
0010
0001
0010
0001
0010
0001
1000
0010
1000
0010
0100
0001
0100
0001
,
1000
0100
1000
0100
1000
0100
1000
0100
0010
0001
0010
0001
1000
0100
0010
0001
,
0010
0100
0010
0100
0010
0100
0010
0100
0010
0100
0010
0100
0010
0100
0010
0100
,
1000
0001
1000
0001
1000
0001
1000
0001
1000
0001
1000
0001
1000
0001
1000
0001
,
MM10
0100
1000
0010
0100
0001
1000
0001
,
0200
0000
0301
0010
0100
1000
0100
0010
,
M001
0100
0010
0100
0001
0010
0100
1000
,
0001
0010
0001
1000
0001
0100
0001
0010
,
M001
0100
0010
0100
0001
0010
0100
1000
,
0M01
0010
0100
0010
0001
1000
1000
0001
,
10M0
0100
0010
0100
1000
0010
0100
0001
,
0010
0100
0100
1000
1000
0001
0001
0100
,
0100
0010
1000
1000
0001
0001
0010
0010
,
0200
0000
1300
0000
,
1MM1
1000
0100
0010
0001
0010
0100
1000
,
0001
1000
0010
1000
0100
1000
0010
1000
,
0001
0010
0100
1000
0100
0010
0001
1000
,
0001
0100
0001
0010
0001
0100
0001
1000
,
0001
0010
0100
0010
0001
1000
0010
1000
,
0001
0100
0010
0100
0001
0010
0100
1000
,
0001
0100
0101
0001
1000
0010
1010
1000
,
0100
0010
0011
0001
1000
0010
1010
1000
,
0010
0100
0101
0001
0010
0100
1100
1000
,
0010
0100
0101
0001
1000
0010
1010
1000
,
0002
0000
0000
0000
0000
0000
0000
0000
0000
0000
0000
0000
0013
0100
1000
0100
,
0020
0000
0000
0000
0032
0000
0000
0003
,
1MM1
0000
1000
0100
0000
0000
0010
0000
0001
0000
0010
0000
0100
0000
1000
0000
,
1MM1
0000
0001
0100
0000
0000
0010
0000
1000
0000
0010
0000
0100
0000
0001
0000
,
MM11
0010
0100
1000
0001
0100
0010
0100
,
M1M1
0001
0010
0100
1000
0001
2MM2
3003
,
1M1M
1000
0010
0100
0001
0010
0100
1000
,
1MM1
0001
0010
0100
0010
0001
1000
0010
,
1M1M
1000
0010
0100
0001
0010
0100
0010
,
MM11
0001
1000
0010
0100
0010
2M2M
3030
,
10MM
0100
0010
0000
0001
0000
1000
0000
0001
0010
0100
0000
1000
0000
0001
0000
,
0100
0010
0100
0001
0010
0100
1000
0010
1000
0010
0100
0001
,
1MMM
0000
0000
0000
0000
0000
0000
0000
0000
0000
0000
0000
0001
0000
0000
0010
0000
0000
0100
0000
0000
0000
0000
0000
1000
0000
0000
0000
0001
0000
0000
0000
0100
0000
0000
0000
0010
0000
0000
0000
0100
0000
0000
0000
0001
0000
0000
0000
,
1000
0100
0010
0001
0100
0010
1000
0001
1000
0010
0100
0001
,
1000
0100
1000
0000
0001
0010
0001
0000
1000
0000
0100
0000
0010
0000
0000
0000
,
0001
0010
0001
0000
1000
0100
1000
0000
0001
0000
0010
0000
0100
0000
0000
0000
,
1000
0010
0100
0000
0001
0100
0010
0000
1000
0000
0001
0000
0100
0000
0000
0000
,
0020
0000
0000
0000
0000
0000
1030
0100
0020
0000
0000
0000
0000
0000
0030
0000
,
MMM1
0010
0001
1000
0001
0000
0100
0000
,
0010
1000
0010
0100
0002
0000
1003
0000
,
0001
0010
0100
1000
0010
0100
0001
1000
,
0100
0000
0010
0000
0002
0000
0000
0003
,
1MM1
0000
1000
0010
0110
0000
0100
0000
,
0101
0000
0001
0010
0110
0000
0100
0000
,
1100
0000
1000
0010
1010
0000
1000
0000
,
2MM1
0000
3002
0000
,
1003
0100
0010
0100
1000
0100
0010
0100
1000
0001
0010
0001
1000
0001
0010
0001
,
1000
0010
0100
0010
1000
0010
0100
0010
1000
0001
0100
0001
1000
0001
0100
0001
,
1000
0100
1000
0001
0010
0001
1000
0010
1000
0001
0100
0010
1000
0001
0010
0100
,
1000
0100
1000
0010
0100
0001
0010
0100
1000
0001
0100
0001
1000
0100
0010
0001
,
1000
0100
1000
0010
0100
0001
0010
0100
1000
0001
0100
0001
1000
0100
0010
0001
,
0100
0010
1000
0100
0010
0001
1000
0001
1000
0100
0010
0001
0100
0010
1000
0001
,
1000
0100
0010
0100
1000
0100
0010
0100
1000
0001
0100
0001
1000
0001
0100
0001
,
1000
0010
0100
0010
1000
0010
0100
0010
4000
0000
0000
0000
0000
0000
0000
0000
,
3002
0000
0000
0000
0023
0000
M00M
M00M
,
M13M
1000
0002
0000
0000
0000
0103
0010
,
1000
0100
0010
0001
1000
0100
0010
0001
1000
0001
0010
0100
0010
0001
1000
0100
,
0010
0001
0100
0010
1000
0100
0010
0001
1000
0001
0010
0100
1000
0001
1000
0001
,
M2M0
0000
0000
0000
0320
0000
1M3M
M1MM
,
MM2M
0000
0000
0000
,
0031
0010
0100
1000
0010
0100
0001
1000
0001
0010
0100
1000
0100
0010
0001
1000
,
0001
0100
0010
1000
0100
0010
0001
1000
0100
0010
0100
1000
0001
1000
0001
0100
,
0002
0000
0000
0000
0023
0000
M00M
M00M
,
M13M
1000
0002
0000
0000
0000
0103
0010
,
1000
0100
0010
0001
1000
0100
0010
0001
1000
0001
0010
0100
0010
0001
1000
0100
,
0010
0001
0100
0010
1000
0100
0010
0001
1000
0001
0010
0100
1000
0001
1000
0001
,
M2M0
0000
0000
0000
0320
0000
1M3M
01MM
,
M02M
0000
0000
0000
0000
0000
0000
0000
0030
0001
1000
0001
1000
0001
1000
0001
,
1000
0010
1010
1000
0100
0010
0110
0100
,
1000
0001
1001
1000
0010
1000
1001
0001
,
1000
0100
0010
0001
0100
0001
0100
0010
1000
0001
0010
0100
1000
0001
0100
0001
,
0100
0010
1000
0001
0100
0010
0100
0001
0010
0100
1000
0001
1000
0100
1000
0100
,
0010
0001
0100
0010
1000
0001
0010
0100
1000
0100
1000
0001
0100
0010
0100
0001
,
2MM0
3000
0000
0000
0000
0000
0000
0000
;
