#TITLE:Piano Concerto No. 1 Scorpion Fire;
#SUBTITLE:;
#ARTIST:VIRKATO;
#TITLETRANSLIT:;
#SUBTITLETRANSLIT:;
#ARTISTTRANSLIT:;
#CREDIT:Dark Coz;
#BANNER:Banner.png;
#BACKGROUND:Background.png;
#LYRICSPATH:;
#CDTITLE:;
#MUSIC:Piano Concerto No. 1 Scorpion Fire.mp3;
#OFFSET:0.000;
#SAMPLESTART:67.001;
#SAMPLELENGTH:12.000;
#SELECTABLE:YES;
#BPMS:0.000=105.520,10.000=92.500,28.000=185.000,64.000=95.000,68.000=92.500,100.000=185.000,140.000=175.000,146.000=182.500,176.000=175.000,182.000=180.000,214.000=187.500,230.000=185.000,238.000=90.000,250.000=187.500,275.000=92.500;
#STOPS:275.000=2.260
;
#BGCHANGES:0.000=Scorpion Fire.avi=1.000=1=1=0,
99999=-nosongbg-=1.000=0=0=0 // don't automatically add -songbackground-
;
// cache tags:
#FIRSTBEAT:2.000;
#LASTBEAT:290.125;
#SONGFILENAME:Songs/new cc/Piano Concerto No. 1 Scorpion Fire/Piano Concerto No. 1 Scorpion Fire.sm;
#HASMUSIC:1;
#HASBANNER:1;
#MUSICLENGTH:128.862;
// end cache tags

//---------------dance-single - R. Cosentino----------------
#NOTES:
     dance-single:
     R. Cosentino:
     Challenge:
     11:
     0.803,0.957,0.761,0.365,0.675,564.000,98.000,47.000,0.000,11.000:
0000
0000
2222
0000
,
0000
0000
0000
0000
,
0000
3333
1000
0000
,
0010
0000
0000
1000
0001
0000
0000
0000
,
0000
0000
0000
0000
0000
0000
0000
0000
0000
0000
0000
0000
1000
0000
0000
0000
0000
0000
0000
0000
0000
0000
1000
0100
0010
0001
1000
0100
0010
0000
0000
0000
,
0000
0000
0000
0000
0001
0000
0010
0100
1000
0100
0010
0001
0010
0100
1000
0000
1000
0100
0000
0000
0000
0000
0000
0000
0000
1001
0000
0000
0000
0000
0000
0000
,
0000
0000
0000
2222
0000
0000
0000
0000
0000
0000
0000
0000
0000
0000
0000
0000
3333
0000
0000
0000
0000
0000
0000
0000
1001
0000
0000
0000
0000
0000
0000
0000
,
1000
0010
0100
1000
0001
0010
1000
0010
,
0100
0001
1000
0010
0100
1000
0010
0100
,
0001
0010
0100
1000
0010
0100
0001
0010
,
0100
1000
0010
0100
0001
0010
0100
1000
,
0010
0100
0001
0010
0100
1000
0010
0100
,
0010
1000
0100
0010
1000
0100
0010
0001
,
0010
0100
1000
0010
0100
0010
0001
1000
,
0100
0010
1000
0100
0010
0100
0001
0010
,
1001
0000
0000
2222
0000
0000
0000
0000
,
0000
0000
0000
0000
0000
0000
0000
0000
0000
0000
0000
0000
3333
0000
1000
0001
,
0110
1000
0101
0010
1100
0010
0101
1000
,
0110
0011
0110
1100
0110
1001
0110
1001
,
1100
0000
0100
1000
0011
0000
0100
1000
0011
0000
0100
1000
0101
0000
0010
0100
,
1001
0000
0000
0100
0001
0100
0101
0000
0000
0011
0000
0000
0110
0000
0000
1100
0000
0000
0101
0000
0000
0011
0000
0000
,
0202
0000
0303
1100
0202
0000
0303
0101
,
2002
3003
1110
0111
2102
3003
1001
0101
,
2200
0000
0000
0000
0000
0000
0001
0000
0000
0000
0000
3300
0011
0000
0000
0000
0110
0000
0000
0000
1000
0000
0000
0000
0100
0000
0000
0000
0010
0000
0000
0000
,
1001
0000
0000
0000
0000
0000
0011
0000
0000
0000
0000
0000
0110
0000
0000
0000
1001
0000
0000
0000
0000
0000
0000
0000
1000
0001
1000
0001
1000
0001
1000
0000
,
0011
0000
0001
0010
0100
1000
0100
0010
0001
0010
0100
0001
,
1001
0000
0010
0100
1000
0100
0010
0001
1000
0100
0010
0001
,
0010
0100
1000
0100
0010
0001
0010
0100
1000
0010
0100
1000
,
0100
0010
1000
0001
1000
0001
0010
0100
1000
0100
0010
0001
,
1000
0100
1000
0100
1000
0100
0010
0001
0010
0001
0010
0001
,
0100
0010
0100
0010
0100
0001
1000
0001
1000
0001
1000
0100
,
1000
0100
0010
0001
1000
0100
0010
0100
0001
0010
0100
1000
,
0110
0001
0010
0100
1000
0100
0010
0100
0001
0010
0100
1000
,
0100
0010
0100
0001
0010
0100
1000
0010
0100
0001
0010
0100
,
1000
0100
0010
0001
0100
1000
0010
0100
0001
0010
0100
0010
,
2002
0000
0000
0000
0000
0000
0000
0000
0000
3003
0000
0000
1000
0000
0000
0100
0000
0000
0010
0000
0001
0000
0010
0000
,
0100
0000
1000
0000
0100
0000
0010
0000
0100
0000
0001
0000
1000
0000
0000
0100
0000
0000
0010
0000
0000
1000
0000
0000
,
0100
0000
0001
0000
0100
0010
0100
0010
0100
0000
1000
0000
0010
0000
0100
0000
,
0010
0000
0100
0000
1000
0100
1000
0100
1000
0000
0100
0000
0010
0000
0100
0000
,
0001
0000
0010
0000
0100
1000
0100
1000
0100
0000
0010
0000
0100
0000
0001
0000
,
0010
0000
0100
0000
1000
0100
1000
0100
1000
0000
0010
0000
0100
0000
1000
0000
,
0010
0000
0100
0000
0001
0010
0100
1000
0001
0000
0100
0000
0010
0000
1000
0000
,
0001
0000
0010
0000
1000
0100
0010
0100
0001
0000
1000
0000
0010
0000
0100
0000
,
0010
0000
0100
0000
0001
0010
0100
0001
0010
0000
0100
0000
1000
0000
0010
0000
,
0100
0000
0001
0000
1000
0010
0100
0001
0010
0100
1000
0010
0100
0001
0010
0100
,
1000
0100
0010
0100
0001
0010
0100
1000
0010
0000
0001
0000
0010
0000
0100
0000
,
1000
0100
0010
0100
0001
0010
0100
1000
0100
0000
0010
0000
0100
0000
1000
0000
,
0010
0100
1000
0010
0100
0001
0010
0100
0010
0000
1000
0000
0100
0000
0010
0000
,
0001
0010
0100
0010
0001
0010
0100
1000
0001
0000
0100
0000
0010
0000
0001
0000
,
1000
0100
0010
0001
1000
0100
0010
0001
1000
0000
0100
0000
0010
0000
1000
0000
,
0100
0010
0001
0010
0100
1000
0100
0010
0100
0000
1000
0000
0100
0000
0010
0000
,
1000
0100
0010
0100
0010
0100
1000
0100
1000
0000
0100
0000
0010
0000
0100
0000
,
0001
0000
0010
0000
0100
0000
1000
0000
1001
0000
1001
0000
1000
0010
0100
0001
,
0010
0100
1000
0010
0100
0001
0010
0000
0110
0000
0000
0000
1000
0000
0000
0000
,
0101
0001
1100
0010
,
0101
0010
1100
0101
,
0011
1100
0110
0011
,
1100
0000
0101
0000
1010
0022
0000
0033
,
1010
0220
0000
0330
1001
0220
0000
0330
,
1100
0022
0000
0033
0100
1000
0010
0100
,
2002
0000
0000
3003
0010
0100
0010
1000
,
0202
0000
0000
0303
2222
0000
3333
1110
,
0222
0000
0333
1000
0100
0000
0010
0001
,
0110
0000
0010
0100
1001
0000
0100
0010
,
1100
0000
0001
0100
0011
0000
1000
0010
,
0101
0000
0010
1000
0101
0000
0010
0100
,
1010
0000
0100
0010
0101
0000
1010
0000
,
0101
1010
0110
0011
,
0110
0000
0000
0000
0000
0000
0000
0000
0000
0000
0000
0000
0000
0000
0000
0000
1100
0000
0000
0000
0000
0000
0000
0000
0000
0000
0000
0000
0000
0000
0000
0000
0110
0000
0000
0000
0000
0000
0000
0000
0000
0000
0000
0000
0000
0000
0000
0000
2222
3333
0000
0000
0000
0000
0000
0000
0000
0000
0000
0000
0000
0000
0000
0000
,
0100
0000
0000
0000
0000
0000
0000
0000
0000
0000
0000
0000
0000
0000
0000
0000
0000
1000
0000
0000
0000
0000
0000
0000
0000
0000
0000
0000
0000
0000
0000
0000
,
0000
0000
0000
0010
0000
0000
0000
0000
0000
0000
0000
0000
0000
0000
0000
0000
0000
0000
0000
0000
0000
0000
0000
0000
0000
0000
0000
0000
0000
0000
0000
0000
,
0000
0000
0000
0000
0000
0000
1001
0000
0000
0000
0000
0000
0000
0000
0000
0000
0001
0000
0000
0010
0000
0000
1000
0000
0000
0100
0000
0000
0000
0000
0000
0000
,
0000
0000
0000
0000
0011
0000
0000
0000
0000
0000
1010
0000
0000
0000
0000
0000
0000
0101
0000
0000
0000
0000
0000
0000
0000
0000
0000
0000
0000
0000
0000
0000
;

//---------------dance-single - R. Cosentino----------------
#NOTES:
     dance-single:
     R. Cosentino:
     Beginner:
     2:
     0.103,0.187,0.016,0.000,0.000,91.000,2.000,0.000,0.000,0.000:
0000
0000
0000
0000
,
0000
0000
0000
0000
,
0000
0000
0000
0000
,
0000
0000
0000
0000
,
0000
0000
0000
0000
,
0000
0000
0000
0000
,
0000
0000
0000
0000
,
1000
0000
0000
0000
,
0100
0000
0000
0000
,
0010
0000
0000
0000
,
1000
0000
0000
0000
,
0010
0000
0000
0000
,
0100
0000
0000
0000
,
0010
0000
0000
0000
,
0100
0000
0000
0000
,
1000
0000
0000
0000
,
0000
0000
0000
0000
,
0010
0000
1000
0000
,
0100
0100
0100
0100
,
0100
0000
1000
0000
,
0100
0000
0001
0000
,
0010
0000
0100
0000
,
1000
0000
0100
0000
,
0001
0000
0100
0000
,
0010
0000
0100
0000
,
1000
0000
0000
0000
,
0100
0000
0000
0000
,
1000
0000
0000
0000
,
0010
0000
0000
0000
,
0100
0000
0000
0000
,
0001
0000
0000
0000
,
0010
0000
0000
0000
,
0100
0000
1000
0000
,
0100
0000
0010
0000
,
0000
0000
0100
0000
,
0000
0000
1000
0000
,
0000
0000
0010
0000
,
0000
0000
0100
0000
,
0000
0000
0010
0000
,
0000
0000
0001
0000
,
0000
0000
0100
0000
,
0000
0000
1000
0000
,
0000
0000
0010
0000
,
0000
0000
0100
0000
,
0000
0000
0001
0000
,
0000
0000
0100
0000
,
0000
0000
1000
0000
,
0000
0000
0010
0000
,
0000
0000
0100
0000
,
0000
0000
0001
0000
,
0000
0000
0010
0000
,
0000
0000
0100
0000
,
0000
0000
1000
0000
,
0000
0000
0100
0000
,
0010
0000
1000
0000
,
0001
0000
0100
0100
,
0100
0000
0010
0010
,
0010
0000
1000
0000
,
0100
0000
0010
0000
,
0001
0000
0100
0000
,
1000
0000
0010
0000
,
0100
0000
0001
0000
,
1000
0000
0010
0000
,
0100
0000
1000
0000
,
0010
0000
0100
0000
,
0001
0000
0010
0000
,
0100
0000
1000
0000
,
0010
0000
0100
0000
,
0001
0000
1001
1001
;

//---------------dance-single - R. Cosentino----------------
#NOTES:
     dance-single:
     R. Cosentino:
     Hard:
     8:
     0.494,0.562,0.380,0.147,0.202,378.000,49.000,19.000,0.000,0.000:
0000
0000
2002
0000
,
0000
0000
0000
0000
,
0000
3003
1000
0000
,
0010
0000
0000
1000
0100
0000
0000
0000
,
0000
0000
0000
0100
0000
0000
1001
0000
,
0000
1100
0000
0000
0000
0000
0000
0000
,
0000
0000
0000
2002
0000
0000
0000
0000
0000
0000
0000
0000
0000
0000
0000
0000
0000
0000
0000
0000
0000
0000
0000
0000
3003
0000
0000
0000
0000
0000
0000
0000
,
1000
0100
0010
0000
0100
0000
0001
0000
,
0010
0100
1000
0000
0100
0000
0010
0000
,
0001
1000
0010
0000
0100
0000
0010
0000
,
1000
0100
0010
0000
0001
0000
0010
0000
,
0100
0001
0010
0000
0100
0000
0010
0000
,
1000
0100
0010
0000
1000
0001
0100
0000
,
0010
1000
0100
0000
0010
0100
0001
0000
,
0010
0100
0001
0000
0010
0100
1000
0000
,
1001
0000
0000
2002
0000
0000
0000
0000
,
0000
0000
0000
0000
0000
0000
0000
0000
0000
0000
3003
0000
0000
0000
1000
0001
,
0100
0011
0100
1010
0100
1001
0010
1001
,
0100
0010
1000
0100
0010
0100
0001
0010
,
0100
1010
0100
0011
0100
1010
0100
0011
,
0100
0000
0000
1000
0010
1000
0010
0000
0000
0100
0000
0000
0001
0000
0000
0010
0000
0000
0100
0000
0000
1000
0000
0000
,
0002
0000
0000
1000
2003
0000
0000
0001
,
3002
0000
0100
0100
0203
0000
1300
0100
,
0010
0000
0000
1100
0000
0000
0101
0000
0010
0000
1000
0000
0100
0000
0010
0000
,
0001
0000
0000
1100
0000
0000
0101
0000
0010
0000
0000
0000
0110
0000
0000
0000
,
1001
0000
0001
0010
0000
0010
0100
0000
0100
1000
0000
1000
,
0001
0000
0001
0010
0000
0010
0100
0000
0100
1000
0100
1000
,
0100
0000
1000
0100
0000
0100
0010
0000
0010
0001
0000
0001
,
1000
0000
1000
0100
0000
0100
0010
0000
0001
0010
0001
0010
,
0001
0000
0001
0010
0000
0010
0100
0000
0100
1000
0100
1000
,
0100
0000
0100
0010
0000
0010
0001
0000
0010
0100
0010
0100
,
0010
0000
0010
0100
0000
0100
1000
0000
1000
0100
1000
0100
,
1000
0000
1000
0100
0000
0100
0010
0000
0010
0001
0010
0001
,
0010
0000
0010
0001
0000
0001
0100
0000
0100
0010
0000
0010
,
1000
0000
1000
0100
0000
0100
0010
0000
0010
0001
0000
0001
,
0020
0000
0000
0000
,
0000
0000
0030
0000
1000
0010
0100
0000
,
0001
0010
0100
0000
1000
0001
0100
0000
,
0010
0100
0001
0000
0010
0100
0010
0000
,
1000
0100
0010
0000
0010
0100
0001
0000
,
1000
0100
0010
0000
0001
0010
0100
0000
,
1000
0001
0010
0000
0100
0010
1000
0000
,
0100
0010
0001
0000
0010
0100
1000
0000
,
0100
0010
0100
0000
0001
0010
0100
0000
,
1000
0010
0100
0000
0001
0010
0200
0000
,
0000
0000
0300
0000
1000
0010
0100
0000
,
0001
0010
0100
0000
1000
0010
0100
0000
,
1000
0001
0100
0000
0010
0100
0001
0000
,
1000
0010
0100
0000
0001
1000
0100
0000
,
1000
0001
0100
0000
0010
0100
0001
0000
,
0010
1000
0100
0000
0010
0100
0010
0000
,
1000
0100
0010
0000
0001
0100
0010
0000
,
1000
0010
0100
0000
0001
0010
0100
0000
,
0010
1000
0100
0000
1010
0000
0100
0000
,
0011
0100
1001
0010
,
1100
0010
0101
1010
,
0110
0101
0011
1100
,
0110
0000
0101
0000
1100
1100
0000
0000
,
0101
0101
0000
0000
0011
0011
0000
0000
,
0110
0110
0000
0000
1000
0010
0100
0001
,
0020
0000
0000
0000
0130
1000
0010
0100
,
0002
0000
0000
0003
2002
0000
3003
0010
,
0200
0000
0300
0010
0100
0000
1000
0010
,
1010
0000
0001
0010
0011
0000
1000
0001
,
1001
0000
0110
0000
1001
0000
0010
0100
,
0110
0000
0001
1000
1001
0000
1000
0010
,
0100
0001
0010
0100
1000
0100
0010
0100
,
0001
0010
0100
1000
0010
0100
0001
0010
,
0100
1000
0010
0100
0001
0000
2002
0000
,
3003
0000
0000
0000
;

//---------------dance-single - R. Cosentino----------------
#NOTES:
     dance-single:
     R. Cosentino:
     Easy:
     3:
     0.172,0.241,0.016,0.031,0.000,149.000,2.000,4.000,0.000,0.000:
0000
0000
0000
0000
,
0000
0000
0000
0000
,
0000
0000
0000
0000
,
0000
0000
0000
0000
,
0000
0000
0000
0000
,
0000
0000
0000
0000
,
0000
0000
0000
0000
,
1000
0000
0100
0000
,
0010
0000
1000
0001
,
0100
0000
0010
0000
,
1000
0000
0100
0010
,
0001
0000
1000
0000
,
0010
0000
0100
0001
,
1000
0000
0001
1000
,
0010
0100
0001
1000
,
0100
0000
0000
2002
0000
0000
0000
0000
,
0000
0000
0000
3003
,
1000
0100
0010
0001
,
1000
0001
0100
0010
,
1000
0100
0010
0001
,
0100
0010
1000
0100
,
0010
0000
0100
0000
,
0001
0000
1000
0000
,
0001
0000
0100
0000
,
0010
0000
1000
0000
,
0100
0000
1000
0000
,
0010
0000
0100
0000
,
0001
0000
0010
0000
,
0100
0000
1000
0000
,
0100
1000
0010
0100
,
0001
0010
0100
1000
,
0010
0100
1000
0010
,
0100
1000
0010
0001
,
0100
0010
0001
1000
,
0100
0001
0010
0100
,
1000
0000
0000
0000
,
0000
0000
1000
0000
,
1000
0000
0100
0000
,
0100
0000
0010
0000
,
0010
0000
0001
0000
,
0001
0000
1000
0000
,
1000
0000
0100
0000
,
0100
0000
0010
0000
,
0010
0000
1000
0000
,
1000
0000
0000
0000
,
0000
0000
1000
0000
,
0100
0000
0010
0000
,
0001
0000
0100
0000
,
0010
0000
1000
0000
,
0100
0000
0010
0000
,
0001
0000
0100
0000
,
0010
0000
1000
0000
,
0100
0000
0010
0000
,
0001
0000
1000
0000
,
0010
0000
0100
0000
,
0001
0000
1000
0001
,
1000
0001
0100
0001
,
0010
0001
0100
0000
,
0010
0000
1000
0000
,
0100
0000
0010
0000
,
1000
0000
0100
0000
,
0010
0000
0001
0000
,
0001
0000
1000
0000
,
0100
0000
0010
0000
,
0100
0000
0010
0000
,
0001
0000
1000
0000
,
0001
0000
0100
0000
,
0010
0000
1000
0000
,
0001
0000
0100
2002
,
3003
0000
0000
0000
;

//---------------dance-single - R. Cosentino----------------
#NOTES:
     dance-single:
     R. Cosentino:
     Medium:
     5:
     0.309,0.455,0.116,0.101,0.008,251.000,15.000,13.000,0.000,0.000:
0000
0000
0000
0000
,
0000
0000
0000
0000
,
0000
0000
0000
0000
,
0000
0000
0000
0000
,
0000
0000
0000
0000
,
0000
0000
0000
0000
,
0000
0000
0000
0000
,
1000
0010
0100
0001
,
0010
0100
1000
0010
,
0100
0001
1000
0010
,
0100
1000
0010
0100
,
0001
0010
0100
1000
,
0010
0100
0001
0010
,
0100
1000
0010
0100
,
0001
0010
0100
1000
,
1001
0000
0000
0220
0000
0000
0000
0000
,
0000
0000
0000
0330
,
1000
0100
0010
0001
1000
0010
0100
0001
,
0010
0100
1000
0010
0100
1000
0100
0010
,
0001
0010
0100
1000
0010
0100
0001
0010
,
0100
1000
0010
0100
0001
0010
0100
1000
,
0020
0000
0030
0100
0020
0000
0030
1000
,
0002
0000
1003
0100
1000
0000
1001
0001
,
0010
0000
0000
1000
0000
0000
0100
0000
0010
0000
0001
0000
0010
0000
0100
0000
,
1000
0000
0000
0001
0000
0000
1000
0000
0001
0000
0000
0000
1001
0000
0000
0000
,
1000
0010
0100
1000
,
0010
0100
0001
0010
,
0100
1000
0010
0100
,
0001
0010
0100
1000
,
0010
0100
0001
0010
,
0100
1000
0010
0100
,
0001
0100
0010
1000
,
0100
0010
0001
1000
,
0010
0100
0001
0010
,
0100
1000
0010
0100
,
2002
0000
0000
0000
,
0000
3003
1000
0010
,
0100
0001
0010
0100
,
1000
0010
0100
0001
,
0010
0100
0001
0100
,
0010
1000
0100
0010
,
0100
0001
0010
0100
,
1000
0010
0100
0001
,
1000
0100
0010
0001
,
0100
0010
1001
0000
,
0000
0000
1000
0010
,
0100
1000
0010
0100
,
0001
0010
0100
1000
,
0010
0100
0001
0010
,
0100
0001
0010
0100
,
1000
0010
0100
0001
,
0010
0100
1000
0010
,
0100
0001
0010
0100
,
0010
1000
1100
0000
,
0101
0000
0011
0000
,
0110
0000
1000
0001
,
0010
0100
1000
0010
,
0100
0001
1100
0000
,
0110
0000
0101
0000
,
0011
0000
0000
0000
1000
0100
0010
0001
,
0200
0000
0000
0000
0310
0100
1000
0001
,
0020
0000
0000
0000
0230
0000
0000
1300
,
0020
0000
1030
0100
1000
0000
0001
0000
,
0010
0100
0010
1000
,
0100
0010
0100
0001
,
0010
0100
0010
1000
,
0100
0010
0001
0100
,
0010
1000
0100
0010
,
0100
0001
0010
2002
,
3003
0000
0000
0000
;

//---------------dance-double - R. Cosentino----------------
#NOTES:
     dance-double:
     R. Cosentino:
     Easy:
     3:
     0.172,0.241,0.016,0.031,0.000,149.000,2.000,4.000,0.000,0.000:
00000000
00000000
00000000
00000000
,
00000000
00000000
00000000
00000000
,
00000000
00000000
00000000
00000000
,
00000000
00000000
00000000
00000000
,
00000000
00000000
00000000
00000000
,
00000000
00000000
00000000
00000000
,
00000000
00000000
00000000
00000000
,
01000000
00000000
00100000
00000000
,
00001000
00000000
00100000
00000100
,
00010000
00000000
00001000
00000000
,
00100000
00000000
00010000
00001000
,
00000100
00000000
00100000
00000000
,
00000100
00000000
00001000
00000010
,
00010000
00000000
00000010
00010000
,
00000100
00001000
00000010
00010000
,
00001000
00000000
00000000
00020020
00000000
00000000
00000000
00000000
,
00000000
00000000
00000000
00030030
,
00010000
00001000
00000100
00000010
,
00010000
00000010
00001000
00000100
,
00010000
00001000
00000100
00000010
,
00000100
00000010
00001000
00000100
,
00000010
00000000
00000100
00000000
,
00000001
00000000
00001000
00000000
,
00000001
00000000
00000100
00000000
,
00000100
00000000
00010000
00000000
,
00001000
00000000
00010000
00000000
,
00000100
00000000
00001000
00000000
,
00000010
00000000
00000100
00000000
,
00010000
00000000
00100000
00000000
,
00010000
00100000
00001000
00010000
,
00000100
00001000
00010000
00100000
,
00001000
00010000
00100000
00001000
,
00100000
01000000
00010000
00001000
,
00100000
00010000
00001000
01000000
,
00100000
00001000
00010000
00100000
,
01000000
00000000
00000000
00000000
,
00000000
00000000
10000000
00000000
,
10000000
00000000
01000000
00000000
,
01000000
00000000
00100000
00000000
,
00100000
00000000
00010000
00000000
,
00001000
00000000
01000000
00000000
,
01000000
00000000
00100000
00000000
,
00100000
00000000
00010000
00000000
,
00010000
00000000
01000000
00000000
,
00100000
00000000
00000000
00000000
,
00000000
00000000
00100000
00000000
,
00010000
00000000
00001000
00000000
,
00000100
00000000
00010000
00000000
,
00000100
00000000
00010000
00000000
,
00001000
00000000
00000100
00000000
,
00000010
00000000
00001000
00000000
,
00000100
00000000
00010000
00000000
,
00000100
00000000
00000010
00000000
,
00000001
00000000
00001000
00000000
,
00000010
00000000
00000100
00000000
,
00000001
00000000
00001000
00000001
,
00010000
00000010
00001000
00000010
,
00000100
00000010
00001000
00000000
,
00000100
00000000
00010000
00000000
,
00001000
00000000
00000100
00000000
,
00100000
00000000
00010000
00000000
,
00001000
00000000
00000100
00000000
,
00000100
00000000
00100000
00000000
,
00010000
00000000
00001000
00000000
,
00100000
00000000
00010000
00000000
,
00001000
00000000
01000000
00000000
,
00001000
00000000
00100000
00000000
,
00010000
00000000
01000000
00000000
,
00010000
00000000
01000000
20020000
,
30030000
00000000
00000000
00000000
;

//---------------dance-double - R. Cosentino----------------
#NOTES:
     dance-double:
     R. Cosentino:
     Medium:
     5:
     0.309,0.455,0.116,0.101,0.008,251.000,15.000,13.000,0.000,0.000:
00000000
00000000
00000000
00000000
,
00000000
00000000
00000000
00000000
,
00000000
00000000
00000000
00000000
,
00000000
00000000
00000000
00000000
,
00000000
00000000
00000000
00000000
,
00000000
00000000
00000000
00000000
,
00000000
00000000
00000000
00000000
,
01000000
00010000
00100000
00001000
,
00001000
00010000
00100000
00001000
,
00010000
00000100
00100000
00001000
,
00010000
00100000
00001000
00010000
,
00000100
00001000
00010000
00100000
,
00000100
00001000
00000010
00000100
,
00001000
00010000
00000100
00001000
,
00000010
00000100
00001000
00010000
,
00010010
00000000
00000000
00002200
00000000
00000000
00000000
00000000
,
00000000
00000000
00000000
00003300
,
00010000
00001000
00000100
00000010
00010000
00000100
00001000
00000010
,
00000100
00001000
00010000
00000100
00001000
00010000
00001000
00000100
,
00000010
00000100
00001000
00010000
00000100
00001000
00000010
00000100
,
00000100
00001000
00000010
00000100
00000001
00000010
00000100
00001000
,
00000020
00000000
00000030
00000100
00000020
00000000
00000030
00001000
,
00000002
00000000
00001003
00000100
00001000
00000000
00001001
00000001
,
00000010
00000000
00000000
00001000
00000000
00000000
00000100
00000000
00000010
00000000
00000001
00000000
00000010
00000000
00000100
00000000
,
00010000
00000000
00000000
00000010
00000000
00000000
00010000
00000000
00000010
00000000
00000000
00000000
00010010
00000000
00000000
00000000
,
00010000
00000100
00001000
00010000
,
00000100
00001000
00000010
00000100
,
00001000
00010000
00000100
00001000
,
00000100
00001000
00010000
00100000
,
00001000
00010000
00000100
00001000
,
00010000
00100000
00001000
00010000
,
00000100
00010000
00001000
00100000
,
00100000
00010000
00001000
01000000
,
00010000
00100000
00001000
00010000
,
00100000
01000000
00010000
00100000
,
02002000
00000000
00000000
00000000
,
00000000
03003000
01000000
00010000
,
00100000
00001000
00010000
00100000
,
01000000
00010000
00100000
00001000
,
00010000
00100000
00001000
00100000
,
00100000
10000000
01000000
00100000
,
01000000
00010000
00100000
01000000
,
10000000
00100000
01000000
00010000
,
10000000
01000000
00100000
00010000
,
00100000
00010000
01001000
00000000
,
00000000
00000000
01000000
00010000
,
00100000
01000000
00010000
00100000
,
00001000
00010000
00100000
01000000
,
00001000
00010000
00000100
00001000
,
00010000
00000100
00001000
00010000
,
00100000
00001000
00010000
00000100
,
00001000
00010000
00100000
00001000
,
00001000
00000010
00000100
00001000
,
00000100
00010000
00011000
00000000
,
00001010
00000000
00000110
00000000
,
00001100
00000000
00010000
00000010
,
00000010
00000100
00001000
00000010
,
00000100
00000001
00001100
00000000
,
00000110
00000000
00000101
00000000
,
00000011
00000000
00000000
00000000
00001000
00000100
00000010
00000001
,
00002000
00000000
00000000
00000000
00003100
00001000
00010000
00000010
,
00000200
00000000
00000000
00000000
00002300
00000000
00000000
00013000
,
00000200
00000000
00010300
00001000
00010000
00000000
00000010
00000000
,
00000100
00001000
00000100
00010000
,
00010000
00001000
00010000
00000100
,
00001000
00010000
00001000
00100000
,
00010000
00001000
00000100
00010000
,
00001000
00100000
00010000
00001000
,
00100000
00001000
00010000
02002000
,
03003000
00000000
00000000
00000000
;

//---------------dance-double - R. Cosentino----------------
#NOTES:
     dance-double:
     R. Cosentino:
     Hard:
     8:
     0.491,0.562,0.357,0.147,0.202,378.000,46.000,19.000,0.000,0.000:
00000000
00000000
20020000
00000000
,
00000000
00000000
00000000
00000000
,
00000000
30030000
10000000
00000000
,
00100000
00000000
00000000
10000000
01000000
00000000
00000000
00000000
,
00000000
00000000
00000000
00100000
00000000
00000000
01001000
00000000
,
00000000
01100000
00000000
00000000
00000000
00000000
00000000
00000000
,
00000000
00000000
00000000
02002000
00000000
00000000
00000000
00000000
00000000
00000000
00000000
00000000
00000000
00000000
00000000
00000000
00000000
00000000
00000000
00000000
00000000
00000000
00000000
00000000
03003000
00000000
00000000
00000000
00000000
00000000
00000000
00000000
,
01000000
00100000
00010000
00000000
00100000
00000000
00001000
00000000
,
00001000
00010000
00100000
00000000
00010000
00000000
00001000
00000000
,
00000100
00100000
00001000
00000000
00010000
00000000
00001000
00000000
,
00100000
00010000
00001000
00000000
00000100
00000000
00001000
00000000
,
00010000
00000100
00001000
00000000
00010000
00000000
00001000
00000000
,
00010000
00001000
00000100
00000000
00010000
00000010
00001000
00000000
,
00000100
00010000
00001000
00000000
00000100
00001000
00000010
00000000
,
00000100
00001000
00000010
00000000
00000100
00001000
00010000
00000000
,
00010010
00000000
00000000
00020020
00000000
00000000
00000000
00000000
,
00000000
00000000
00000000
00000000
00000000
00000000
00000000
00000000
00000000
00000000
00030030
00000000
00000000
00000000
00010000
00000010
,
00001000
00000110
00001000
00010100
00001000
00010010
00000100
00010010
,
00001000
00000100
00010000
00001000
00000100
00001000
00000010
00000100
,
00001000
00010100
00001000
00000110
00001000
00010100
00001000
00000110
,
00000100
00000000
00000000
00001000
00000010
00001000
00000010
00000000
00000000
00000100
00000000
00000000
00000001
00000000
00000000
00000010
00000000
00000000
00000100
00000000
00000000
00001000
00000000
00000000
,
00000002
00000000
00000000
00001000
00002003
00000000
00000000
00000001
,
00003002
00000000
00000100
00000100
00000203
00000000
00001300
00000100
,
00000010
00000000
00000000
00001100
00000000
00000000
00000101
00000000
00000010
00000000
00001000
00000000
00000100
00000000
00000010
00000000
,
00000010
00000000
00000000
00011000
00000000
00000000
00001010
00000000
00000100
00000000
00000000
00000000
00001100
00000000
00000000
00000000
,
00010010
00000000
00000010
00000100
00000000
00000100
00001000
00000000
00001000
00010000
00000000
00010000
,
00000010
00000000
00000010
00000100
00000000
00000100
00001000
00000000
00001000
00010000
00001000
00010000
,
00001000
00000000
00010000
00001000
00000000
00001000
00000100
00000000
00000100
00000010
00000000
00000010
,
00100000
00000000
00100000
00010000
00000000
00010000
00001000
00000000
00000100
00001000
00000100
00001000
,
00000100
00000000
00000100
00001000
00000000
00001000
00010000
00000000
00010000
00100000
00010000
00100000
,
00010000
00000000
00010000
00001000
00000000
00001000
00000100
00000000
00001000
00010000
00001000
00010000
,
00001000
00000000
00001000
00010000
00000000
00010000
00100000
00000000
00100000
00010000
00100000
00010000
,
01000000
00000000
01000000
00100000
00000000
00100000
00010000
00000000
00010000
00001000
00010000
00001000
,
00010000
00000000
00010000
00001000
00000000
00001000
00100000
00000000
00100000
00010000
00000000
00010000
,
01000000
00000000
01000000
00100000
00000000
00100000
00010000
00000000
00010000
00001000
00000000
00001000
,
00020000
00000000
00000000
00000000
,
00000000
00000000
00030000
00000000
01000000
00010000
00100000
00000000
,
00001000
00010000
00100000
00000000
01000000
00001000
00100000
00000000
,
00010000
00100000
00001000
00000000
00010000
00100000
00010000
00000000
,
01000000
00100000
00010000
00000000
00010000
00100000
00001000
00000000
,
10000000
01000000
00100000
00000000
00010000
00100000
01000000
00000000
,
10000000
00010000
00100000
00000000
01000000
00100000
10000000
00000000
,
01000000
00100000
00010000
00000000
00100000
01000000
10000000
00000000
,
01000000
00100000
01000000
00000000
00010000
00100000
01000000
00000000
,
01000000
00010000
00100000
00000000
00001000
00010000
00200000
00000000
,
00000000
00000000
00300000
00000000
01000000
00010000
00100000
00000000
,
00001000
00010000
00100000
00000000
01000000
00010000
00100000
00000000
,
01000000
00001000
00100000
00000000
00010000
00100000
00001000
00000000
,
00100000
00001000
00010000
00000000
00000100
00100000
00010000
00000000
,
00100000
00000100
00010000
00000000
00001000
00010000
00000100
00000000
,
00001000
00100000
00010000
00000000
00001000
00010000
00001000
00000000
,
00100000
00010000
00001000
00000000
00000100
00010000
00001000
00000000
,
00010000
00000100
00001000
00000000
00000010
00000100
00001000
00000000
,
00000100
00010000
00001000
00000000
00010100
00000000
00001000
00000000
,
00000110
00001000
00010010
00000100
,
00011000
00000100
00001010
00010100
,
00000110
00000101
00000011
00001100
,
00000110
00000000
00000101
00000000
00001100
00001100
00000000
00000000
,
00000101
00000101
00000000
00000000
00000011
00000011
00000000
00000000
,
00000110
00000110
00000000
00000000
00001000
00000010
00000100
00000001
,
00000200
00000000
00000000
00000000
00001300
00010000
00000100
00001000
,
00000020
00000000
00000000
00000030
00020020
00000000
00030030
00000100
,
00002000
00000000
00003000
00000100
00001000
00000000
00010000
00000100
,
00010100
00000000
00000010
00000100
00000110
00000000
00010000
00000010
,
00100000
00000000
00011000
00000000
00100000
00000000
00001000
00010000
,
00011000
00000000
00000100
00100000
00100000
00000000
00100000
00001000
,
00010000
00000100
00001000
00010000
00100000
00010000
00001000
00010000
,
00000100
00001000
00010000
00100000
00001000
00010000
00000100
00001000
,
00100000
01000000
00010000
00100000
00001000
00000000
02002000
00000000
,
03003000
00000000
00000000
00000000
;

//---------------dance-double - R. Cosentino----------------
#NOTES:
     dance-double:
     R. Cosentino:
     Challenge:
     11:
     0.802,0.957,0.753,0.365,0.675,564.000,97.000,47.000,0.000,11.000:
00000000
00000000
22220000
00000000
,
00000000
00000000
00000000
00000000
,
00000000
33330000
10000000
00000000
,
00100000
00000000
00000000
10000000
00010000
00000000
00000000
00000000
,
00000000
00000000
00000000
00000000
00000000
00000000
00000000
00000000
00000000
00000000
00000000
00000000
01000000
00000000
00000000
00000000
00000000
00000000
00000000
00000000
00000000
00000000
01000000
00100000
00010000
00001000
01000000
00100000
00010000
00000000
00000000
00000000
,
00000000
00000000
00000000
00000000
00001000
00000000
00010000
00100000
01000000
00100000
00010000
00001000
00010000
00100000
01000000
00000000
01000000
00100000
00000000
00000000
00000000
00000000
00000000
00000000
00000000
01001000
00000000
00000000
00000000
00000000
00000000
00000000
,
00000000
00000000
00000000
02222000
00000000
00000000
00000000
00000000
00000000
00000000
00000000
00000000
00000000
00000000
00000000
00000000
03333000
00000000
00000000
00000000
00000000
00000000
00000000
00000000
01001000
00000000
00000000
00000000
00000000
00000000
00000000
00000000
,
01000000
00010000
00100000
01000000
00001000
00010000
01000000
00010000
,
00010000
00000100
00100000
00001000
00010000
00100000
00001000
00010000
,
00000100
00001000
00010000
00100000
00001000
00010000
00000100
00001000
,
00010000
00100000
00001000
00010000
00000100
00001000
00010000
00100000
,
00001000
00010000
00000100
00001000
00010000
00100000
00001000
00010000
,
00000100
00010000
00001000
00000100
00010000
00001000
00000100
00000010
,
00000100
00001000
00010000
00000100
00001000
00000100
00000010
00010000
,
00001000
00000100
00010000
00001000
00000100
00001000
00000010
00000100
,
00010010
00000000
00000000
00022220
00000000
00000000
00000000
00000000
,
00000000
00000000
00000000
00000000
00000000
00000000
00000000
00000000
00000000
00000000
00000000
00000000
00033330
00000000
00010000
00000010
,
00001100
00010000
00001010
00000100
00011000
00000100
00001010
00010000
,
00001100
00000110
00001100
00011000
00001100
00010010
00001100
00010010
,
00011000
00000000
00001000
00010000
00000110
00000000
00001000
00010000
00000110
00000000
00001000
00010000
00001010
00000000
00000100
00001000
,
00001001
00000000
00000000
00000100
00000001
00000100
00000101
00000000
00000000
00000011
00000000
00000000
00000110
00000000
00000000
00001100
00000000
00000000
00000101
00000000
00000000
00000011
00000000
00000000
,
00000202
00000000
00000303
00001100
00000202
00000000
00000303
00000101
,
00002002
00003003
00001110
00000111
00002102
00003003
00001001
00000101
,
00002200
00000000
00000000
00000000
00000000
00000000
00000001
00000000
00000000
00000000
00000000
00003300
00000011
00000000
00000000
00000000
00000110
00000000
00000000
00000000
00001000
00000000
00000000
00000000
00000100
00000000
00000000
00000000
00000010
00000000
00000000
00000000
,
00010010
00000000
00000000
00000000
00000000
00000000
00000110
00000000
00000000
00000000
00000000
00000000
00001100
00000000
00000000
00000000
00010010
00000000
00000000
00000000
00000000
00000000
00000000
00000000
00010000
00000010
00010000
00000010
00010000
00000010
00010000
00000000
,
00000110
00000000
00000010
00000100
00001000
00010000
00001000
00000100
00000010
00000100
00001000
00000010
,
00010010
00000000
00000100
00001000
00010000
00001000
00000100
00000010
00010000
00001000
00000100
00000010
,
00000100
00001000
00010000
00001000
00000100
00000010
00000100
00001000
00010000
00000100
00001000
00010000
,
00010000
00001000
00100000
00000100
00100000
00000100
00001000
00010000
00100000
00010000
00001000
00000100
,
00100000
00010000
00100000
00010000
00100000
00010000
00001000
00000100
00001000
00000100
00001000
00000100
,
00010000
00001000
00010000
00001000
00010000
00000100
00100000
00000100
00100000
00000100
00100000
00010000
,
00100000
00010000
00001000
00000100
00100000
00010000
00001000
00010000
00000100
00001000
00010000
00100000
,
00110000
00001000
00010000
00100000
01000000
00100000
00010000
00100000
00001000
00010000
00100000
01000000
,
00100000
00010000
00100000
00001000
00010000
00100000
01000000
00010000
00100000
00001000
00010000
00100000
,
01000000
00100000
00010000
00001000
00100000
01000000
00010000
00100000
00001000
00010000
00100000
00010000
,
02002000
00000000
00000000
00000000
00000000
00000000
00000000
00000000
00000000
03003000
00000000
00000000
01000000
00000000
00000000
00100000
00000000
00000000
00010000
00000000
00001000
00000000
00010000
00000000
,
01000000
00000000
10000000
00000000
01000000
00000000
00100000
00000000
01000000
00000000
00010000
00000000
10000000
00000000
00000000
01000000
00000000
00000000
00100000
00000000
00000000
10000000
00000000
00000000
,
01000000
00000000
00010000
00000000
01000000
00100000
01000000
00100000
01000000
00000000
10000000
00000000
00100000
00000000
01000000
00000000
,
00100000
00000000
01000000
00000000
10000000
01000000
10000000
01000000
10000000
00000000
01000000
00000000
00100000
00000000
01000000
00000000
,
00010000
00000000
00100000
00000000
01000000
10000000
01000000
10000000
01000000
00000000
00100000
00000000
01000000
00000000
00010000
00000000
,
00010000
00000000
00100000
00000000
01000000
00100000
01000000
00100000
01000000
00000000
00010000
00000000
00100000
00000000
01000000
00000000
,
00010000
00000000
00100000
00000000
00001000
00010000
00100000
01000000
00001000
00000000
00100000
00000000
00010000
00000000
01000000
00000000
,
00001000
00000000
00010000
00000000
01000000
00100000
00010000
00100000
00001000
00000000
01000000
00000000
00010000
00000000
00100000
00000000
,
00010000
00000000
00100000
00000000
00001000
00010000
00100000
00001000
00010000
00000000
00100000
00000000
01000000
00000000
00010000
00000000
,
00010000
00000000
00000100
00000000
00100000
00001000
00010000
00000100
00001000
00010000
00100000
00001000
00010000
00000100
00001000
00010000
,
00100000
00010000
00001000
00010000
00000100
00001000
00010000
00100000
00001000
00000000
00000100
00000000
00001000
00000000
00010000
00000000
,
00100000
00010000
00001000
00010000
00000100
00001000
00010000
00100000
00010000
00000000
00001000
00000000
00010000
00000000
00100000
00000000
,
00001000
00010000
00100000
00001000
00010000
00000100
00001000
00010000
00001000
00000000
00100000
00000000
00010000
00000000
00001000
00000000
,
00000010
00000100
00001000
00000100
00000010
00000100
00001000
00010000
00000010
00000000
00001000
00000000
00000100
00000000
00000010
00000000
,
00010000
00001000
00000100
00000010
00010000
00001000
00000100
00000010
00010000
00000000
00001000
00000000
00000100
00000000
00010000
00000000
,
00001000
00000100
00000010
00000100
00001000
00010000
00001000
00000100
00001000
00000000
00010000
00000000
00001000
00000000
00000100
00000000
,
00010000
00001000
00000100
00001000
00000100
00001000
00010000
00001000
00010000
00000000
00001000
00000000
00000100
00000000
00001000
00000000
,
00000001
00000000
00000010
00000000
00000100
00000000
00001000
00000000
00001001
00000000
00001001
00000000
00001000
00000010
00000100
00000001
,
00000010
00000100
00001000
00000010
00000100
00000001
00000010
00000000
00000110
00000000
00000000
00000000
00001000
00000000
00000000
00000000
,
00000101
00000001
00001100
00000010
,
00000101
00000010
00001100
00000101
,
00000110
00011000
00001100
00000110
,
00011000
00000000
00001010
00000000
00010100
00000220
00000000
00000330
,
00010100
00002200
00000000
00003300
00010010
00002200
00000000
00003300
,
00011000
00000220
00000000
00000330
00001000
00010000
00000100
00001000
,
00200200
00000000
00000000
00300300
00001000
00010000
00001000
00100000
,
00020200
00000000
00000000
00030300
00222200
00000000
00333300
00111000
,
00022200
00000000
00033300
00100000
00010000
00000000
00001000
00000100
,
00011000
00000000
00001000
00010000
00100000
00000000
00010000
00001000
,
01100000
00000000
00001000
00100000
00011000
00000000
01000000
00010000
,
00101000
00000000
00010000
01000000
00101000
00000000
00010000
00100000
,
01010000
00000000
00100000
00010000
00101000
00000000
01010000
00000000
,
00101000
01010000
00110000
00011000
,
01100000
00000000
00000000
00000000
00000000
00000000
00000000
00000000
00000000
00000000
00000000
00000000
00000000
00000000
00000000
00000000
11000000
00000000
00000000
00000000
00000000
00000000
00000000
00000000
00000000
00000000
00000000
00000000
00000000
00000000
00000000
00000000
01100000
00000000
00000000
00000000
00000000
00000000
00000000
00000000
00000000
00000000
00000000
00000000
00000000
00000000
00000000
00000000
22220000
33330000
00000000
00000000
00000000
00000000
00000000
00000000
00000000
00000000
00000000
00000000
00000000
00000000
00000000
00000000
,
01000000
00000000
00000000
00000000
00000000
00000000
00000000
00000000
00000000
00000000
00000000
00000000
00000000
00000000
00000000
00000000
00000000
10000000
00000000
00000000
00000000
00000000
00000000
00000000
00000000
00000000
00000000
00000000
00000000
00000000
00000000
00000000
,
00000000
00000000
00000000
00100000
00000000
00000000
00000000
00000000
00000000
00000000
00000000
00000000
00000000
00000000
00000000
00000000
00000000
00000000
00000000
00000000
00000000
00000000
00000000
00000000
00000000
00000000
00000000
00000000
00000000
00000000
00000000
00000000
,
00000000
00000000
00000000
00000000
00000000
00000000
10010000
00000000
00000000
00000000
00000000
00000000
00000000
00000000
00000000
00000000
00010000
00000000
00000000
00100000
00000000
00000000
10000000
00000000
00000000
01000000
00000000
00000000
00000000
00000000
00000000
00000000
,
00000000
00000000
00000000
00000000
00011000
00000000
00000000
00000000
00000000
00000000
01010000
00000000
00000000
00000000
00000000
00000000
00000000
00101000
00000000
00000000
00000000
00000000
00000000
00000000
00000000
00000000
00000000
00000000
00000000
00000000
00000000
00000000
;
