#TITLE:Stage Select(Megaman 8);
#SUBTITLE:;
#ARTIST:Capcom Sound Team;
#TITLETRANSLIT:;
#SUBTITLETRANSLIT:;
#ARTISTTRANSLIT:;
#CREDIT:Jason D. Gersztyn;
#BANNER:stage select-banner.jpg;
#BACKGROUND:Megaman 8 Bosses-bg.png;
#LYRICSPATH:;
#CDTITLE:PhoenixW-cdtitle.png;
#MUSIC:06 - Stage Select.mp3;
#OFFSET:-0.652;
#SAMPLESTART:12.652;
#SAMPLELENGTH:12.000;
#SELECTABLE:YES;
#BPMS:0.000=150.000;
#STOPS:;
#BGCHANGES:;
// cache tags:
#FIRSTBEAT:3.500;
#LASTBEAT:75.000;
#SONGFILENAME:Songs/toune 2/Stage Select(Megaman 8)/06 - Stage Select.sm;
#HASMUSIC:1;
#HASBANNER:1;
#MUSICLENGTH:33.933;
// end cache tags

//---------------dance-single - ----------------
#NOTES:
     dance-single:
     :
     Hard:
     7:
     0.648,0.553,0.678,0.000,0.118,131.000,23.000,0.000,0.000,0.000:
0000
0000
0000
0000
0000
0000
0000
1000
,
0100
0010
0001
1000
0010
1001
0000
0001
,
0010
0100
1000
0001
0100
0010
1000
0100
,
0001
0100
1000
0010
1000
0001
0100
0010
,
1000
0100
1000
0010
0100
1001
0000
0001
,
0010
0000
1000
0000
0010
0000
0001
0000
0100
0000
0010
0000
0110
0000
0000
1010
,
0000
0000
0101
0000
0110
0000
0000
1100
0000
0000
0011
0000
0000
1001
0000
0110
,
0000
1000
0100
1000
0001
0010
0001
1000
,
1000
0100
0010
0001
1000
0110
0000
1000
,
0100
0010
0001
1000
0010
1001
0000
0001
,
0010
0100
1000
0001
0100
0010
1000
0100
,
0001
0100
1000
0010
1000
0001
0100
0010
,
1000
0100
1000
0010
0100
1001
0000
0001
,
0010
0000
1000
0000
0010
0000
0001
0000
0100
0000
0010
0000
0110
0000
0000
1010
,
0000
0000
0101
0000
0110
0000
0000
1100
0000
0000
0011
0000
0000
1001
0000
0110
,
0000
1000
0100
1000
0001
0010
0001
1000
,
1000
0100
0010
0001
1000
0110
0000
1000
,
0100
0010
0001
1000
0010
1001
0000
1000
,
0010
0100
0001
0010
0100
1000
0001
0000
;
