#TITLE:Kiss F;
#SUBTITLE:;
#ARTIST:DJ Sharpnel;
#TITLETRANSLIT:;
#SUBTITLETRANSLIT:;
#ARTISTTRANSLIT:;
#CREDIT:;
#BANNER:kiss f bn.png;
#BACKGROUND:kiss f bg.png;
#LYRICSPATH:;
#CDTITLE:;
#MUSIC:Kiss F.ogg;
#OFFSET:-0.045;
#SAMPLESTART:150.214;
#SAMPLELENGTH:20.534;
#SELECTABLE:YES;
#DISPLAYBPM:187.000;
#BPMS:0.000=187.000,464.000=93.500,466.000=187.000,719.000=124.667,721.000=187.000;
#STOPS:;
#BGCHANGES:;
// cache tags:
#FIRSTBEAT:12.000;
#LASTBEAT:857.000;
#SONGFILENAME:Songs/SHARPNELSTREAMZ v2/Kiss F/Kiss F.sm;
#HASMUSIC:1;
#HASBANNER:1;
#MUSICLENGTH:276.375;
// end cache tags

//---------------dance-single - 14+ (TYLR)----------------
#NOTES:
     dance-single:
     14+ (TYLR):
     Challenge:
     14:
     1.000,1.000,0.119,0.981,1.000,1905.000,33.000,271.000,88.000,0.000:
0000
0000
0000
0000
,
0000
0000
0000
0000
,
0000
0000
0000
0000
,
1001
0001
0100
0000
0010
0100
0000
0100
,
0001
0001
1000
0000
0100
1000
0000
1000
,
0010
0010
0100
0000
0001
0100
0000
0100
,
0010
0010
1000
0000
0100
1000
0000
1000
,
0001
0001
0100
0000
0010
0100
0000
0100
,
0001
0001
1000
0000
0100
1000
0000
1000
,
0001
0001
0100
0000
0010
0100
0000
0100
,
0001
0001
1000
0000
0100
1000
0000
1000
,
1001
0001
0100
0000
0010
0100
0000
0100
,
0001
0001
1000
0000
0100
1000
0000
1000
,
0010
0010
0100
0000
0001
0100
0000
0100
,
0010
0010
1000
0000
0100
1000
0000
1000
,
0001
0001
0100
0000
0010
0100
0000
0100
,
0001
0001
0010
0000
0100
0010
0000
0010
,
0001
0001
1000
0000
0010
1000
0000
1000
,
0100
0000
0010
0001
0010
0000
0100
1000
0100
0000
1000
0001
0100
0000
0010
1000
,
010M
1000
0010
0100
0001
0000
0001
0000
,
1000
0100
1000
0010
0100
0000
0001
0000
,
1010
0101
1010
0101
,
1100
0000
0010
0001
1000
0000
0010
0000
,
0101
0000
1000
0010
0100
0001
0010
0100
,
1000
0010
1000
0100
0020
0000
0031
0000
,
1000
0010
0100
0001
1000
0000
1000
0000
,
0010
1000
0100
1000
0001
M000
0M00
000M
,
1000
0010
0100
0001
1000
0000
1000
0000
,
0001
0010
0100
1000
0001
0000
1000
0000
,
0110
1001
0110
1001
,
0101
0000
0010
1000
0001
0000
1000
0000
,
0110
0000
0001
1000
0100
1000
0010
0100
,
0001
0010
0001
0100
0020
0000
1030
0000
,
0010
0100
0001
1000
0100
0000
0100
0000
,
1000
0000
0001
0100
0001
0000
1000
0100
1000
0000
0010
0100
0001
0000
0010
0100
,
10M0
0001
0000
1000
0100
0000
0010
0000
0001
0000
1000
0000
0001
1000
0000
0001
,
0100
0010
0000
1000
0001
0000
0010
0000
0100
0000
1000
0000
0100
0010
0000
0100
,
1000
0001
0000
1000
0100
0000
1000
0000
0001
0000
1000
0000
0100
1000
0000
0001
,
0100
0001
0000
0100
0010
0000
1000
0000
0001
0000
1000
0000
0010
0100
0000
0010
,
1000
0001
0000
1000
0100
0000
0010
0000
0001
0000
0010
0000
0001
1000
0000
0001
,
0100
0010
0000
1000
0001
0000
1000
0000
0010
0000
0100
0000
0001
1000
0000
0001
,
0020
0130
0020
0130
2000
3002
0203
0320
,
2030
3200
2300
3020
0230
0301
0010
0100
,
10M0
0001
0000
1000
0010
0000
0100
0000
0001
0000
1000
0000
0001
1000
0000
0001
,
0010
0100
0000
1000
0001
0000
0100
0000
0010
0000
1000
0000
0010
0100
0000
0010
,
1000
0001
0000
1000
0010
0000
1000
0000
0001
0000
1000
0000
0010
1000
0000
0001
,
0010
0001
0000
0010
0100
0000
1000
0000
0001
0000
1000
0000
0100
0010
0000
0100
,
1000
0001
0000
1000
0010
0000
0100
0000
0001
0000
0100
0000
0001
1000
0000
0001
,
0010
0100
0000
1000
0001
0000
1000
0000
0100
0000
0010
0000
0001
1000
0000
0001
,
0200
0310
0200
0310
2000
3002
0023
0230
,
2300
3020
2030
3200
0320
0031
0100
0010
,
1M00
0001
0000
1000
0100
0000
0010
0000
0001
0000
1000
0000
0001
1000
0000
0001
,
0100
0010
0000
1000
0001
0000
0010
0000
0100
0000
1000
0000
0100
0010
0000
0100
,
1000
0001
0000
1000
0100
0000
1000
0000
0001
0000
1000
0000
0100
1000
0000
0001
,
0100
0001
0000
0100
0010
0000
1000
0000
0001
0000
1000
0000
0010
0100
0000
0010
,
1000
0001
0000
1000
0100
0000
0010
0000
0001
0000
0010
0000
0001
1000
0000
0001
,
0100
0010
0000
1000
0001
0000
1000
0000
0010
0000
0100
0000
0001
1000
0000
0001
,
0020
0130
0020
0130
2000
3002
0203
0320
,
2030
3200
2300
3020
0230
0301
0010
0100
,
10M0
0001
0000
1000
0010
0000
0100
0000
0001
0000
1000
0000
0001
1000
0000
0001
,
0010
0100
0000
1000
0001
0000
0100
0000
0010
0000
1000
0000
0010
0100
0000
0010
,
1000
0001
0000
1000
0010
0000
1000
0000
0001
0000
1000
0000
0010
1000
0000
0001
,
0010
0001
0000
0010
0100
0000
1000
0000
0001
0000
1000
0000
0100
0010
0000
0100
,
1000
0001
0000
1000
0010
0000
0100
0000
0001
0000
0100
0000
0001
1000
0000
0001
,
0010
0100
0000
1000
0001
0000
1000
0000
0100
0000
0010
0000
0001
1000
0000
0001
,
1000
0100
0010
0100
1000
0100
0010
0100
1000
0001
0010
0001
1000
0010
0100
0010
,
1000
0100
0010
0001
0100
0010
1000
0100
0010
0100
1000
0010
0100
0001
0010
0100
,
200M
3000
0000
0000
,
2002
0000
0000
0000
,
0000
0000
0000
0000
0000
0000
0000
0003
,
0020
0000
0000
0000
,
0000
0000
0000
0000
0000
0000
0000
3000
,
0200
0000
0000
0000
,
0000
0000
0000
0000
0000
0000
0000
0030
,
0002
0000
0000
0000
,
0000
0000
0000
0000
0000
0000
0000
0300
,
2000
0000
0000
0000
,
0000
0000
0000
0000
0000
0000
0000
0003
,
0020
0000
0000
0000
,
0000
0000
0000
0000
0000
0000
0000
3000
,
0200
0000
0000
0000
,
0000
0000
0000
0000
0000
0000
0000
0030
,
0002
0000
0000
0000
,
0000
0000
0000
0000
0000
0000
0000
0000
0000
0000
0000
0000
0000
0000
0300
0003
,
10M1
0000
0000
0M00
1000
0000
010M
0000
0000
M000
0100
0000
001M
0000
0001
0M00
,
0000
0000
00M1
0000
1000
0M00
0000
0000
001M
0000
0000
M000
0100
0000
000M
0000
,
0100
M000
0000
0000
010M
0000
0001
00M0
0000
0000
M001
0000
0010
000M
0100
0000
,
0000
M000
0100
0000
1000
0000
0000
0000
0001
0000
0000
0000
0100
0000
0000
0000
,
0100
0000
0100
0010
0000
0010
1000
0100
,
0000
0100
0010
0000
0001
0000
1000
0000
,
1000
0000
1000
0010
0000
0010
0100
0001
,
0000
0001
0010
0000
0100
0000
1000
0000
,
10M1
0000
0000
0M00
1000
0000
001M
0000
0000
0M00
0010
0000
M100
0000
0001
00M0
,
0000
0000
M001
0000
1000
0M00
0000
0000
010M
0000
0000
M000
0010
0000
000M
0000
,
0010
M000
0000
0000
001M
0000
0001
0M00
0000
0000
M001
0000
0100
000M
0010
0000
,
M000
0010
1000
0000
0001
0000
0010
0000
,
0010
0000
0010
0100
0000
0100
1000
0001
,
0000
0001
0100
0000
0010
0000
1000
0000
,
1000
0100
1000
0001
0010
0001
1000
0010
0100
0001
1000
0100
1000
0010
0100
0001
,
1000
0100
0010
0001
0100
0010
1000
0100
0010
0001
1000
0010
0100
0001
0010
0100
,
200M
3000
0000
0000
0000
0000
0M00
0000
2000
3000
0000
0000
020M
0300
0000
0000
0M00
0000
0000
0000
020M
0300
0000
0000
0020
0030
M000
0000
0002
0003
0000
0000
,
000M
0000
0000
0000
0002
0003
0M00
0000
2000
3000
0000
0000
00M0
0000
0000
0000
0200
0300
000M
0000
0000
0000
0000
0000
20M0
3000
0000
0000
M000
0000
0000
0000
,
200M
3000
0000
0000
M000
0000
0000
0000
200M
3000
0000
0000
0020
0030
0000
0000
00M0
0000
0000
0000
0020
0030
0000
0000
M200
0300
0000
0000
0002
0003
00M0
0000
,
0000
0000
0000
0000
0002
0003
0M00
0000
2000
3000
0000
0000
0001
0000
0000
0000
0020
0030
0000
0000
0001
0000
0000
0000
2000
3000
0000
0000
0001
0000
0000
0000
,
2000
3000
0000
0000
0000
0000
0000
0000
2000
3000
0000
0000
0200
0300
0000
0000
0000
0000
0000
0000
0200
0300
0000
0000
0020
0030
0000
0000
0002
0003
0000
0000
,
0000
0000
0000
0000
0002
0003
0000
0000
2000
3000
0000
0000
0001
0000
0000
0000
0200
0300
0000
0000
0001
0000
0000
0000
2000
3000
0000
0000
0001
0000
0000
0000
,
2000
3000
0000
0000
0000
0000
0000
0000
2000
3000
0000
0000
0000
0000
0000
0000
0200
0300
0000
0000
0000
0000
0000
0000
0020
0030
0000
0000
0002
0003
0000
0000
,
0000
0000
0000
0000
0002
0003
0000
0000
2000
3000
0000
0000
0001
0000
0000
0000
0200
0300
0000
0000
0001
0000
0000
0000
2000
3000
0000
0000
0000
0000
0000
0000
,
2002
0003
0000
0000
0000
0000
00M0
0000
3002
0003
0000
0000
M020
0030
0000
0000
00M0
0000
0000
0000
M020
0030
0000
0000
0200
0300
000M
0000
2000
3000
0000
0000
,
M000
0000
0000
0000
2000
3000
00M0
0000
0002
0003
0000
0000
0M00
0000
0000
0000
0020
0030
M000
0000
0000
0000
0000
0000
0M02
0003
0000
0000
000M
0000
0000
0000
,
M002
0003
0000
0000
000M
0000
0000
0000
M002
0003
0000
0000
0200
0300
0000
0000
0M00
0000
0000
0000
0200
0300
0000
0000
002M
0030
0000
0000
2000
3000
0M00
0000
,
0000
0000
0000
0000
2000
3000
00M0
0000
0002
0003
0000
0000
1000
0000
0000
0000
0200
0300
0000
0000
1000
0000
0000
0000
0002
0003
0000
0000
1000
0000
0000
0000
,
0002
0003
0000
0000
0000
0000
0000
0000
0002
0003
0000
0000
0020
0030
0000
0000
0000
0000
0000
0000
0020
0030
0000
0000
0200
0300
0000
0000
2000
3000
0000
0000
,
0000
0000
0000
0000
2000
3000
0000
0000
0002
0003
0000
0000
1000
0000
0000
0000
0020
0030
0000
0000
1000
0000
0000
0000
0002
0003
0000
0000
1000
0000
0000
0000
,
0002
0003
1000
0000
0010
0000
1000
0000
0002
0003
1000
0000
0010
0000
1000
0000
0200
0300
1000
0000
0001
0000
1000
0000
0200
0300
0010
0000
0002
0003
1000
0000
,
0001
0100
0001
0010
0100
1000
0010
0100
0001
0100
0010
1000
0100
0010
0001
1000
,
0010
0000
0000
0000
0000
0000
0000
0000
100M
0100
0010
0001
1000
0100
0010
0001
,
1000
0100
0010
0001
1000
0010
0100
0001
0010
0100
0010
0100
1000
0100
1000
0100
,
1000
0001
1000
0001
0100
0001
0100
0001
1000
0010
0100
0001
1000
0001
1000
0001
,
0010
0100
1000
0001
0010
0100
1000
0100
0010
0001
1000
0001
1000
0001
0010
0100
,
1000
0001
0100
0001
1000
0100
1000
0001
1000
0010
0100
0001
1000
0010
0100
0001
,
1000
0010
0100
0001
1000
0100
0010
0001
0100
0001
0100
0001
1000
0001
1000
0001
,
0100
0001
0100
0001
0010
0001
0010
0001
1000
0010
0100
0001
1000
0001
0100
0010
,
0100
0001
0010
0100
1000
0001
0010
0001
1000
0010
0100
0001
0100
0001
0100
0010
,
2000
3000
0200
0300
0020
0030
0002
0003
2000
3000
0200
0300
0020
0030
0002
0003
1000
0000
0010
0000
0100
0000
0001
0000
1000
0000
0010
0000
0100
0000
0001
0000
,
1000
0010
0100
0001
1000
0100
0010
0001
0100
0010
0100
0010
1000
0010
1000
0010
,
1000
0001
1000
0001
0010
0001
0010
0001
1000
0100
0010
0001
1000
0001
1000
0001
,
0100
0010
1000
0001
0100
0010
1000
0010
0100
0001
1000
0001
1000
0001
0100
0010
,
1000
0001
0010
0001
1000
0010
1000
0001
1000
0100
0010
0001
1000
0100
0010
0001
,
1000
0100
0010
0001
1000
0010
0100
0001
0010
0001
0010
0001
1000
0001
1000
0001
,
0010
0001
0010
0001
0100
0001
0100
0001
1000
0100
0010
0001
1000
0001
0010
0100
,
0010
0001
0100
0010
1000
0001
0100
0001
1000
0100
0010
0100
0010
0100
1000
0001
,
2000
3000
0200
0300
0020
0030
0002
0003
2000
3000
0200
0300
0020
0030
0002
0003
1000
0000
0001
0000
0100
0000
0010
0000
1000
0000
0001
0000
0100
0000
0010
0000
,
1000
0001
0100
0010
1000
0001
1000
0001
0010
0100
0010
0001
1000
0001
1000
0010
,
0100
0001
0100
0010
1000
0001
1000
0100
0010
0100
1000
0001
0100
0001
0100
0010
,
1000
0001
0100
0001
1000
0001
0100
0010
1000
0100
0010
0001
1000
0001
1000
0010
,
0100
0001
1000
0001
0100
0001
1000
0001
0010
0100
1000
0001
0010
0100
1000
0001
,
0100
0010
1000
0001
0100
0010
1000
0001
1000
0100
0010
0001
1000
0100
0010
0001
,
1000
0001
0010
0100
1000
0001
0010
0100
1000
0001
0100
0010
1000
0001
0100
0010
,
1000
0001
0100
0010
1000
0001
0100
0010
1000
0001
0010
0100
1000
0001
0010
0100
,
1000
0010
0100
0001
1000
0010
0100
0001
0010
0100
1000
0001
0010
0100
1000
0001
,
0100
0001
1000
0001
0010
0100
1000
0001
0010
0001
0010
0100
1000
0100
1000
0100
,
1000
0001
1000
0001
0100
0001
0100
0001
1000
0010
0100
0001
1000
0001
1000
0001
,
0010
0100
1000
0001
0010
0100
1000
0001
1000
0010
0100
0001
1000
0001
1000
0001
,
0010
0100
1000
0001
0010
0100
1000
0001
1000
0010
0100
0001
1000
0010
0100
0001
,
1000
0001
0100
0010
1000
0100
0010
0001
1000
0001
0010
0100
1000
0001
0100
0010
,
1000
0010
0100
0001
1000
0001
0100
0010
1000
0000
0001
0000
0010
0000
0000
0000
,
0100
1000
0000
0001
0000
0001
0100
0000
,
0010
0000
0000
0000
0000
0000
0000
0000
0000
0000
0000
0000
0000
0000
0000
0000
0000
0000
0000
0000
0000
0000
0000
0000
0010
0000
0000
0000
0000
0000
0000
0000
0000
0000
0000
0000
0000
0000
0000
0000
0000
0000
0000
0000
0000
0000
0000
0000
0000
0000
0000
0000
0000
0000
0000
0000
0000
0000
0000
0000
0000
0000
0000
0000
0000
0000
0000
0000
0000
0000
0000
0000
1000
0000
0000
0000
0000
0000
0000
0000
0000
0000
0000
0000
0000
0000
0000
0000
0000
0000
0000
0000
0000
0000
0000
0000
0002
0000
0000
0000
0000
0000
0003
0000
0000
0000
0000
0000
0020
0000
0000
0000
0000
0000
0030
0000
0000
0000
0000
0000
0200
0000
0000
0000
0000
0000
0300
0000
0000
0000
0000
0000
2000
0000
0000
0000
0000
0000
3000
0000
0000
0000
0000
0000
0002
0000
0000
0000
0003
0000
0000
0000
0000
0000
0000
0000
0020
0000
0000
0000
0030
0000
0000
0000
0000
0000
0000
0000
0200
0000
0000
0000
0300
0000
0000
0000
0000
0000
0000
0000
2000
0000
0000
0000
3000
0000
0000
0000
0000
0000
0000
0000
,
0002
0000
0000
0000
0003
0000
0000
0000
0000
0000
0000
0000
0020
0000
0000
0000
0030
0000
0000
0000
0000
0000
0000
0000
0200
0000
0000
0000
0300
0000
0000
0000
0000
0000
0000
0000
2000
0000
0000
0000
3000
0000
0000
0000
0000
0000
0000
0000
0002
0000
0000
0003
0000
0000
0000
0000
0000
0000
0000
0000
0020
0000
0000
0030
0000
0000
0000
0000
0000
0000
0000
0000
0200
0000
0000
0300
0000
0000
0000
0000
0000
0000
0000
0000
2000
0000
0000
3000
0000
0000
0000
0000
0000
0000
0000
0000
0002
0000
0003
0000
0000
0000
0000
0000
0000
0000
0000
0000
0200
0000
0300
0000
0000
0000
0000
0000
0000
0000
0000
0000
0020
0000
0030
0000
0000
0000
0000
0000
0000
0000
0000
0000
2000
0000
3000
0000
0000
0000
0000
0000
0000
0000
0000
0000
0002
0000
0003
0000
0000
0000
0000
0000
0000
0000
0000
0000
2000
0000
3000
0000
0000
0000
0000
0000
0000
0000
0000
0000
0020
0000
0030
0000
0000
0000
0000
0000
0000
0000
0000
0000
0200
0000
0300
0000
0000
0000
0000
0000
0000
0000
0000
0000
,
0002
0000
0003
0000
0000
0000
0000
0000
0000
0000
0000
0000
0200
0000
0300
0000
0000
0000
0000
0000
0000
0000
0000
0000
0020
0000
0030
0000
0000
0000
0000
0000
0000
0000
0000
0000
2000
0000
3000
0000
0000
0000
0000
0000
0000
0000
0000
0000
0002
0000
0003
0000
0000
0000
0000
0000
0000
0000
0000
0000
2000
0000
3000
0000
0000
0000
0000
0000
0000
0000
0000
0000
0002
0000
0003
0000
0000
0000
0000
0000
0000
0000
0000
0000
0020
0000
0030
0000
0000
0000
0000
0000
0000
0000
0000
0000
0200
0000
0000
0000
0000
0000
0300
0000
0000
0000
0000
0000
1000
0000
0000
0000
0000
0000
0000
0000
0000
0000
0000
0000
0100
0000
0000
0000
0000
0000
0000
0000
0000
0000
0000
0000
0000
0000
0000
0000
0000
0000
0000
0000
0000
0000
0000
0000
0020
0000
0000
0000
0000
0000
0030
0000
0000
0000
0000
0000
0001
0000
0000
0000
0000
0000
0000
0000
0000
0000
0000
0000
0010
0000
0000
0000
0000
0000
0000
0000
0000
0000
0000
0000
0000
0000
0000
0000
0000
0000
0000
0000
0000
0000
0000
0000
,
0002
0003
0100
0000
0001
0000
0000
0000
0020
0030
0100
0000
0010
0000
0000
0000
0002
0003
1000
0000
0001
0000
0000
0000
0020
0030
0001
0000
0010
0000
0000
0000
,
0100
0000
1000
0000
0001
1000
0000
1000
0100
0010
0000
0100
1000
0000
0001
0000
,
0100
0000
0001
0000
1000
0010
0000
1000
0001
1000
0000
0001
0010
0000
0001
0000
,
0100
0000
0010
0000
1000
0010
0000
1000
0001
0010
0000
0001
1000
0000
0001
0000
,
0100
0000
0010
0000
1000
0001
0000
1000
0100
0010
0000
0100
1000
0000
0001
0000
,
0010
0000
0000
0000
0001
0000
0000
0000
1000
0000
0001
0000
0000
0000
0001
0000
2000
3000
0020
0030
0200
0300
0002
0003
2000
3000
0020
0030
0200
0300
0002
0003
,
2000
0000
0000
0000
0000
3000
0000
0000
0000
0000
0000
0000
0020
0000
0000
0000
0000
0030
0000
0000
0000
0000
0000
0000
0200
0000
0000
0000
0000
0300
0000
0000
0000
0000
0000
0000
0002
0000
0000
0000
0000
0003
0000
0000
0000
0000
0000
0000
2000
0000
0000
0000
3000
0000
0000
0000
0000
0000
0000
0000
0020
0000
0000
0000
0030
0000
0000
0000
0000
0000
0000
0000
0200
0000
0000
0000
0300
0000
0000
0000
0000
0000
0000
0000
0002
0000
0000
0000
0003
0000
0000
0000
0000
0000
0000
0000
2000
0000
0000
3000
0000
0000
0000
0000
0000
0000
0000
0000
0200
0000
0000
0300
0000
0000
0000
0000
0000
0000
0000
0000
0020
0000
0000
0030
0000
0000
0000
0000
0000
0000
0000
0000
0002
0000
0000
0003
0000
0000
0000
0000
0000
0000
0000
0000
2000
0000
3000
0000
0000
0000
0000
0000
0000
0000
0000
0000
0002
0000
0003
0000
0000
0000
0000
0000
0000
0000
0000
0000
0020
0000
0030
0000
0000
0000
0000
0000
0000
0000
0000
0000
0200
0000
0300
0000
0000
0000
0000
0000
0000
0000
0000
0000
,
2000
0000
3000
0000
0000
0000
0000
0000
0000
0000
0000
0000
0200
0000
0300
0000
0000
0000
0000
0000
0000
0000
0000
0000
0020
0000
0030
0000
0000
0000
0000
0000
0000
0000
0000
0000
0002
0000
0003
0000
0000
0000
0000
0000
0000
0000
0000
0000
2000
0000
3000
0000
0000
0000
0000
0000
0000
0000
0000
0000
0002
0000
0003
0000
0000
0000
0000
0000
0000
0000
0000
0000
2000
0000
3000
0000
0000
0000
0000
0000
0000
0000
0000
0000
0020
0000
0030
0000
0000
0000
0000
0000
0000
0000
0000
0000
0200
0000
0000
0000
0000
0000
0300
0000
0000
0000
0000
0000
0001
0000
0000
0000
0000
0000
0000
0000
0000
0000
0000
0000
0100
0000
0000
0000
0000
0000
0000
0000
0000
0000
0000
0000
0000
0000
0000
0000
0000
0000
0000
0000
0000
0000
0000
0000
0020
0000
0000
0000
0000
0000
0030
0000
0000
0000
0000
0000
1000
0000
0000
0000
0000
0000
0000
0000
0000
0000
0000
0000
0010
0000
0000
0000
0000
0000
0000
0000
0000
0000
0000
0000
0000
0000
0000
0000
0000
0000
0000
0000
0000
0000
0000
0000
,
2000
3000
0100
0000
1000
0000
0000
0000
0020
0030
0100
0000
0010
0000
0000
0000
2000
3000
0001
0000
1000
0000
0000
0000
0020
0030
1000
0000
0010
0000
0000
0000
,
0200
0300
0001
0000
0100
0000
0000
0000
0010
0000
1000
0000
0000
0000
1000
0000
0002
0003
0000
0000
0010
0000
0000
0000
0002
0003
0000
0000
2000
3000
0000
0000
,
0100
0000
0000
0000
2000
3000
0000
0000
0020
0030
0000
0000
0200
0300
0000
0000
0001
0000
0000
0000
0200
0300
0000
0000
0020
0030
0000
0000
1000
0000
0000
0000
,
0002
0003
0000
0000
1000
0000
0000
0000
0020
0030
0000
0000
0100
0000
0000
0000
0001
0000
0010
0000
0100
0000
1000
0000
0001
0000
1000
0000
0001
0000
0100
0000
,
0010
1000
0001
1000
0010
0100
0001
1000
0001
0100
0010
1000
0001
1000
0010
0100
,
0001
0010
0100
1000
0010
0100
0001
1000
0100
0010
0001
1000
0100
0010
0001
1000
,
0100
0010
0001
1000
0010
0100
0001
1000
0100
0010
0100
1000
0001
1000
0001
0100
,
0010
1000
0010
0100
0001
1000
0001
0010
0100
0010
0001
1000
0010
1000
0010
0100
,
0001
1000
0010
1000
0001
1000
0010
0100
0001
0010
0100
1000
0001
1000
0001
0100
,
0010
1000
0001
1000
0010
1000
0001
1000
0100
0010
0001
1000
0100
0010
0001
1000
,
0010
0100
0001
1000
0010
0100
0001
1000
0001
0010
0100
1000
0001
0010
0100
1000
,
0001
1000
0100
0010
0001
1000
0100
0010
0001
1000
0010
0100
0001
1000
0010
0100
,
0001
1000
0010
0100
0001
1000
0010
0100
0001
1000
0100
0010
0001
1000
0100
0010
,
0001
0100
0010
1000
0001
0100
0010
1000
0100
0010
0001
1000
0100
0010
0001
1000
,
0010
1000
0001
0010
0100
1000
0100
0010
0001
1000
0001
1000
0001
0100
0001
0100
,
0010
1000
0010
1000
0100
1000
0100
1000
0001
0100
0010
1000
0001
1000
0001
1000
,
0100
0010
0001
1000
0100
0010
0001
1000
0001
0100
0010
1000
0001
1000
0001
1000
,
0100
0010
0001
1000
0100
0010
0001
1000
0001
0000
0100
0000
0001
0000
1000
0000
,
0100
1000
0010
0100
0001
0100
0010
1000
,
0100
0000
0010
0000
0001
0000
0100
0000
0001
1000
0010
0100
0001
0010
0100
1000
,
0010
1000
0100
0010
0001
0100
0010
1000
0200
0000
0000
0000
0300
0000
0000
0000
,
0000
0000
1001
1000
0100
0010
0001
1000
,
0001
1000
0000
0001
0100
0010
0000
1000
0001
0000
0010
0000
0100
0000
1000
0000
,
0100
0010
0000
0100
1000
0001
0000
1000
0100
0000
1000
0000
0001
0000
1000
0000
,
0100
1000
0000
0001
0100
0001
0000
0100
0010
0000
1000
0000
0001
0000
1000
0000
,
0010
0100
0000
0010
1000
0001
0000
1000
0100
0000
0010
0000
0001
0000
0010
0000
,
0001
1000
0000
0001
0100
0010
0000
1000
0001
0000
1000
0000
0010
0000
0100
0000
,
0001
1000
0000
0001
0020
0000
0130
0000
0020
0000
0130
0000
2000
0000
3002
0000
,
0203
0320
2030
3200
2300
3020
0230
0301
,
0010
0000
0100
0000
10M0
0001
0000
1000
0010
0000
0100
0000
0001
0000
1000
0000
,
0001
1000
0000
0001
0010
0100
0000
1000
0001
0000
0100
0000
0010
0000
1000
0000
,
0010
0100
0000
0010
1000
0001
0000
1000
0010
0000
1000
0000
0001
0000
1000
0000
,
0010
1000
0000
0001
0010
0001
0000
0010
0100
0000
1000
0000
0001
0000
1000
0000
,
0100
0010
0000
0100
1000
0001
0000
1000
0010
0000
0100
0000
0001
0000
0100
0000
,
0001
1000
0000
0001
0010
0100
0000
1000
0001
0000
1000
0000
0100
0000
0010
0000
,
0001
1000
0000
0001
0020
0000
0130
0000
0020
0000
0130
0000
2000
0000
3002
0000
,
0203
0320
2030
3200
2300
3020
0230
0301
,
0010
0100
100M
0010
0100
0001
1000
0000
,
1000
0000
0001
0010
0001
0100
0010
0000
,
1000
0101
1010
0101
,
1010
0000
0011
0000
0100
1000
0001
0000
,
0100
0000
1010
0000
0001
0100
0010
1000
,
0100
0010
0001
0100
0001
0010
0200
0000
,
1300
0000
0002
0103
0002
0103
0020
2030
,
3020
0230
0302
0023
0230
2300
3002
0M03
,
00M0
M000
10M1
1000
0010
0100
0001
0000
,
0001
0000
1000
0100
0010
0001
1000
0000
,
0001
0110
1001
0110
,
1001
0000
1010
0000
0100
0001
1000
0000
,
0001
0000
0110
0000
1000
0001
0010
0001
,
0100
0010
1000
0100
1000
0010
0200
0000
,
0301
0000
0000
0000
1M02
0000
0000
0003
0002
0000
0023
0000
0230
0000
2300
0000
,
3200
0320
0032
0203
0302
0023
0230
0000
,
0000
0000
0000
0000
,
0000
0000
0000
0000
,
0000
0300
0000
0000
;
