#TITLE:Dragon Blade;
#SUBTITLE:;
#ARTIST:Kozo Nakamura;
#TITLETRANSLIT:;
#SUBTITLETRANSLIT:;
#ARTISTTRANSLIT:;
#CREDIT:Xenol;
#BANNER:dragon blade banner.png;
#BACKGROUND:dragon blade.png;
#LYRICSPATH:;
#CDTITLE:!ichiTitle.png;
#MUSIC:Dragon Blade.wav;
#OFFSET:-0.040;
#SAMPLESTART:18.260;
#SAMPLELENGTH:12.000;
#SELECTABLE:YES;
#BPMS:0.000=240.000;
#STOPS:;
#BGCHANGES:;
// cache tags:
#FIRSTBEAT:1.000;
#LASTBEAT:463.000;
#SONGFILENAME:Songs/dragon/6+/dragon blade.sm;
#HASMUSIC:1;
#HASBANNER:1;
#MUSICLENGTH:119.554;
// end cache tags

//---------------dance-single - Hard----------------
#NOTES:
     dance-single:
     Hard:
     Hard:
     9:
     0.877,0.968,0.485,0.410,0.033,627.000,58.000,49.000,0.000,0.000:
0000
0000
1000
0001
1000
0001
0000
0000
,
0001
1000
0000
0000
0010
0100
0010
0100
,
0000
0000
0100
0010
1000
0001
0000
0000
,
0001
1000
0000
0000
0001
0010
0001
0010
,
0000
0000
1000
0001
1000
0001
0000
0000
,
0001
1000
0000
0000
0010
0100
0010
0100
,
0000
0000
0010
0100
0001
1000
0000
0000
,
1000
0001
0000
0000
0001
0010
0100
1000
,
0100
0010
0001
0000
1000
0000
1000
0000
,
0001
0001
0010
0010
,
0100
0100
0010
0010
,
1000
0100
0010
0001
,
0002
0000
1003
0100
,
1000
0100
0010
0001
,
0100
0001
0100
0001
,
0100
1000
0010
1000
,
0010
0000
1001
0000
1001
0000
1000
0001
,
0000
0000
1000
0001
1000
0000
0001
1000
,
0000
0000
1000
0100
1000
0100
0010
0100
,
0010
0100
0001
0100
0001
0100
0010
0001
,
0000
1000
0010
1000
0010
1000
0010
1000
,
0100
0010
0100
0010
0100
0010
0200
0000
,
0000
0000
1300
0001
0100
0010
0100
0001
,
1000
0010
0100
0001
1000
0010
0100
0001
,
1000
0100
0000
1001
0000
1001
0000
1001
,
0000
0001
0010
0100
1000
0000
0100
0010
,
0001
0010
0100
1000
0100
1000
0100
1000
,
0100
0010
0001
0010
0001
0010
0001
0010
,
0000
0010
0100
0010
1000
0010
1000
0010
,
1000
0010
1000
0010
0100
0010
0200
0000
,
0000
0000
0301
0010
0001
0010
0100
0010
,
1000
0200
0000
0000
0301
0010
0001
0020
,
0000
0030
2000
0000
0000
0000
3002
0000
,
0000
2003
0000
3002
,
0003
0000
0220
0000
0330
0000
1000
0001
,
1000
0001
0000
0000
0010
0100
0010
0100
,
0010
0100
0020
0000
0000
0230
0000
0000
,
2300
0000
0000
0000
3001
0010
0100
1000
,
0100
0000
0020
0000
1030
0100
0010
0001
,
0010
0100
2000
0000
3001
0010
0100
1000
,
0100
0010
0002
0000
1003
0100
0010
0001
,
0010
0100
2000
0000
3001
0010
0100
1000
,
0100
0010
0002
0000
0000
0000
0013
0100
,
0010
0100
0000
0010
0000
0001
0000
0010
,
0000
1000
0200
0000
0000
0000
0300
0000
,
0100
0010
0200
0000
0000
0000
0000
0000
,
0300
0000
1000
0000
0001
0010
0100
0000
,
1000
0100
0010
0000
0001
0010
0100
0000
,
1000
0100
0100
0010
0000
0001
1000
0000
,
1000
0100
0000
0001
0010
0000
1000
0100
,
0010
0001
1001
1001
0000
0110
0110
0000
,
0011
0011
0000
0000
0100
1000
0100
1000
,
0100
0000
1001
1001
0000
0001
0010
0100
,
1000
0100
1000
0100
1000
0100
0011
0011
,
0000
0000
0110
0110
0000
1000
0100
1000
,
0100
0010
1001
0000
1001
0000
1001
0200
,
0000
0300
0101
0101
0000
0000
1010
1010
,
0000
0000
0110
0110
0000
0000
1001
1001
,
0000
1001
0101
0101
,
1001
1010
1100
0110
,
0101
0000
1000
0100
1000
0100
1000
0100
,
1010
0001
0010
0001
0010
0001
0100
0001
,
1100
0001
0100
0010
1000
0010
1000
0010
,
0101
0010
0001
0010
0001
0010
0100
1000
,
1001
0100
0010
0100
0010
0100
0010
0100
,
0110
1000
0001
1000
0001
1000
0001
1000
,
0011
1000
0100
1000
0100
1000
0100
1000
,
0110
0010
0100
0001
0010
0100
1000
0100
,
0011
0100
2000
0000
0000
0000
0000
0000
,
3000
0000
0100
1000
0001
0020
0000
1030
,
0200
0302
0000
0000
,
0003
0000
0200
0000
0000
0320
0000
0000
,
2030
0002
0000
0000
,
3003
0000
0200
0000
0000
0302
0000
0000
,
0023
2030
0000
0000
,
0000
0002
0000
0000
,
3003
0011
0012
0000
,
0000
0000
0000
0000
,
0003
0000
1001
0000
0000
1001
0000
0000
,
1001
0000
0000
0000
0010
0100
1001
0000
,
0000
0000
0001
0010
0001
0010
0001
0010
,
0001
0010
1000
0010
0100
0010
0100
0010
,
0000
1000
0100
1000
0100
1000
0001
0010
,
0001
0010
0001
0010
0001
0010
2000
0000
,
0000
0000
3001
0100
0001
0010
0100
0001
,
1000
0010
0100
0001
1000
0100
0001
0010
,
0100
0010
0000
0011
0000
0110
0000
1100
,
0000
1000
0100
0010
0001
0010
0100
2000
,
0000
0000
3010
0001
0010
0001
0010
0001
,
0010
0100
0010
0100
0010
0100
0010
0100
,
0000
0100
1000
0100
1000
0100
1000
0100
,
0010
0001
0010
0001
0010
0001
0020
0000
,
0000
0000
0130
0001
1000
0010
0100
0001
,
1000
0200
0000
0000
0310
1000
0010
0001
,
0010
0100
0020
0000
0000
0000
0230
0000
,
0000
0000
0000
0301
0000
0010
0000
0001
0000
0010
0000
0100
,
0000
0010
0000
0100
0000
1000
0000
0100
0000
0010
0000
0100
,
0000
0020
0000
0000
0000
0000
0000
0000
0000
0000
0000
0000
,
0030
0000
2000
0000
0000
0000
3001
0010
,
0001
0010
0001
0100
0010
0100
0010
1000
,
0100
1000
0100
1000
0100
0010
0100
0010
,
0001
0010
0001
0010
1000
0001
1000
0001
,
0010
1000
0020
0000
0000
0000
1030
0100
,
1000
0100
0010
0000
0001
0001
0000
0100
,
0010
0100
1000
0001
1000
0100
0010
0001
,
1000
0100
0011
0000
0000
0110
0000
0000
,
1100
0000
0002
0000
0000
0000
1003
0100
,
1000
0000
0010
0001
0010
0000
0010
0100
,
1000
0100
1000
0100
0010
0001
0010
0001
,
0010
0100
1000
0100
0010
0100
0010
0100
,
0010
0100
2000
0000
0000
0000
0000
0000
,
3100
0010
0100
0000
0100
0010
0000
1000
,
0100
0010
0001
0010
0001
0010
0100
0010
,
0100
1000
0100
1000
0100
0010
0100
0010
,
0001
0010
0001
0010
1000
0001
1000
0001
,
1000
0001
2002
0000
0000
0000
3003
0000
;

//---------------dance-single - medium----------------
#NOTES:
     dance-single:
     medium:
     Medium:
     8:
     0.662,0.775,0.318,0.217,0.033,490.000,38.000,26.000,0.000,0.000:
0000
0000
1000
0001
1000
0001
0000
0000
,
0001
1000
0000
0000
0001
1000
0001
1000
,
0000
0000
1000
0001
1000
0001
0000
0000
,
0001
1000
0000
0000
1000
0001
1000
0001
,
0000
0000
0010
0100
0010
0100
0000
0000
,
0010
0100
0000
0000
0100
0010
0100
0010
,
0000
0000
0010
0100
0010
0100
0000
0000
,
0100
0010
0000
0000
0100
0000
0100
0000
,
0010
0001
0010
0100
,
0010
1000
0100
0010
,
0001
0010
0001
0010
,
0100
1000
0100
1000
,
0200
0000
1300
0100
,
1000
0010
0001
0010
,
0100
0010
0100
0010
,
0100
1000
0100
1000
,
0100
0000
0010
0000
0010
0000
0000
0100
,
0000
0000
0100
0010
0100
0000
1000
0001
,
0000
1000
1000
1000
,
1000
0100
0010
0001
,
0000
0001
0001
0001
,
0001
0010
0100
2000
,
0000
0000
3001
0010
0001
0000
1000
0100
,
1000
0000
0010
0001
0010
0000
1000
0100
,
1000
0000
0000
1001
0000
1001
0000
1001
,
0000
1000
0000
0100
0000
0010
0000
0002
,
0000
1003
1000
1000
,
1000
1000
0100
0010
,
0000
0001
0001
0001
,
0001
0010
0100
2000
,
0000
3100
0010
0100
,
1000
0001
0000
0000
0010
0000
0100
0000
,
0010
2000
0000
3002
,
0000
0203
0000
0320
,
0030
0000
1001
0000
0000
0000
1000
0001
,
1000
0001
0000
0000
0010
0100
0010
0100
,
0010
0000
0110
0000
0000
1001
0000
0000
,
0110
0000
0000
0000
1000
0100
1000
0100
,
0010
0000
0001
0000
0010
0100
0010
0100
,
0010
0100
0010
0000
0010
0001
0010
0001
,
0010
0001
0010
0000
0100
1000
0100
1000
,
0100
1000
0100
0000
0100
0001
0100
0001
,
0100
0001
0100
0000
0000
0000
0010
0100
,
0010
0100
0000
1001
0000
1001
0000
1001
,
0000
0100
0020
0000
0000
0000
0030
0000
,
0200
0000
0000
0000
,
0300
0000
1000
0000
0001
0010
0001
0000
,
1000
0100
1000
0000
0010
0001
0010
0000
,
0100
1000
0100
0010
0000
0100
0010
0000
,
0100
0010
0000
0100
0010
0000
0001
0010
,
0100
1000
0010
0010
0000
0100
0100
0000
,
0010
0010
0000
0010
0100
0010
0100
0001
,
1000
0000
1000
1000
0000
0000
0000
0000
,
0000
0000
0000
0000
0000
0000
0100
0010
,
0000
0000
0001
0001
0000
0000
0000
0000
,
0000
1001
1001
1001
,
0000
0000
0010
0010
0000
0000
0100
0100
,
0000
0000
0001
0001
0000
0000
1000
1000
,
0000
1001
1001
1001
,
1001
0110
0110
0110
,
0110
1000
0100
1000
,
1001
0010
0001
0100
,
0110
0100
0001
0100
,
0101
1000
0010
1000
,
0100
0010
0001
0010
,
0101
0010
0100
0010
,
0110
1000
0010
1000
,
0101
0010
0100
0001
,
1010
2000
0000
0000
,
0000
0000
3010
0100
0010
0100
0000
0100
,
0010
0002
0000
0000
,
0003
0000
0001
0000
0000
0010
0000
0000
,
0100
2000
0000
0000
,
3000
0000
1000
0000
0000
0100
0000
0000
,
0010
0002
0000
0000
,
0000
2000
0000
0000
,
3003
0010
0200
0000
,
0000
0000
0000
0000
,
0300
0000
1001
0000
0000
1001
0000
0000
,
1001
0000
0000
0000
0100
0010
0100
0000
,
0000
0000
1000
0100
1000
0100
0010
0001
,
0010
0001
0010
0100
0010
0100
1000
0000
,
1000
0001
1000
0001
1000
0100
0010
0100
,
0010
0100
0010
0100
0001
1000
0020
0000
,
0000
0000
1030
0100
1000
0000
0001
0010
,
0001
0000
0010
0100
0010
0000
0100
0010
,
0100
0000
0000
1001
0000
1001
0000
1001
,
0000
1000
0000
0001
0000
1000
0000
0001
,
0000
0000
0001
0010
0001
0010
0100
0010
,
0100
0010
1000
0010
1000
0010
1000
0100
,
0000
0100
0001
0100
0001
0100
0010
0001
,
0010
0001
1000
0100
1000
0100
2000
0000
,
0000
0000
3001
0010
0001
0000
1000
0100
,
1000
0100
0000
0000
0100
0001
0100
0001
,
0010
1000
0002
0000
0000
0000
2003
0000
,
0000
0000
0000
3001
0000
0010
0000
0001
0000
1000
0000
0100
,
0000
1000
0000
0100
0000
0010
0000
0001
0000
0010
0000
0100
,
0000
1000
0000
0000
0000
0000
0002
0000
0000
0000
0000
0000
,
0003
0200
0000
0301
,
0010
0001
0010
0100
,
0010
1000
0010
1000
,
0100
0010
0100
0001
,
0100
0002
0000
0003
,
1000
0010
1000
0010
,
0100
0001
0100
0001
,
0100
0000
0110
0000
0000
0110
0000
0000
,
0110
0001
0100
0010
,
1000
0100
0010
0100
,
0010
1000
0001
1000
,
0001
0010
0100
0010
,
1000
0200
0000
0300
,
0010
0001
1000
0100
,
0010
0000
0010
0100
0010
0100
0010
0100
,
0010
0100
0001
1000
0001
1000
0001
1000
,
0001
1000
0100
0001
0100
0001
0100
0001
,
0010
0100
2002
0000
0000
0000
3003
0000
;

//---------------dance-single - Challenge----------------
#NOTES:
     dance-single:
     Challenge:
     Challenge:
     10:
     1.000,1.000,0.870,0.410,0.364,690.000,104.000,49.000,0.000,0.000:
0000
0000
1000
0100
0010
0001
0000
0000
,
1001
0110
0000
0000
0001
0010
0100
1000
,
0000
0000
1000
0001
0010
0100
0000
0000
,
0110
0110
0000
0000
0010
1000
0001
0100
,
0000
0000
1000
0100
0010
0001
0000
0000
,
1001
1001
0000
0000
0001
0010
0100
1000
,
0000
0000
1000
0010
0100
0001
0000
0000
,
0110
0110
0000
0000
0002
0010
0100
1000
,
0100
0010
0103
0000
1000
0000
1001
0000
,
0001
1001
0010
0110
,
0100
0110
0010
0110
,
1000
0101
0010
1001
,
0002
1000
1003
0101
,
1000
0110
0010
1001
,
0100
0011
0100
0101
,
0100
0000
1001
0000
0010
0000
1001
0100
,
0010
0100
1100
0000
0011
0000
0100
0011
,
0000
0000
0100
0010
0100
0000
0010
1100
,
0000
0000
0010
0100
0010
0001
0010
0100
,
0010
0100
1000
0100
0001
0100
0010
0001
,
0000
1000
0010
0100
0010
0001
0010
1000
,
0100
0010
0100
0001
1000
0001
0200
0000
,
0000
0000
1300
0100
0001
1000
0001
0100
,
0010
1000
0001
0100
0010
1000
0001
0100
,
0010
0001
0000
1100
0000
0110
0000
0011
,
0000
0000
1000
0000
0100
0000
0010
0000
0100
0000
1000
0000
0001
0010
0001
0010
,
0100
1000
0000
0000
0100
0000
1000
0000
0100
0000
0010
0000
0100
0000
1000
0000
,
0100
0010
0001
0010
0100
0010
1000
0010
,
0000
0010
0100
0010
0001
0010
1000
0010
,
0100
0010
1000
0001
0100
0010
0200
0000
,
0000
0000
0301
0010
0001
0010
0100
0010
,
1000
0210
0000
0000
0301
0010
0001
0120
,
0000
0000
0000
0030
0000
0000
1000
0000
0100
0000
0010
0000
0001
0000
0010
0000
0000
0000
0001
0000
0010
0000
0100
0000
,
1000
0100
0000
1000
0100
0010
0001
0010
0000
0001
0010
0100
,
1000
0000
0100
0000
0000
0000
0220
0000
0000
0000
0000
0000
0330
0000
0000
0000
0000
0000
1000
0000
0000
0001
0000
0000
,
1000
0001
0000
0000
0010
0100
0010
0100
,
0010
0100
0022
0000
0033
0220
0000
0330
,
2200
0000
3300
0000
0001
0010
0100
1000
,
0100
0000
0020
0000
1030
0100
0010
0001
,
1000
0100
0020
0000
1030
0100
0010
0001
,
1000
0100
0020
0000
0031
0010
0100
1000
,
0001
0010
0200
0000
1300
0100
0010
0001
,
0100
0010
0002
0000
0000
0000
0013
0100
,
0010
0100
0000
1010
0000
0101
0000
0110
,
0000
1001
0220
0000
0000
0000
0330
0000
,
0100
0010
0100
0020
0000
0000
0000
0000
0000
0000
0000
0000
,
0030
0000
1001
0000
0001
0010
1100
0000
,
1000
0100
0011
0000
0001
0010
1100
0000
,
0100
1000
0100
0010
0000
0011
0011
0000
,
1001
1001
0000
0110
0110
0000
1000
0100
,
0010
0001
1001
0110
0000
0101
1010
0000
,
0101
0000
0000
1010
0000
0000
0000
0000
0000
0000
0000
0000
0100
0000
0010
0000
0100
0000
0010
0000
0100
0000
0010
0000
,
0100
0000
1001
0110
0000
0001
0010
0100
,
0010
1000
0001
0100
0010
0100
0011
1100
,
0000
0000
0110
1001
0000
1000
0100
1000
,
0100
0010
0011
0100
1100
0010
0022
0000
,
0000
0033
1010
0101
0000
0000
1001
0110
,
0000
0000
1100
0110
0000
0000
0101
1001
,
0000
1001
0110
0011
,
1100
0110
0101
1010
,
0101
0000
0000
1000
0000
1000
0100
1000
0100
0001
0000
0010
,
0001
0010
0001
0010
0000
0100
0010
0100
0010
0100
0000
0010
,
0100
0010
0100
1000
0000
0001
0010
0001
0010
1000
0000
0100
,
0010
0100
0010
0001
1000
0000
0100
0000
0010
0100
0010
0100
,
0010
0100
0010
0100
0000
1000
0100
1000
0100
0001
0000
0010
,
0001
0010
0001
0100
0000
0010
0100
0010
0100
0001
0000
0100
,
1000
0100
1000
0010
0000
0010
0100
0010
0100
0010
0000
1000
,
0001
1000
0001
1000
0000
0100
0000
0010
0100
0010
0100
0010
,
0100
0010
0100
2000
0000
0000
0000
0000
0000
0000
0000
0000
,
3000
0000
0100
1000
0001
0020
0000
1030
,
0200
0302
0000
0000
,
0003
0000
0200
0000
0000
0320
0000
0000
,
2030
0002
0000
0000
,
3003
0000
0200
0000
0000
0302
0000
0000
,
0023
2030
0000
0000
,
0000
0002
0000
0000
,
3003
1010
0012
0000
,
1000
1000
1000
1000
,
1003
0000
1001
0000
0000
0110
0000
0000
,
1001
0000
0000
0000
0010
0100
1001
0000
,
0000
0000
0001
0010
0001
0010
0001
0010
,
1000
0010
1000
0001
0100
0001
0100
0010
,
0000
1000
0100
0001
0100
0010
0001
0010
,
0001
1000
0001
0010
0001
1000
0200
0000
,
0000
0300
0001
0100
0001
0010
0100
0001
,
1000
0010
0100
0001
1000
0100
0001
0010
,
0100
0010
0000
0011
0000
0110
0000
1100
,
0000
0000
1000
0000
0100
0000
0010
0000
0001
0000
0010
0000
0100
0000
1000
0100
,
1000
0100
1000
0000
0010
0000
0001
0000
0010
0000
0100
0000
0010
0000
0001
0000
,
0010
1000
0001
0100
1000
0001
0010
0001
,
0000
0100
0010
0001
1000
0100
0010
0100
,
1000
0001
0010
0100
0010
0001
0020
0000
,
0000
0000
0130
0001
1000
0010
0100
0001
,
1000
0200
0000
0000
0310
1000
0010
0001
,
0010
0000
0000
0100
0000
0000
0010
0000
0100
0000
0010
0000
0100
0000
0010
0000
0000
0000
1000
0000
0001
0000
1000
0000
,
0001
1000
0001
0100
0000
0010
0000
1001
0000
0110
0000
1001
,
0000
0110
0000
0011
0000
1010
0000
0011
0000
1010
0000
0110
,
0000
0020
0000
0000
0000
0000
2000
0000
0000
0000
0000
0000
,
3030
0000
2000
0000
0000
0000
3001
0010
,
0100
0010
1000
0100
0010
0100
0010
1000
,
0100
0010
0100
1000
0001
0010
0001
1000
,
0001
0010
0100
0010
0100
0001
1000
0100
,
0010
1000
0020
0000
0000
0000
1030
0100
,
1000
0001
0010
0000
0010
0011
0000
0100
,
0010
0100
1000
0001
1000
0100
0010
0001
,
1000
0100
0011
0000
1000
0101
0000
0010
,
1100
0000
0002
0000
0000
0000
1003
0100
,
1000
0000
0010
0001
0010
0000
1000
0100
,
0001
0100
0001
0100
0010
0001
1000
0001
,
0010
0100
1000
0100
0010
0001
1000
0100
,
0010
0001
2000
0000
0000
0000
0000
0000
,
3100
0010
0100
0000
0100
0010
0000
1000
,
0100
0010
0001
1000
0001
0010
0001
0010
,
0100
0010
1000
0001
1000
0010
0100
0001
,
0100
0010
0100
0010
1000
0001
1000
0001
,
1000
0001
2002
0000
0000
0000
3003
0000
;

//---------------dance-single - easy----------------
#NOTES:
     dance-single:
     easy:
     Easy:
     6:
     0.541,0.775,0.351,0.209,0.033,386.000,42.000,25.000,0.000,0.000:
0000
0000
1001
0000
0000
1001
0000
0000
,
0110
0000
0000
0000
0110
0000
0000
0110
,
0000
0000
1001
0000
0000
0110
0000
0000
,
1001
0000
0000
0000
1001
0000
0000
1001
,
0000
0000
0110
0000
0000
0110
0000
0000
,
1001
0000
0000
0000
0110
0000
0000
1001
,
0000
0000
0011
0000
0000
1100
0000
0000
,
0110
0000
0100
0100
,
0010
0001
0010
0001
,
0010
0001
0010
0100
,
1000
0100
1000
0100
,
0010
0001
0010
0001
,
0200
0000
1300
0100
,
1000
0100
1000
0010
,
0100
0010
0100
0010
,
0100
1000
0001
1000
,
0001
0000
0010
0000
0010
0000
0000
0100
,
0000
0100
0010
1001
,
0000
0100
0100
0100
,
0100
0100
0100
1000
,
0001
0010
0010
0010
,
0010
0010
0010
0200
,
0000
0301
0001
1000
,
1000
0001
0001
1000
,
1000
0000
0000
0010
0000
0010
0000
0010
,
0000
0001
0000
1000
0000
0001
0000
0020
,
0000
0130
0100
0100
,
0100
0100
0100
0010
,
0000
0010
0010
0010
,
0010
0010
0100
2000
,
0000
3100
0010
0100
,
1000
0000
0010
0100
,
0010
0200
0000
0320
,
0000
0230
0000
0320
,
0030
1001
0000
1001
,
0000
1001
0000
0000
0100
0000
0010
0000
,
0100
0000
0110
0000
0000
1001
0000
0000
,
0110
0000
0010
0100
,
0010
0000
1000
0100
,
0010
0001
0001
0010
,
0100
1000
1000
0100
,
0010
0001
0001
0010
,
0100
1000
0000
0100
,
0000
0010
0000
1001
0000
1001
0000
1001
,
0000
0020
0000
0030
,
0200
0000
0000
0000
,
0300
0000
0010
0000
0001
0010
0001
0000
,
1000
0100
1000
0000
0010
0001
0010
0000
,
0000
0000
0100
0010
0000
0100
0010
0000
,
0100
0010
0000
0100
0010
0000
0001
0000
,
0100
0000
0010
0001
0000
0100
1000
0000
,
0010
0001
0000
0000
0010
0100
0000
0000
,
0100
0000
1000
0100
0000
0000
0000
0000
,
0000
0000
0000
0000
0000
0000
0100
0010
,
0000
0000
0001
1000
0000
0000
0000
0000
,
0000
1001
0010
1001
,
0000
0000
0010
0100
0000
0000
0100
0010
,
0000
0000
0010
0100
0000
0000
0100
0010
,
0000
1001
1001
1001
,
1001
1001
1001
1001
,
1001
1000
0100
1000
,
0100
0010
0001
0010
,
0001
0010
0010
0100
,
0010
0100
0010
1000
,
0100
0010
0001
0010
,
0100
0010
0100
0010
,
0100
1000
0010
1000
,
0100
0010
0100
0001
,
0010
2000
0000
0000
,
0000
3000
0010
0000
,
0010
0002
0000
0000
,
0003
0000
0001
0000
0000
0010
0000
0000
,
0100
2000
0000
0000
,
3000
0000
1000
0000
0000
0100
0000
0000
,
0010
0002
0000
0000
,
0000
2000
0000
0000
,
3003
0010
0200
0000
,
0000
0000
0000
0000
,
0300
0000
0110
0000
0000
0110
0000
0000
,
0110
0000
0000
0110
,
0000
1000
0100
1000
,
0001
0010
0001
1000
,
0100
1000
0100
0010
,
0001
0010
0001
0020
,
0000
1030
1000
0001
,
0001
0010
0010
0100
,
0100
0000
0000
0001
0000
0001
0000
0001
,
0000
1000
0000
0010
0000
1000
0000
0010
,
0000
0001
0001
0100
,
0100
1000
1000
1000
,
0000
1000
1000
0100
,
0100
0010
0010
0002
,
0000
1003
1000
0010
,
0010
0000
0100
0100
,
0010
0002
0000
2003
,
0000
0000
0000
3001
0000
0010
0000
0001
0000
1000
0000
0001
,
0000
1000
0000
0001
0000
1000
0000
0001
0000
1000
0000
0001
,
0000
1000
0000
0000
0000
0000
0020
0000
0000
0000
0000
0000
,
0030
0200
0000
0301
,
0010
0001
0010
0100
,
0010
1000
0010
1000
,
0100
0010
0100
0001
,
0100
0002
0000
0003
,
1000
0010
1000
0010
,
0100
0001
0100
0001
,
0100
0000
0001
0000
0000
0100
0000
0000
,
1000
0001
0100
0010
,
1000
0100
0010
0100
,
0010
1000
0001
1000
,
0001
0010
0100
0010
,
1000
0200
0000
0300
,
0010
0001
1000
0100
,
0010
0010
0010
0010
,
0010
0001
0001
0001
,
0001
0000
1000
0001
1000
0001
1000
0001
,
1000
0001
2000
0000
0000
0000
3000
0000
;
