#TITLE:20031023;
#SUBTITLE:;
#ARTIST:SHAPNEL;
#TITLETRANSLIT:2 0 0 4 1 0 2 3;
#SUBTITLETRANSLIT:DJ SHARPNEL;
#ARTISTTRANSLIT:;
#CREDIT:;
#BANNER:20031023-bn.png;
#BACKGROUND:20031023-bg.png;
#LYRICSPATH:;
#CDTITLE:kcd.jpg;
#MUSIC:20031023.mp3;
#OFFSET:-0.012;
#SAMPLESTART:109.900;
#SAMPLELENGTH:13.845;
#SELECTABLE:YES;
#BPMS:0.000=179.000,129.000=89.500,131.000=179.000,226.000=358.000,228.000=179.000,324.000=358.000,452.000=44.750,454.833=22.357;
#STOPS:128.000=0.060
,128.021=0.020
,128.042=0.020
,128.063=0.100
,128.083=0.020
,128.104=0.020
,128.125=0.080
,128.146=0.020
,128.167=0.060
,128.188=0.080
,128.208=0.020
,128.229=0.020
,128.250=0.060
,128.271=0.020
,128.292=0.020
,128.313=0.060
,128.333=0.040
,128.354=0.020
,128.375=0.080
,128.396=0.020
,128.438=0.040
,128.500=0.100
,130.833=0.040
;
#BGCHANGES:128.000=20031023.avi=0.300=0=0=1,
129.000=20031023.avi=1.400=0=0=1,
292.000=20031023blue.avi=1.000=0=0=1,
355.500=20031023blue.avi=0.700=0=0=1,
99999=-nosongbg-=1.000=0=0=0 // don't automatically add -songbackground-
;
// cache tags:
#FIRSTBEAT:0.000;
#LASTBEAT:456.500;
#SONGFILENAME:Songs/cedric step/20031023/20031023.sm;
#HASMUSIC:1;
#HASBANNER:1;
#MUSICLENGTH:140.912;
// end cache tags

//---------------dance-single - ----------------
#NOTES:
     dance-single:
     :
     Hard:
     9:
     0.703,0.850,0.461,0.028,0.096,624.000,65.000,4.000,0.000,0.000:

1000
0100
1000
0000
1000
0010
1000
0000
,
1000
0100
1000
0010
0001
0100
0001
0000
,
0001
1000
0001
0000
0010
0100
0010
1000
,
0100
0010
0100
0001
0100
0000
0000
0000
,
0001
0100
0010
0000
1000
0001
0100
0000
,
0010
1000
0010
0100
0001
0100
0010
0000
,
0100
0010
0001
1000
0100
1000
0001
0010
,
0100
0010
0100
0001
0010
0000
0001
1000
,
0001
0000
0100
0010
1000
0000
0000
0000
,
0001
0000
0010
1000
0100
0001
1000
0100
,
0010
0000
0000
0100
0010
0000
1000
0001
,
0100
0001
1000
0100
0010
0000
1100
0000
,
0001
0000
0100
1000
0010
0000
0001
0000
,
0100
0000
0010
0100
0001
0000
0100
1000
,
0001
0000
1000
0010
0100
0000
1000
0010
,
0100
0100
0001
1000
1001
0000
0100
0010
,
0001
0000
0100
0010
1000
0000
0010
0000
,
0001
0000
0010
1000
0100
0000
0001
0100
,
0010
0000
0000
0010
0100
0000
1000
0010
,
0100
0001
1000
0100
0010
0000
0011
0000
,
1100
0000
0010
0100
0001
0000
1000
0000
,
0100
0000
0001
1000
0100
0000
0100
0010
,
0001
0000
0000
0010
1000
0000
0001
0100
,
0010
0001
0100
0010
0001
0010
0010
0001
,
1000
0000
1000
0001
0100
0000
0001
1000
,
0100
0000
0010
0001
0100
0000
0000
0001
,
0100
0000
0000
0100
0010
0000
1000
0100
,
0001
1000
0010
0100
1000
0100
0010
0000
,
0001
0000
0100
0010
1000
0000
1100
0000
,
0010
0100
0001
1000
0100
0000
0000
0010
,
0001
0000
0000
0010
0100
0000
0010
1000
,
0100
0100
0010
0001
1000
1000
0010
0100
,
0001
0000
0000
0000
0000
0000
0000
0000
0000
0000
0000
0000
1000
0000
0000
0001
0000
0000
1000
0000
0000
0000
0000
0000
0001
0000
0100
0000
0000
0000
0001
0000
0100
0000
0000
0000
1000
0000
0000
0000
0000
0000
0100
0000
0000
0000
0000
0000
,
0010
0001
0100
0010
1000
0001
0010
0100
,
0001
0010
1000
0001
0100
0010
0001
0100
,
1000
0010
0100
1000
0001
0010
1000
0100
,
0001
0010
1000
0001
0100
0010
1000
0001
,
0100
1000
0100
0010
0001
1000
0001
1000
,
0100
0010
1000
0010
0100
0001
1000
0010
,
0100
0001
0100
1000
0001
1000
0010
0100
,
0001
0010
0100
0001
0010
0001
0100
1000
,
0001
0000
0100
0010
1000
0100
0010
0001
,
0100
0010
1000
0001
0100
0000
0100
0010
,
1000
0000
0100
0010
0001
0000
0100
0010
,
0001
0100
0001
0100
0010
1000
0010
0100
,
0001
0000
0100
1000
0010
0000
0100
0001
,
0010
0100
1000
0010
0001
0100
1000
0100
,
0001
0000
1000
0100
0001
0000
1000
0010
,
0001
0000
1000
0010
0001
0000
1010
0000
,
0000
0100
0110
0000
0000
0001
1001
0010
,
0100
0001
0100
0000
0000
0000
1100
0000
,
0000
0001
1001
0000
0000
0010
0110
1000
,
0001
0010
1000
0000
0000
0100
0110
0000
,
0000
0001
0011
0000
0000
1000
1010
0100
,
0001
0010
0100
0000
0000
1000
1001
0000
,
0000
0100
0101
0000
0000
0010
0011
0100
,
1000
0010
0001
0000
0010
0000
0000
0000
,
1000
0100
1000
0000
0010
0100
0010
0001
,
1000
0010
0100
0010
0110
0000
0000
0000
,
0001
0010
0001
0000
0100
0010
0100
1000
,
0001
0010
1000
0001
0110
0100
0010
0000
,
0001
1000
0001
0000
0010
0100
0010
0000
,
1000
0001
1000
1000
0110
0010
0100
0000
,
0010
1000
0010
0000
0001
0100
0001
0000
,
0010
0100
1000
0001
0011
0100
1000
0000
,
0100
0000
0100
0000
0001
0000
0000
1000
0100
0000
0010
0000
1000
0000
0000
0001
,
0100
0000
0010
0000
1000
0000
0000
0100
0010
0000
1000
0000
0100
0000
0000
0100
,
1000
0000
0010
0000
0100
0000
0000
0010
0001
0000
1000
0000
0100
0000
0000
0010
,
0100
0000
0100
0000
0001
0000
0000
0001
0100
0000
0010
0000
0010
0000
0000
0000
,
1000
0001
0000
0101
0000
0110
0000
1000
,
0100
0000
0010
0000
0000
0000
0110
0000
0000
0000
1100
0000
0000
0000
0010
1000
,
0100
0000
0001
0000
0000
0000
0101
0000
0000
0000
0110
0000
0000
0000
0010
0001
,
1000
0010
1000
0000
0000
0000
1100
0000
0000
0000
1100
0000
0000
0000
0010
0000
,
0000
1001
0000
1001
0000
0110
0000
0110
,
0000
1001
0000
1001
0000
1001
0000
1001
,
0000
1010
0000
1010
0000
0101
0000
0101
,
0000
0110
0000
1001
0000
0110
0000
1001
,
0000
0011
0000
0011
0000
1100
0000
1100
,
0000
1010
0000
1100
0000
1010
0000
1100
,
0000
0011
0000
1001
0000
0101
0000
0110
,
0000
1001
0000
0110
0000
1100
0000
1100
,
0010
1000
0100
0000
,
0010
0001
0100
0000
,
0120
0001
0001
0001
,
0001
0000
0000
0100
,
1030
0100
0010
0000
,
0100
0010
0001
0000
,
1000
0010
0100
0000
,
0010
0100
0001
0010
,
0100
0001
0010
0000
,
0100
1000
0010
0000
,
0210
1000
1000
1000
,
1000
0000
0000
0010
,
0301
0010
0100
0000
,
0010
0100
1000
0000
,
0001
0100
0010
0000
,
0100
0010
1000
0000
,
1000
0100
0010
1000
,
0001
0010
0100
0001
,
1001
0000
0100
0010
,
1000
0001
0100
0010
,
1000
0001
0010
0100
,
0010
0100
1000
0100
,
0010
0100
0010
0001
,
0100
0010
0100
0010
,
1000
0010
0100
0010
,
0100
0001
0010
0100
,
1001
0000
0010
1000
,
0010
0001
0010
1000
,
0100
0001
1000
0100
,
0001
0010
0100
1000
,
0010
0100
0001
0010
,
1000
0100
0010
0001
,
1000
0000
0000
0000
0000
0000
0000
0000
0000
0000
0000
0000
0000
0000
0000
0000
0000
0000
0100
0000
0000
0000
0000
0000
0000
0000
0000
0010
0000
0000
0000
0000
0000
0000
0000
0000
0100
0000
0000
0000
0000
0000
0000
0000
0000
0000
0000
0000
0000
0000
0000
0000
0000
0000
0000
0000
0000
0000
0000
0000
0000
0000
0000
0000
0000
0000
0000
0000
0000
0000
0000
0000
0001
0000
0000
0000
0000
0000
0000
0000
0000
0000
0000
0000
0000
0000
0000
0000
0000
0000
0100
0000
0000
0000
0000
0000
0000
0000
0000
1000
0000
0000
0000
0000
0000
0000
0000
0000
0100
0000
0000
0000
0000
0000
0000
0000
0000
0000
0000
0000
0000
0000
0000
0000
0000
0000
0000
0000
0000
0000
0000
0000
0000
0000
0000
0000
0001
0000
0000
0000
0000
0010
0000
0000
0000
0000
0000
0000
0000
0000
0000
0000
0000
0000
0000
0100
0000
0000
0000
0000
0100
0000
0000
0000
0000
0000
0000
0000
0001
0000
0000
0000
0000
0010
0000
0000
0000
0000
0001
0000
0000
0000
0000
0000
0000
0000
0000
0100
0000
0000
0000
0000
,
2000
0000
0000
0000
0000
0020
0000
0000
0000
0000
0000
0000
0000
0000
0000
0000
0000
0000
0000
0000
0000
0000
0000
0000
3030
0000
0000
0000
0000
0000
0000
0000
0000
0000
0000
0000
0000
0000
0000
0000
0000
0000
0000
0000
0000
0000
0000
0000
0000
0000
0000
0000
0000
0000
0000
0000
0000
0000
0000
0000
0000
0000
0000
0000
0000
0000
0000
0000
0000
0000
0000
0000
0000
0000
0000
0000
0000
0000
0000
0000
0000
0000
0000
0000
0000
0000
0000
0000
0000
0000
0000
0000
0000
0000
0000
0000
0000
0000
0000
0000
0000
0000
0000
0000
0000
0000
0000
0000
0000
0000
0000
0000
0000
0000
0000
0000
0000
0000
0000
0000
0000
0000
0000
0000
0000
0000
0000
0000
0000
0000
0000
0000
0000
0000
0000
0000
0000
0000
0000
0000
0000
0000
0000
0000
0000
0000
0000
0000
0000
0000
0000
0000
0000
0000
0000
0000
0000
0000
0000
0000
0000
0000
0000
0000
0000
0000
0000
0000
0000
0000
0000
0000
0000
0000
0000
0000
0000
0000
0000
0000
0000
0000
0000
0000
0000
0000
0000
0000
0000
0000
0000
0000
;

//---------------dance-single - ----------------
#NOTES:
     dance-single:
     :
     Easy:
     5:
     0.483,0.607,0.575,0.497,0.000,325.000,81.000,70.000,0.000,0.000:














0001
0000
1000
0000
,
0100
0000
0010
0001
,
1000
0000
0010
0000
,
0100
0000
0001
1000
,
0100
0000
0010
0000
,
0001
0000
0100
0010
,
1000
0001
1000
0001
,
0200
0000
0000
0000
,
0310
1001
0100
0010
,
1000
0001
0011
1100
,
0010
0100
0001
1000
,
0100
0010
1001
0110
,
1000
0001
0100
0010
,
1000
0001
0011
1100
,
0010
0100
0010
0100
,
1000
0001
0100
0001
,
2000
0001
3000
1000
,
0002
0100
0003
0001
,
1000
1100
0001
0101
,
0110
0110
0220
0330
,
0002
2003
3100
0000
,
0020
0032
0103
0000
,
1000
1100
0001
0101
,
2002
0000
0000
3003
,
0010
0101
1000
0010
,
0100
0001
1000
0110
,
0011
1000
0100
1010
,
0110
0001
1000
0100
,
0010
0000
0001
0000
,
0100
0010
1000
0000
,
0100
0000
0010
0000
,
0100
0000
0010
0100
,
2000
0001
3001
0001
,
0010
0001
1010
0100
,
0010
1100
0000
0100
,
0010
1000
0001
0001
,
0100
0110
0000
1010
,
0100
0100
0011
0010
,
0100
1001
0000
0100
,
0010
0011
1100
0010
,
0100
1010
0000
1000
,
0100
0011
1100
0010
,
0100
0110
0000
0001
,
1000
0100
0011
0100
,
1010
0101
0000
1000
,
0100
0010
0001
1000
,
0100
0010
0001
1000
,
0010
0100
0001
1000
,
0010
0100
0001
0020
,
0000
0030
0000
0200
,
0010
0310
0000
2000
,
0000
3000
0000
0020
,
0001
0031
0000
0002
,
0000
0003
0000
0200
,
1000
1300
0000
0020
,
0000
0030
0000
2000
,
0100
3100
0000
0000
,
2002
0000
0000
3003
0220
0000
0000
0330
,
2020
0000
0000
3030
,
0220
0000
0000
0330
0022
0000
0000
0033
,
2002
0000
0000
0000
0000
0000
0000
3003
,
2200
0000
0000
3300
0202
0000
0000
0303
,
0220
0000
0000
0000
0000
0000
0000
0330
,
2002
0000
0000
3003
0022
0000
0000
0033
,
2020
0000
0000
0000
0000
0000
0000
3030
,
0100
0100
0110
0000
,
0010
0010
0110
0000
,
0100
0100
0110
0000
,
0010
0010
0110
0000
,
0110
0100
0110
0000
,
0110
0010
0110
0000
,
0110
0110
0110
0000
,
0110
0110
0110
0000
,
1000
0100
0000
0100
0010
0000
0000
0000
,
0001
0100
0000
0100
0010
0000
0000
0000
,
0010
1000
0000
1000
0100
0000
0000
0000
,
1000
0001
0000
0001
1000
0000
0000
0000
,
0100
0010
0000
0010
0100
0000
0000
0000
,
0001
1000
0000
1000
0010
0000
0000
0000
,
0100
0001
0000
0001
0010
0000
1000
0000
,
1001
0110
1001
0110
,
2000
0000
3000
1000
,
0200
0000
0000
0310
,
0110
0000
1001
0000
,
0110
0000
0000
0000
,
0020
0000
0030
0010
,
0200
0000
0000
0301
,
1001
0000
1010
0000
,
1100
0000
0000
0100
,
0200
0000
0300
0010
,
2000
0000
0000
3100
,
0110
0000
0101
0000
,
1010
0000
0000
0010
,
0002
0000
0003
0001
,
0020
0000
0000
0130
,
0110
0000
0101
0000
,
0011
0000
0000
1000
,
2200
0000
3300
0020
,
0200
0000
0330
0010
,
0001
0010
1000
0010
,
0002
0000
2000
3003
,
0220
0000
0330
2000
,
0200
0000
3300
0100
,
0001
0100
1000
0100
,
0001
0010
0200
0000
,
2000
0000
3300
2000
,
0020
0000
3030
0001
,
0100
0010
1000
0100
,
0010
0001
0010
0100
,
0002
0000
0003
0001
,
2002
0000
3003
0010
,
0110
0010
0100
0010
,
0100
0010
0100
0010
,
0200
0000
0000
0000
,
0000
0300
0000
0000
0000
0000
0000
0000
0000
0000
0000
0000
0000
0000
0000
0000
0000
0000
0000
0000
0000
0000
0000
0000
0000
0000
0000
0000
0000
0000
0000
0000
0000
0000
0000
0000
0000
0000
0000
0000
0000
0000
0000
0000
0000
0000
0000
0000
;

//---------------dance-single - ----------------
#NOTES:
     dance-single:
     :
     Medium:
     7:
     0.594,0.768,0.447,0.043,0.043,517.000,63.000,6.000,0.000,0.000:







0001
0010
0100
0001
,
1000
0100
0010
0001
,
0100
1000
0010
0010
,
1000
0100
0001
0100
,
1000
0001
0010
0100
,
0001
0010
1000
0010
,
0100
0001
0100
0001
,
1000
0100
0010
0002
2000
0000
0000
0000
,
3003
0000
0101
0000
1000
0100
0010
0000
,
0100
0001
0011
1100
,
0010
0100
1000
0000
0001
0010
0100
0000
,
1000
0010
0101
1010
,
0100
0010
0001
0000
1000
0100
0010
0000
,
0100
0010
0001
0000
0011
0000
1100
0000
,
0010
0001
1000
0000
0010
0100
1000
0000
,
0100
0010
0001
0000
1000
0100
0001
0010
,
0100
1000
0001
0000
0010
1000
0100
0000
,
0001
0100
1000
0000
0100
0010
0001
0000
,
0100
1100
0001
1001
,
1000
0010
1000
0010
1000
0000
0010
0000
,
0001
1000
0100
0000
1000
0010
0100
0000
,
0010
0100
0001
0000
1000
0100
0010
0000
,
0100
1100
0001
1001
,
0001
0010
0100
2000
0002
0000
0000
0000
,
3003
0000
1001
0000
0100
0001
0010
0000
,
1000
0100
0001
0000
0100
0000
1010
0000
,
0011
0000
0100
0010
1000
0000
0110
0000
,
1000
0010
0100
0002
2000
0000
0000
0000
,
3003
0000
0100
0010
0001
0000
0010
0100
,
1000
0001
0010
1000
0100
0000
0100
0000
,
1000
0100
1000
0100
0010
0100
0010
0001
,
0010
0001
0010
0100
1000
0001
0100
0010
,
1000
0000
0001
1000
0001
1000
0001
0000
,
0010
0001
0110
1000
,
0010
0000
1100
0000
0100
0100
1000
0000
,
0010
0100
0001
0001
,
1000
0000
1010
0000
0010
0010
0110
0000
,
1000
0100
1000
0000
0011
0000
0010
0000
,
1000
0000
0101
0000
0010
0010
1000
0000
,
0010
0000
0011
0000
1100
0000
0010
0100
,
1000
0000
0110
0000
0100
0100
0100
0000
,
1000
0000
0011
0000
1100
0000
0010
0001
,
1000
0000
1010
0000
0100
0100
0001
0000
,
0100
0010
1000
0000
0011
0000
1000
0000
,
0110
0000
1001
0000
0001
0001
0100
0000
,
1000
0001
0010
0100
0001
1000
0100
0010
,
1000
0001
0010
0100
0001
1000
0100
1000
,
0010
0100
1000
0100
0001
1000
0100
0001
,
0010
0100
1000
0010
0001
0100
0010
0000
,
0000
1000
1000
0000
0000
0100
1000
0100
,
0010
0100
0010
0000
0000
0000
0100
0000
,
0000
0010
0010
0000
0000
1000
0010
0100
,
0001
0010
0001
0000
0000
0000
0001
0000
,
0000
0100
0100
0000
0000
0010
1000
0010
,
0100
0010
0100
0000
0000
0000
0010
0000
,
0000
1000
1000
0000
0000
1000
0010
1000
,
0100
1000
0001
0000
0000
0000
0000
0000
,
0101
0000
0000
0010
1010
0000
0000
0100
,
0110
0000
0010
0100
0010
0000
0000
0000
,
1010
0000
0000
0001
0011
0000
0000
0100
,
0101
0000
0100
0001
0100
0000
0000
0000
,
1100
0000
0000
0001
1001
0000
0000
1000
,
1010
0000
0010
1000
0010
0000
0000
0000
,
0101
0000
0000
0010
0011
0000
0000
0100
,
0110
0000
0100
0010
0100
0000
0000
0000
,
1000
0010
0000
0010
1000
0000
0000
0100
,
0010
0000
0010
0000
1000
0100
0000
0100
,
1000
0000
1000
0000
1000
0010
0000
0010
,
0100
0010
1010
0100
,
1010
0000
1010
0000
1010
0000
0100
0100
,
0010
0000
0010
0000
0010
0000
0100
0100
,
0100
0000
0010
0000
0010
0000
0100
0010
,
0100
0000
0010
0000
1100
0000
0010
0010
,
0100
1000
0000
1000
0010
1000
0000
1000
,
0001
1000
0000
1000
0010
0100
0000
0100
,
0010
0100
0000
0100
1000
0100
0000
0100
,
0010
0001
0000
0001
0010
0001
0000
0001
,
1000
0010
0000
0010
1000
0010
0000
0010
,
0001
0100
0000
0100
0010
0100
0000
0100
,
1000
0001
0000
0001
0010
0001
0100
0001
,
0101
1010
0101
1010
,
0100
0000
1000
0100
,
1000
0000
0010
1000
,
1010
0000
0101
0000
,
1010
0000
0000
0000
,
0010
0000
1000
0010
,
1000
0000
0010
0001
,
0011
0000
0010
0001
,
0010
0000
0000
1000
,
1000
0000
1000
0010
,
0100
0000
0010
1000
,
1010
0000
0001
1000
,
1010
0000
0001
0010
,
0001
0000
1000
0001
,
0010
0000
0100
1000
,
1010
0000
1000
0001
,
0011
0000
1000
0100
,
1100
0000
0001
0010
,
1000
0000
0000
0010
,
0001
0010
0100
0010
,
0001
0000
0100
0000
,
1010
0000
0000
0100
,
1000
0000
0000
1000
,
0001
1000
0100
1000
,
0001
0010
1000
0000
,
0100
0000
0000
0100
,
0010
0000
0000
0001
,
1000
0010
0100
1000
,
0010
0001
0010
1000
,
0001
0000
0000
0001
,
0101
0000
0000
0010
,
1010
0010
1000
0010
,
1000
0010
1000
0010
,
1000
0000
0000
0000
0000
0000
0000
0000
0000
0000
0000
0000
0000
0000
0000
0000
0000
0000
0100
0000
0000
0000
0000
0000
0000
0000
0000
0010
0000
0000
0000
0000
0000
0000
0000
0000
0100
0000
0000
0000
0000
0000
0000
0000
0000
0000
0000
0000
0000
0000
0000
0000
0000
0000
0000
0000
0000
0000
0000
0000
0000
0000
0000
0000
0000
0000
0000
0000
0000
0000
0000
0000
0001
0000
0000
0000
0000
0000
0000
0000
0000
0000
0000
0000
0000
0000
0000
0000
0000
0000
0100
0000
0000
0000
0000
0000
0000
0000
0000
1000
0000
0000
0000
0000
0000
0000
0000
0000
0100
0000
0000
0000
0000
0000
0000
0000
0000
0000
0000
0000
0000
0000
0000
0000
0000
0000
0000
0000
0000
0000
0000
0000
0000
0000
0000
0000
0001
0000
0000
0000
0000
0010
0000
0000
0000
0000
0000
0000
0000
0000
0000
0000
0000
0000
0000
0100
0000
0000
0000
0000
0100
0000
0000
0000
0000
0000
0000
0000
0001
0000
0000
0000
0000
0000
0000
0000
0000
0000
0010
0000
0000
0000
0000
0000
0000
0000
0000
0100
0000
0000
0000
0000
;

//---------------dance-single - ----------------
#NOTES:
     dance-single:
     :
     Challenge:
     11:
     1.000,1.000,1.000,0.504,1.000,1048.000,222.000,71.000,0.000,15.000:



1010
0110
1010
0000
1001
0011
1001
0000
,
1100
0110
1100
0110
0101
0110
0101
0000
,
0111
1110
0111
0000
1111
1101
1011
1001
,
0110
0000
0000
0011
0000
0000
1100
0000
0000
0011
0000
0000
1100
0000
0000
0000
0000
0000
0100
0010
0000
0100
0010
0000
,
1001
1100
1010
0000
1010
0011
0110
0000
,
0011
1001
0011
0101
1001
0101
0011
0000
,
1100
1010
1001
1010
0110
1010
0001
0010
,
1100
0000
0000
0000
1010
0000
0000
0000
1100
0000
0000
0000
1001
0000
0000
0000
1010
0000
0000
0000
0000
0000
0000
0000
0001
1000
0000
0000
0001
1000
0000
0000
,
0001
0000
0110
0000
0100
0001
0010
0100
1000
0100
0010
0001
1000
0100
0000
0000
,
0001
0000
0110
0000
0010
0001
1000
0010
0100
1000
0001
0010
1000
0001
0100
0000
,
0010
0000
1010
0000
0100
0010
0100
1000
0010
0100
0010
0100
1000
0000
0001
0000
,
0100
0000
0001
0000
1000
0010
0100
1000
0010
0001
0100
0010
1100
0010
0000
0000
,
0001
0000
0000
0000
0100
0000
1000
0100
0010
0001
0000
1000
0001
0010
0000
0000
,
0100
0000
0000
1000
0010
1000
0100
1000
0001
0010
0000
0010
0100
0010
1000
0010
,
0001
0100
0000
0100
1000
0100
0010
0001
0100
0001
0000
0001
1000
0001
0010
0001
,
0100
1000
0100
1000
0001
0010
1000
0010
1001
0000
0000
0000
0100
1000
0010
1000
,
0001
0000
0000
0000
0100
0001
0010
0001
1000
0000
0000
0100
0010
0100
0000
0010
,
0001
0010
0000
0001
0010
0001
1000
0010
0100
0010
0000
1000
0001
1000
0100
0001
,
0010
0001
0000
0100
0000
0100
0010
0001
0100
0001
0000
0010
1000
0100
0010
1000
,
0100
1000
0001
0010
1000
0010
0100
0001
0010
0001
0000
0000
0011
0000
0110
0000
,
1100
0000
0000
0000
0010
0001
0100
0010
0001
0000
0000
0100
1000
0100
0000
0000
,
0100
0010
0000
0010
0001
0000
1000
0010
0100
0010
0000
0001
0100
0001
0010
0000
,
0001
1000
0000
1000
0000
0100
0010
0100
1000
0000
0000
0010
0001
0010
0100
1000
,
0010
1000
0001
0000
0100
1000
0010
1000
0001
0100
0010
0100
0010
0000
0001
0010
,
1000
0010
0000
0010
1000
0010
0001
0000
0100
1000
0000
1000
0001
0010
1000
0010
,
0100
0001
0000
0001
0010
1000
0001
1000
0100
0000
0000
0010
0000
0010
0001
0000
,
0100
0010
0000
0010
0000
0001
0100
0001
0010
0100
0000
0100
1000
0010
0100
0010
,
0001
0100
1000
0100
0010
0001
0100
0001
1000
0010
0100
0001
0010
1000
0000
0100
,
0001
0010
0000
0001
0100
1000
0010
0001
1000
0100
0000
0010
1100
0001
0000
0100
,
0010
1000
0100
0010
0001
0000
1010
0000
0101
0000
1000
0000
1000
0100
0010
0100
,
0001
0010
0100
1000
0001
0010
0100
1000
0001
0010
0100
1000
0001
0010
0100
1000
,
0001
0000
0010
0000
0100
0000
1000
0000
0001
1000
0001
1000
0001
1000
0001
1000
0001
0010
0100
1000
0001
0010
0100
1000
0001
0010
0100
1000
0001
0010
0100
1000
,
0001
0000
0000
0000
0000
0000
0010
0000
0000
0000
0000
0000
0100
0000
0000
0000
0000
0000
1000
0000
0000
0000
0000
0000
0000
0000
0000
0000
0000
0000
0000
0000
0000
0000
0000
0000
0000
0000
0000
0000
0000
0000
0000
0000
0000
0000
0000
0000
1000
0000
0000
0000
0000
0000
0100
0000
0000
0000
0000
0000
0010
0000
0000
0000
0000
0000
0001
0000
0000
0000
0000
0000
1000
0000
0000
0000
0000
0000
0100
0000
0000
0000
0000
0000
0010
0000
0000
0000
0000
0000
0001
0000
0000
0000
0000
0000
1000
0000
0000
0000
0000
0000
0000
0000
0100
0000
0000
0000
0000
0000
0000
0000
0000
0000
0000
0000
0000
0000
0000
0000
0001
0000
0000
0000
0000
0000
0000
0000
0100
0000
0000
0000
0000
0000
0000
0000
0000
0000
0000
0000
0000
0000
0000
0000
1010
0000
0000
0000
0000
0000
0000
0000
0000
0000
0000
0000
0000
0000
0000
0000
0000
0000
0000
0000
0000
0000
0000
0000
0101
0000
0000
0000
0000
0000
0000
0000
0000
0000
0000
0000
0000
0000
0000
0000
0000
0000
0000
0000
0000
0000
0000
0000
,
0110
0011
0100
0010
1000
0001
1010
0011
,
0101
1010
1000
0001
0100
0010
1001
0011
,
1001
0011
0100
1000
0001
0010
1010
0101
,
1001
1100
1000
0100
0010
0001
1001
0101
,
0110
1001
0100
0010
0001
1000
0011
1100
,
0011
1010
1000
0010
0100
0001
1100
0011
,
0110
1001
0100
1000
0001
1000
0011
0110
,
0101
1010
0100
0001
0010
0001
0110
1010
,
0011
0010
0101
0011
1001
0101
1010
1001
,
1100
1010
1010
0011
0110
0010
0101
0011
,
1001
0001
0011
0101
1001
0001
0011
0101
,
1001
1100
0011
0110
0011
1001
0110
0110
,
0011
0010
0101
1001
0011
0001
1100
1001
,
1010
1100
1100
0110
0101
0110
1010
0110
,
0011
0000
0010
0000
1001
0000
0110
0000
0101
0000
1000
0000
1000
0100
0010
0001
,
1000
0010
0100
0010
0001
0010
0100
1000
0001
0010
0100
1000
2001
3000
2000
3000
,
2000
3000
0100
0000
0100
0000
2000
3000
2000
3000
0010
0000
0010
0000
0100
0000
,
0001
0000
0100
0000
0010
0000
0000
0000
0000
0000
0000
0000
2010
3000
2000
3000
,
2000
3000
0100
0000
2100
3000
2000
3000
2000
3000
0010
0000
2010
3000
2100
3000
,
2010
3000
0001
0000
2100
3000
2000
3000
2000
3000
0000
0000
2001
3000
2000
3000
,
2000
3000
0010
0000
2010
3000
2000
3000
2000
3000
0100
0000
0100
0000
0010
0000
,
0001
0000
0100
0000
0010
0000
0000
0000
0000
0000
0000
0000
2100
3000
2000
3000
,
2000
3000
0010
0000
2010
3000
2000
3000
2000
3000
0100
0000
2100
3000
2010
3000
,
2100
3000
0100
0000
2010
3000
2000
3000
2010
0000
0000
0000
0000
3000
0000
0000
,
2001
3000
2000
3000
2000
3000
0100
0000
0100
0000
2000
3000
2000
3000
0010
0000
,
0010
0100
0001
0100
0010
0000
0000
0000
,
2010
3000
2000
3000
2000
3000
0100
0000
2100
3000
2000
3000
2000
3000
0010
0000
,
2010
3000
2100
3000
2010
3000
0001
0000
2100
3000
2000
3000
2000
3000
0000
0000
,
2001
3000
2000
3000
2000
3000
0010
0000
2010
3000
2000
3000
2000
3000
0100
0000
,
0100
0010
0001
0100
0010
0000
0000
0000
,
2001
0000
0000
0000
3000
0000
0000
0010
0001
0000
0000
0000
2000
0000
3000
0100
2001
0000
3000
0000
0000
0000
0000
0110
0001
0000
0000
0000
2000
0000
3000
0001
,
2110
0000
3000
0000
2000
0000
3000
0010
2101
0000
3000
0000
2000
0000
3000
0101
2010
0000
0000
0000
0000
0000
0000
0001
0110
0000
0000
0000
0000
0000
0000
0110
,
3001
0010
0100
1000
0001
0000
0000
1000
0100
1000
0010
0001
1000
0000
0000
0001
,
0100
1000
0010
0100
1000
0000
0000
0100
0010
0001
1000
0010
0100
0000
0000
0100
,
1000
0001
0010
1000
0100
0000
0000
0010
0001
0100
1000
0001
0100
0000
0000
0010
,
0100
1000
0100
0010
0001
0000
0000
0001
0100
1000
0010
0001
0010
0000
0000
0000
,
1000
0010
0000
0000
0001
0100
0000
0000
0000
0010
0000
0000
0100
0001
0000
0000
0010
0000
0000
0000
0110
0000
0000
0000
0010
0000
0000
0000
1000
0000
0000
0000
,
0100
0010
0000
0000
0010
0100
0000
0000
0100
0010
0000
0000
0100
0010
0000
0000
0010
0000
0000
0000
1100
0000
0000
0000
0010
0000
0000
0000
0010
0000
1000
0000
,
0000
0000
0001
0000
0100
0000
0101
0000
0100
0000
0110
0000
0100
0000
0010
0001
,
1100
0010
1000
0000
0100
0000
1100
0000
0100
0000
1100
0000
0100
0000
0010
0000
,
0000
0000
0000
1000
0001
0000
0000
0000
0000
0001
1000
0000
0000
0000
0000
0110
1001
0000
0000
0000
0000
0100
0010
0000
,
0000
0000
0000
1001
0010
0000
0000
0000
0000
1010
0100
0000
0000
0000
0000
1100
0010
0000
0000
0000
0000
0001
0110
0000
,
0000
0000
0000
1010
0101
0000
0000
0000
0000
1010
0101
0000
0000
0000
0000
0101
1010
0000
0000
0000
0000
0101
1010
0000
,
0000
0000
0000
0100
0010
0000
0000
0000
0000
0001
1000
0000
0000
0000
0000
0100
0011
0000
0000
0000
0000
1000
0011
0000
,
0000
0000
0000
0001
0110
0000
0000
0000
0000
0001
1100
0000
0000
0000
0000
0100
1000
0000
0000
0000
0000
0011
0100
0000
,
0000
0000
0000
1000
0010
0000
0000
0000
0000
1010
0101
0000
0000
0000
0000
0011
1100
0000
0000
0000
0000
0110
1001
0000
,
0000
0000
0000
1001
0110
0000
0000
0000
0000
1010
0100
0000
0000
0000
0000
0010
0101
0000
0000
0000
0000
0001
1110
0000
,
0000
0000
0000
1000
0111
0000
0000
0000
0000
1011
0100
0000
0000
0000
0000
1101
0010
0000
0000
0000
0000
0010
1101
0000
,
0010
0001
1000
0001
0100
1000
0000
0000
,
0010
0100
0001
0010
0100
0000
0000
0000
,
0120
0000
0001
1000
0001
1000
0001
1000
,
0001
0000
0000
0000
,
1030
0010
0100
1000
0010
0100
0000
0000
,
0100
0001
0010
0100
0001
0010
0000
0000
,
1000
0100
0010
1000
0100
0010
0000
0000
,
0010
1000
0001
0010
0001
1000
0010
0001
,
0010
1000
0001
1000
0010
0001
0000
0000
,
0100
0010
1000
0100
0010
1000
0000
0001
,
0210
0000
1000
0001
1000
0001
1000
0001
,
1000
0000
0000
0000
,
0301
1000
0010
1000
0100
0001
0000
0000
,
0010
0001
0100
0010
1000
0010
0000
0000
,
0001
1000
0100
1000
0010
0001
0000
0000
,
0100
0001
0010
0100
1000
0100
0000
0000
,
1000
0010
0100
0001
0010
0100
1000
0100
,
0001
1000
0010
1000
0100
0010
0001
0010
,
1002
0100
0000
0010
0100
1000
0010
0100
,
1000
0100
1000
0010
0100
1000
0010
0100
,
1000
0100
0010
0100
0010
1000
0103
1000
,
0010
1000
0100
0010
1000
0010
0100
0001
,
0010
0001
0100
0001
0010
0100
0001
0010
,
0100
0001
0010
1000
0100
0001
0010
0100
,
1000
0001
0010
0001
0100
1000
0010
1000
,
0100
0010
0001
0100
0010
0001
0100
0010
,
2001
0010
0000
0100
0010
0100
0001
0100
,
0010
0100
0001
0100
0010
0100
3001
0010
,
0100
0000
0010
0100
1000
0000
0100
0000
0010
0000
0001
0000
0100
0000
1000
0000
,
0001
0010
0100
0000
0010
0000
0001
0000
0100
0000
0001
0000
1000
0000
0001
0000
,
0010
1000
0001
0000
0100
0010
0001
0000
0001
0100
1000
0000
0001
0010
0100
1000
,
0001
0010
0100
1000
0010
0100
0001
1000
0010
0100
0001
0010
0100
1000
0001
0100
,
1010
0000
0000
0000
0000
0000
0000
0000
0000
0000
0000
0000
0000
0000
0000
0000
0000
0000
0100
0000
0000
0000
0000
0000
0001
0000
0000
0010
0000
0000
0000
0000
0000
0000
0000
0000
0100
0000
0000
0000
0000
0000
0000
0000
0000
0000
0000
0000
0000
0000
0000
0000
0000
0000
0000
0000
0000
0000
0000
0000
0000
0000
0000
0000
0000
0000
0000
0000
0000
0000
0000
0000
0011
0000
0000
0000
0000
0000
0000
0000
0000
0000
0000
0000
0000
0000
0000
0000
0000
0000
0100
0000
0000
0000
0000
0000
0010
0000
0000
1000
0000
0000
0000
0000
0000
0000
0000
0000
0100
0000
0000
0000
0000
0000
0000
0000
0000
0000
0000
0000
0000
0000
0000
0000
0000
0000
0000
0000
0000
0000
0000
0000
0000
0000
0000
0000
0001
0000
0000
0000
0000
0010
0000
0000
1000
0000
0000
0000
0000
0000
0000
0000
0000
0000
0000
0100
0000
0000
0000
0000
0100
0000
0000
0000
0000
0000
0000
0000
0101
0000
0000
0000
0000
0010
0000
0000
0000
0000
0001
0000
0000
0000
0000
0000
0000
0000
0000
0100
0000
0000
0000
0001
,
1000
0000
0000
0000
0000
0010
0000
0000
0000
0000
0000
0000
0000
0000
0000
0000
0000
0000
0000
0000
0000
0000
0000
0000
0000
0000
0000
0000
0000
0000
0000
0000
0000
0000
0000
0000
0000
0000
0000
0000
0000
0000
0000
0000
0000
0000
0000
0000
0000
0000
0000
0000
0000
0000
0000
0000
0000
0000
0000
0000
0000
0000
0000
0000
0000
0000
0000
0000
0000
0000
0000
0000
0000
0000
0000
0000
0000
0000
0000
0000
0000
0000
0000
0000
0000
0000
0000
0000
0000
0000
0000
0000
0000
0000
0000
0000
0000
0000
0000
0000
0000
0000
0000
0000
0000
0000
0000
0000
0000
0000
0000
0000
0000
0000
0000
0000
0000
0000
0000
0000
0000
0000
0000
0000
0000
0000
0000
0000
0000
0000
0000
0000
0000
0000
0000
0000
0000
0000
0000
0000
0000
0000
0000
0000
0000
0000
0000
0000
0000
0000
0000
0000
0000
0000
0000
0000
0000
0000
0000
0000
0000
0000
0000
0000
0000
0000
0000
0000
0000
0000
0000
0000
0000
0000
0000
0000
0000
0000
0000
0000
0000
0000
0000
0000
0000
0000
0000
0000
0000
0000
0000
0000
;
