#TITLE:Hamsin;
#SUBTITLE:;
#ARTIST:Makou;
#TITLETRANSLIT:;
#SUBTITLETRANSLIT:;
#ARTISTTRANSLIT:;
#CREDIT:D. Nelson;
#BANNER:hamsin-bn.png;
#BACKGROUND:hamsin-bg.png;
#LYRICSPATH:;
#CDTITLE:muteCD.png;
#MUSIC:hamsin.ogg;
#OFFSET:0.010;
#SAMPLESTART:51.197;
#SAMPLELENGTH:19.180;
#SELECTABLE:YES;
#DISPLAYBPM:75.000:150.000;
#BPMS:0.000=75.000,6.000=150.000,23.000=300.000,23.375=150.000,39.000=300.000,39.375=150.000,53.000=300.000,55.000=150.000,71.000=300.000,71.375=150.000,87.000=300.000,87.375=150.000,103.000=300.000,103.375=150.000,119.000=300.000,119.375=150.000,135.000=300.000,135.375=150.000,184.000=187.500,188.000=250.000,192.000=375.000,196.000=300.000,200.000=150.000,280.000=187.500,284.000=250.000,288.000=375.000,292.000=300.000,296.000=75.000;
#STOPS:6.000=0.050
,6.125=0.050
,6.250=0.050
,6.375=0.050
,6.500=0.150
,6.875=0.050
,7.000=0.100
,7.250=0.050
,7.375=0.050
,7.500=0.050
,7.625=0.050
,7.750=0.050
,7.875=0.050
,23.000=0.025
,23.125=0.025
,23.250=0.025
,39.000=0.025
,39.125=0.025
,39.250=0.025
,53.000=0.025
,53.125=0.025
,53.250=0.025
,53.375=0.025
,53.500=0.025
,53.625=0.025
,53.750=0.025
,53.875=0.025
,54.000=0.025
,54.125=0.025
,54.250=0.025
,54.375=0.025
,54.500=0.025
,54.625=0.025
,54.750=0.025
,54.875=0.025
,71.000=0.025
,71.125=0.025
,71.250=0.025
,87.000=0.025
,87.125=0.025
,87.250=0.025
,103.000=0.025
,103.125=0.025
,103.250=0.025
,119.000=0.025
,119.125=0.025
,119.250=0.025
,135.000=0.025
,135.125=0.025
,135.250=0.025
,184.000=0.020
,184.250=0.020
,184.500=0.020
,184.750=0.020
,185.000=0.020
,185.250=0.020
,185.500=0.020
,185.750=0.020
,186.000=0.020
,186.250=0.020
,186.500=0.020
,186.750=0.020
,187.000=0.020
,187.250=0.020
,187.500=0.020
,187.750=0.020
,188.000=0.040
,188.250=0.040
,188.500=0.040
,188.750=0.040
,189.000=0.040
,189.250=0.040
,189.500=0.040
,189.750=0.040
,190.000=0.040
,190.250=0.040
,190.500=0.040
,190.750=0.040
,191.000=0.040
,191.250=0.040
,191.500=0.040
,191.750=0.040
,192.000=0.060
,192.250=0.060
,192.500=0.060
,192.750=0.060
,193.000=0.060
,193.250=0.060
,193.500=0.060
,193.750=0.060
,194.000=0.060
,194.250=0.060
,194.500=0.060
,194.750=0.060
,195.000=0.060
,195.250=0.060
,195.500=0.060
,195.750=0.060
,196.000=0.050
,196.250=0.050
,196.500=0.050
,196.750=0.050
,197.000=0.033
,197.167=0.033
,197.333=0.034
,197.500=0.033
,197.667=0.033
,197.833=0.034
,198.000=0.025
,198.125=0.025
,198.250=0.025
,198.375=0.025
,198.500=0.025
,198.625=0.025
,198.750=0.025
,198.875=0.025
,199.000=0.016
,199.083=0.017
,199.167=0.017
,199.250=0.016
,199.333=0.017
,199.417=0.017
,199.500=0.012
,199.563=0.013
,199.625=0.012
,199.688=0.013
,199.750=0.012
,199.813=0.013
,199.875=0.012
,199.938=0.013
,280.000=0.020
,280.250=0.020
,280.500=0.020
,280.750=0.020
,281.000=0.020
,281.250=0.020
,281.500=0.020
,281.750=0.020
,282.000=0.020
,282.250=0.020
,282.500=0.020
,282.750=0.020
,283.000=0.020
,283.250=0.020
,283.500=0.020
,283.750=0.020
,284.000=0.040
,284.250=0.040
,284.500=0.040
,284.750=0.040
,285.000=0.040
,285.250=0.040
,285.500=0.040
,285.750=0.040
,286.000=0.040
,286.250=0.040
,286.500=0.040
,286.750=0.040
,287.000=0.040
,287.250=0.040
,287.500=0.040
,287.750=0.040
,288.000=0.060
,288.250=0.060
,288.500=0.060
,288.750=0.060
,289.000=0.060
,289.250=0.060
,289.500=0.060
,289.750=0.060
,290.000=0.060
,290.250=0.060
,290.500=0.060
,290.750=0.060
,291.000=0.060
,291.250=0.060
,291.500=0.060
,291.750=0.060
,292.000=0.050
,292.250=0.050
,292.500=0.050
,292.750=0.050
,293.000=0.033
,293.167=0.033
,293.333=0.034
,293.500=0.033
,293.667=0.033
,293.833=0.034
,294.000=0.025
,294.125=0.025
,294.250=0.025
,294.375=0.025
,294.500=0.025
,294.625=0.025
,294.750=0.025
,294.875=0.025
,295.000=0.016
,295.083=0.017
,295.167=0.017
,295.250=0.016
,295.333=0.017
,295.417=0.017
,295.500=0.012
,295.563=0.013
,295.625=0.012
,295.688=0.013
,295.750=0.012
,295.813=0.013
,295.875=0.012
,295.938=0.013
;
#BGCHANGES:;
// cache tags:
#FIRSTBEAT:6.000;
#LASTBEAT:299.500;
#SONGFILENAME:Songs/SSSC Pack 2/Hamsin - [Mute]/hamsin.sm;
#HASMUSIC:1;
#HASBANNER:1;
#MUSICLENGTH:125.000;
// end cache tags

//---------------dance-single - Mute----------------
#NOTES:
     dance-single:
     Mute:
     Challenge:
     12:
     1.000,0.988,0.144,0.056,1.000,926.000,18.000,7.000,138.000,0.000:



0000
0000
0000
0000
,
0000
0000
0000
0000
0000
0000
0000
0000
0000
0000
0000
0000
0000
0000
0000
0000
000M
00M0
0M00
M000
000M
0000
0000
0M00
00M0
0000
M000
000M
0M00
00M0
0M00
00M0
,
1MM1
0000
1000
0001
1000
0000
0001
1000
0000
0010
1000
0010
1000
0010
0100
0000
,
0001
0000
1000
0000
0001
0010
0001
0010
0001
0000
1000
0000
0010
0000
1000
0000
0000
0000
1000
0000
0100
0000
1000
0000
0000
0000
0001
0000
0100
0000
0001
0000
,
1000
0000
0100
0000
1000
0000
0100
0000
1000
0000
0001
0000
4000
0000
0000
0000
0000
0000
0000
0000
0000
0000
0000
3000
0010
0000
0100
0000
0010
0000
0100
0000
,
0000
0000
0001
0000
0010
0000
0001
0000
1000
0000
0010
1000
0010
0000
0000
0000
1000
0010
1000
0000
0010
0000
0100
0000
0002
0000
0000
0003
0010
0000
0000
0000
,
M11M
0000
0010
0001
0010
0000
0010
0001
0000
0100
0001
0100
0001
1000
0010
0100
,
0001
0000
1000
0000
0100
0000
0000
0000
1000
0000
0001
0000
0010
0000
0000
0000
0100
0000
1000
0000
0001
0000
1000
0000
0001
0000
0100
0000
0001
0000
0100
0001
,
0100
0001
0010
0100
1000
0001
0010
0000
0001
0100
0001
0100
0010
0100
0010
1000
,
0000
0000
1000
0000
0010
0000
0100
0000
0001
0000
0000
0000
0010
0000
0100
0000
0010
0000
0000
0000
0100
0000
1000
0000
0002
0000
0000
0003
1000
0000
0000
0000
,
1M1M
0000
0010
1000
0010
0000
1000
0001
0000
1000
0100
1000
0100
1000
0001
0000
,
1000
0000
0001
0000
1000
0010
1000
0010
1000
0000
0010
0000
0100
0000
0010
0000
0000
0000
0100
0000
0010
0000
0100
0000
0001
0000
1000
0000
0001
0000
1000
0000
,
0100
0000
0010
0000
0100
0000
1000
0000
0001
0000
1000
0000
0040
0000
0000
0000
0000
0000
0000
0000
0000
0000
0000
0030
0100
0000
0001
0000
0100
0000
0001
0000
,
0010
0000
0000
0000
0010
0000
0000
0000
040M
000M
000M
000M
000M
000M
000M
000M
43M0
00M0
00M0
00M0
00M0
00M0
00M0
00M0
300M
0000
00M0
0000
0M00
0000
M000
0000
,
MM11
0000
0001
1000
0001
0000
1000
0010
0000
1000
0001
1000
0001
0010
0001
0100
,
0010
0000
1000
0000
0001
0000
0000
0000
0010
0000
0100
0000
0010
0000
0000
0000
0100
0000
1000
0000
0000
0000
0100
0000
1000
0000
0100
0000
1000
0000
0001
1000
,
0001
1000
0010
0000
0100
0001
0100
0000
0001
0010
0001
0010
0100
1000
0100
1000
,
0000
0000
0000
0000
1010
0000
0000
0000
0000
0000
1010
0000
0000
0000
0000
0000
0010
0000
0100
0000
0010
0000
0100
0000
0002
0000
0000
0003
0100
0000
0000
0000
,
M1M1
0000
0001
0010
0001
0010
0100
0010
0000
0010
0001
0010
0100
1000
0001
0010
,
0000
0001
0100
0010
0000
0010
1000
0010
0100
0010
1000
0001
1000
0100
1000
0010
,
1000
0100
0010
0100
1000
0000
0100
1000
0000
0100
0000
0100
1000
0001
1000
0001
,
0100
0000
0001
0000
0100
0000
0001
0000
1000
0000
0000
0000
0100
0000
0010
0000
0100
0000
0010
0000
0001
0000
1000
0000
0002
0000
0000
0003
0100
0000
0000
0000
,
1M1M
0000
1000
0100
1000
0100
0010
0100
0000
0100
1000
0100
0010
0001
1000
0100
,
0000
1000
0010
0100
0000
0100
0001
0100
0010
0100
0001
1000
0001
0010
0001
0100
,
0001
0010
0100
0010
0001
0000
0010
0001
0000
0010
0000
0010
0001
1000
0001
1000
,
0010
0000
1000
0000
0010
0000
1000
0000
0001
0000
0000
0000
0010
0000
0100
0000
0010
0000
0100
0000
1000
0000
0001
0000
2000
0000
0000
3000
0010
0000
0000
0000
,
1MM1
0000
1000
0100
1000
0100
1000
0001
0000
1000
0100
0010
0100
1000
0001
0100
,
0000
0010
0100
0010
0000
0100
0001
0100
0001
0010
0100
0010
0001
1000
0001
1000
,
0010
0100
0001
0100
0010
0000
0100
0010
0000
0100
0010
1000
0010
0100
0001
0100
,
0010
0000
1000
0000
0100
0000
0010
0000
0100
0000
0000
0000
1000
0000
0001
0000
0010
0000
0100
0000
0010
0000
0001
0000
0200
0000
0000
0300
0001
0000
0000
0000
,
1MM1
0000
0001
0010
0001
0010
0001
1000
0000
0001
0010
0100
0010
0001
1000
0010
,
0000
0100
0010
0100
0000
0010
1000
0010
1000
0100
0010
0100
1000
0001
1000
0001
,
0100
0010
1000
0010
0100
0000
0010
0100
0000
0010
0100
0001
0100
0010
1000
0010
,
1000
0000
0001
0000
0100
0000
0001
0000
1000
0000
0000
0000
0010
0000
1000
0000
0001
0010
0001
0010
0001
0000
1000
0000
0002
0000
0000
0003
0100
0000
0000
0000
,
0001
0010
0001
0010
0100
0010
0001
0010
0001
0010
0001
0010
0100
0010
0001
0010
,
0001
1000
0001
1000
0010
1000
0001
1000
0001
1000
0010
1000
0001
1000
0010
1000
,
0100
0010
0100
0010
0001
0010
0100
0010
0100
0010
0100
0010
0001
0010
0100
0010
,
0001
0100
0001
0100
0010
0100
0001
0100
0001
0100
0010
0100
0001
0100
0001
0100
,
0010
1000
0010
1000
0001
1000
0010
1000
0010
1000
0010
1000
0001
1000
0010
1000
,
0001
0100
0001
0100
0010
0100
0001
0100
0001
0100
0010
0100
0001
0100
0010
0100
,
0001
0010
0001
0010
0100
0010
0001
0010
0001
0010
0001
0010
0100
0010
0001
0010
,
0001
0100
0001
0100
0010
0100
0001
0100
0001
0100
0010
0100
0001
0100
0001
0100
,
0001
0010
0100
0010
0001
0010
0100
0010
0001
0010
0100
0010
0001
0010
0100
0010
,
0001
1000
0010
1000
0001
1000
0010
1000
0001
1000
0010
1000
0001
1000
0010
1000
,
0100
0010
0100
1000
0100
0010
0100
1000
0100
0010
0100
1000
0100
0010
0100
1000
,
0010
0000
0000
0010
0000
0000
0010
1000
0000
0010
1000
0000
0001
0000
0001
1000
,
0001
0010
0100
1000
0001
0010
0100
1000
0001
0010
0100
1000
0001
0010
0100
1000
,
0010
0100
0001
1000
0010
0100
0001
1000
0010
0100
0001
1000
0010
0100
0001
1000
,
0100
0010
0001
1000
0100
0010
0001
1000
0100
0010
0001
1000
0100
0010
0001
1000
,
0040
0000
0000
0000
0000
0000
0000
0000
0000
0000
0000
0000
040M
0000
0000
0000
0000
0000
0000
0000
0000
0000
0000
0000
M000
0000
0000
0000
0000
0000
0000
0000
0000
0000
0000
0000
000M
0000
0000
0000
0000
0000
0000
0000
0000
0000
0000
0000
M000
0000
0000
0000
0000
0000
0000
0000
000M
0000
0000
0000
0000
0000
0000
0000
M000
0000
0000
0000
0000
0000
0000
0000
000M
0000
0000
0000
0000
0000
0000
0000
M000
0000
0000
0000
0000
0000
0000
0000
000M
0000
0000
0000
0000
0000
0000
0000
M000
0000
0000
0000
0000
0000
000M
0000
0000
0000
0000
0000
M000
0000
0000
0000
0000
0000
000M
0000
0000
0000
0000
0000
M000
0000
0000
0000
0000
0000
000M
0000
0000
0000
0000
0000
M000
0000
0000
0000
0000
0000
000M
0000
0000
0000
0000
0000
M000
0000
0000
0000
000M
0000
0000
0000
M000
0000
0000
0000
000M
0000
0000
0000
M000
0000
0000
0000
000M
0000
0000
0000
M000
0000
0000
000M
0000
0000
M000
0000
0000
000M
0000
0000
M330
0000
0000
000M
0000
0000
M000
0000
0000
000M
0000
0000
,
M010
0000
1000
0001
1000
0010
1000
0001
0000
0010
0100
1000
,
0010
0100
0010
1000
0000
0001
1000
0001
0010
0100
0010
0000
,
0001
0000
0100
0010
1000
0001
0000
1000
0000
0100
0000
0100
,
0010
0000
0000
0000
0001
0000
0000
0000
0010
0000
0000
0000
0001
0000
0000
0000
0000
0000
0000
0000
0001
0000
0000
0000
1000
0000
0000
0010
0000
0000
0100
0000
0000
0001
0000
0000
0010
0000
0000
0100
0000
0000
1000
0000
0000
0001
0000
0000
,
0100
0000
0001
1000
0001
0100
0001
1000
0010
0000
1000
0001
,
0100
0010
0100
0001
0000
1000
0001
1000
0100
0010
0100
0000
,
1000
0000
0010
0100
0001
1000
0000
0001
0000
0010
0000
0010
,
0100
0000
0000
0000
1000
0000
0000
0000
0001
0000
0000
0000
1000
0000
0000
0000
000M
0000
00M0
0000
0M00
0000
M000
0000
000M
0000
0000
00M0
0000
0000
0M00
0000
0000
M000
0000
0000
000M
0000
0000
0000
00M0
0000
0000
0000
0M00
0000
0000
0000
,
1000
0000
0001
0010
0001
0000
1000
0001
1000
0000
0010
1000
0010
0000
1000
0100
,
1000
0000
0100
0010
0100
0000
0010
0001
0010
0000
1001
0000
0010
0000
1001
0000
,
0001
0000
1000
0100
1000
0000
0001
1000
0001
0000
0100
0001
0100
0000
0001
0010
,
0001
0000
0010
0100
0010
0000
0100
1000
0100
0000
0011
0000
1000
0000
1000
0000
,
1000
0010
0100
0010
1000
0000
0001
0010
0001
0000
0100
0001
0010
0001
0100
0000
,
0010
1000
0001
1000
0010
0000
1000
0100
1000
0000
1001
0000
0010
0000
1001
0000
,
0001
0100
0010
0100
0001
0000
1000
0100
1000
0000
0010
1000
0100
1000
0010
0000
,
0100
0001
1000
0001
0100
0000
0010
1000
0010
0000
0101
0000
1000
0000
1000
0000
,
1000
0100
0010
0100
1000
0100
0010
0100
1000
0100
0010
0100
1000
0100
0010
0100
,
1000
0001
0100
0001
1000
0001
0100
0001
1000
0001
0100
0001
1000
0001
0100
0001
,
0010
0100
0010
0001
0010
0100
0010
0001
0010
0100
0010
0001
0010
0100
0010
0001
,
0100
0010
1000
0010
0100
0010
1000
0010
0100
0010
1000
0010
0100
0010
1000
0010
,
1000
0100
0010
0001
1000
0100
0010
0001
1000
0100
0010
0001
1000
0100
0010
0001
,
0100
0010
1000
0001
0100
0010
1000
0001
0100
0010
1000
0001
0100
0010
1000
0001
,
0010
0100
1000
0001
0010
0100
1000
0001
0010
0100
1000
0001
0010
0100
1000
0001
,
0400
0000
0000
0000
0000
0000
0000
0000
0000
0000
0000
0000
M040
0000
0000
0000
0000
0000
0000
0000
0000
0000
0000
0000
000M
0000
0000
0000
0000
0000
0000
0000
0000
0000
0000
0000
M000
0000
0000
0000
0000
0000
0000
0000
0000
0000
0000
0000
000M
0000
0000
0000
0000
0000
0000
0000
M000
0000
0000
0000
0000
0000
0000
0000
000M
0000
0000
0000
0000
0000
0000
0000
M000
0000
0000
0000
0000
0000
0000
0000
000M
0000
0000
0000
0000
0000
0000
0000
M000
0000
0000
0000
0000
0000
0000
0000
000M
0000
0000
0000
0000
0000
M000
0000
0000
0000
0000
0000
000M
0000
0000
0000
0000
0000
M000
0000
0000
0000
0000
0000
000M
0000
0000
0000
0000
0000
M000
0000
0000
0000
0000
0000
000M
0000
0000
0000
0000
0000
M000
0000
0000
0000
0000
0000
000M
0000
0000
0000
M000
0000
0000
0000
000M
0000
0000
0000
M000
0000
0000
0000
000M
0000
0000
0000
M000
0000
0000
0000
000M
0000
0000
M000
0000
0000
000M
0000
0000
M000
0000
0000
033M
0000
0000
M000
0000
0000
000M
0000
0000
M000
0000
0000
,
0000
00M0
0M00
000M
M000
00M0
0M00
000M
M0M0
0M00
000M
M000
00M0
0M00
000M
0000
;
