#TITLE:Violent Emotion;
#SUBTITLE:Phantom Brave (2004);
#ARTIST:Tenpei Sato;
#TITLETRANSLIT:;
#SUBTITLETRANSLIT:;
#ARTISTTRANSLIT:;
#CREDIT:;
#BANNER:Violent Emotion.jpg;
#BACKGROUND:Violent Emotion-bg.jpg;
#LYRICSPATH:;
#CDTITLE:!yesssss-cdtitle.png;
#MUSIC:Violent Emotion.mp3;
#OFFSET:-0.304;
#SAMPLESTART:67.460;
#SAMPLELENGTH:12.000;
#SELECTABLE:YES;
#BPMS:0.000=137.980;
#STOPS:;
#BGCHANGES:;
// cache tags:
#FIRSTBEAT:4.000;
#LASTBEAT:316.000;
#SONGFILENAME:Songs/VGMP 3/Violent Emotion (Yesssss)/Violent Emotion.sm;
#HASMUSIC:1;
#HASBANNER:1;
#MUSICLENGTH:142.994;
// end cache tags

//---------------dance-single - ----------------
#NOTES:
     dance-single:
     :
     Hard:
     13:
     1.000,1.000,1.000,0.888,0.762,745.000,204.000,127.000,0.000,17.000:

0000
0000
0000
0000
,
1001
1001
0100
1000
0011
0100
0010
1001
,
0000
0000
0000
0000
0000
0000
0100
0000
0000
0000
0000
0000
0021
0000
0000
0000
0000
0000
0030
0000
0000
0000
0000
0000
1001
0000
0000
0000
0000
0000
1000
0000
0100
0000
0010
0000
0001
0000
0000
0100
0000
0000
0010
0000
0000
0100
0000
0000
,
1001
0000
0010
0000
0101
0000
1010
0000
0100
0000
0011
0100
1010
0000
0100
0000
,
0010
1000
0001
1000
0100
0010
0100
1000
0002
0000
0003
0020
0000
0030
0100
1000
,
0011
1000
0101
1000
0100
0010
0101
0001
,
0200
0300
2000
3000
0102
0003
1000
0100
1000
0000
1000
0100
0010
0001
0010
0100
,
1001
0010
1100
0001
1000
0100
1001
0000
,
0020
0030
0200
0300
0012
0003
2000
3000
0001
0000
1000
0100
0010
0001
1000
0010
,
0101
0000
0000
0010
1000
0000
0110
0000
0001
0000
0000
0100
0001
0000
1000
0000
,
0000
0000
0000
0000
0000
0000
0002
0000
0000
0000
0000
0000
1000
0000
0000
0003
0000
0000
0002
0000
0000
0000
0000
0000
0000
0000
0000
0003
0000
0000
0000
0000
0000
0002
0000
0000
1000
0000
0000
0003
0010
0000
0000
0000
0100
0000
0000
0000
,
1001
0000
0100
0010
1001
0000
1100
0000
0010
0001
0100
0000
1001
0000
1010
0000
,
0100
1000
0100
0010
0001
0010
0100
0010
0100
1000
0001
0100
0010
0000
0100
0000
,
1001
0100
0100
1000
1000
1001
1000
0011
,
0001
0000
0000
0000
0000
0000
0011
0000
0000
1000
0000
0000
0100
0000
0000
0000
0000
0010
0000
0000
0000
0000
0200
0000
0001
0000
0000
0300
0000
0000
1010
0000
0000
0000
0000
0000
1100
0000
0000
0000
0000
0000
0011
0000
0000
0000
0000
0000
,
1000
0000
1010
0000
1100
0000
1100
0000
0100
0000
0101
1000
0010
0000
0110
0000
,
0001
0001
1100
0100
0100
0110
1001
0110
,
0101
0000
0000
0000
0000
0000
1001
0000
0000
0010
0000
0000
0100
0000
0000
0000
0000
0000
0010
0000
0001
0000
0010
0000
0001
0000
0010
0000
0100
0000
1000
0000
0000
0000
0000
0000
1010
0000
0000
0000
0000
0000
1100
0000
0000
0000
0000
0000
,
0011
0010
1001
0110
1000
1100
1001
1010
,
0010
0000
0010
0000
0012
0003
0210
0300
1000
0000
1000
0000
0001
0000
0021
0000
,
0031
0000
0210
0300
1001
0000
0010
0000
0011
0000
1010
0100
1001
0000
1100
0000
,
0011
0100
0101
0010
1010
0110
1001
0011
,
1100
0000
0000
0000
0000
0000
1001
0000
0000
0010
0000
0000
0100
0000
0000
0000
0000
0010
0000
0000
0000
0000
0200
0000
0001
0000
0000
0300
0000
0000
1100
0000
0000
0000
0000
0000
1001
0000
0000
0000
0000
0000
0110
0000
0000
0000
0000
0000
,
0101
0000
0101
0000
1010
0000
0110
0000
1100
0000
0001
0010
1100
0000
0011
0000
,
1010
0000
0000
0100
0000
0000
1100
0000
0000
0100
0000
0000
1002
0000
0003
0000
0020
0000
1030
0000
0100
0000
1000
0000
,
0001
0000
0000
0000
0010
0000
0000
0000
0200
0000
0000
0000
0001
0000
0000
0000
0000
0000
0001
0000
0000
0000
0000
0000
0310
0000
0000
0000
0000
0000
0010
0000
0000
0000
0000
0000
1001
0000
0000
0000
0000
0000
0100
0000
0000
1000
0000
0000
,
0020
0000
0100
0030
1001
0000
0100
1000
0010
0000
2000
0000
0001
0000
3010
0100
,
1010
0000
0101
0000
1100
0000
0000
1000
0001
0000
0100
0000
0001
0010
0100
0000
,
1001
1010
0000
0000
0200
2300
3200
0320
,
0031
0010
0100
1000
0001
0000
0010
1000
0010
0100
0010
0000
0002
2003
3020
0230
,
0320
0030
0000
0000
0200
0000
0320
0000
2030
0000
3200
0000
0302
0000
0203
0000
,
1301
0000
1000
0000
1020
0000
1031
0100
1010
0000
1001
0000
1100
0000
1100
0010
,
1002
0203
0320
2030
3002
0023
0230
2300
,
3011
0100
0010
1000
0001
1100
0101
1010
,
0101
0000
0110
0000
1001
0000
1020
0000
0100
0000
1000
0000
0031
0000
1000
0100
,
0011
0000
0000
0000
0000
0000
0000
0000
0020
0000
0000
0000
1000
0000
0000
0000
0030
0000
0001
0000
0000
0010
0000
0000
0101
0000
0000
0000
0000
0000
0000
0000
0000
0000
0000
0000
1010
0000
0000
0000
0000
0000
0001
0000
0000
0010
0000
0000
,
0100
0000
1000
0000
0101
0000
0010
0000
1001
0000
0000
0200
0001
0300
0010
0000
,
1001
0000
0010
0000
0100
0000
0011
0000
0100
0000
1000
0000
0001
0010
0100
0010
,
1001
0000
0000
0000
0000
0000
0000
0010
0100
0000
0000
0000
0000
0000
0000
0000
1001
0000
0000
0000
0000
0000
0000
0000
0101
0000
0000
0000
0000
0000
0000
0000
0000
0000
0000
0000
0000
0000
0000
0000
1000
0000
0000
0000
0000
0000
0000
0000
0010
0000
0000
0000
0000
0000
0000
0000
0101
0000
0000
0000
0000
0000
0000
0000
,
0000
0000
0000
0000
0000
0000
0000
0000
1010
0000
0000
0000
0000
0000
0000
0000
0110
0000
0000
0000
0000
0000
0000
0000
1001
0000
0000
0000
0000
0000
0000
0000
0000
0000
0000
0000
0000
0000
0000
1000
0001
0000
0000
0000
0000
0000
0000
0000
0110
0000
0000
0000
0000
0000
0000
0000
1001
0000
0000
0000
0000
0000
0000
0000
,
0000
0000
0000
0000
0000
0000
0011
0000
0000
1000
0000
0000
0101
0000
0000
0000
0010
0000
0000
0000
0200
0000
0000
0000
0310
0000
0000
0000
0000
0000
1100
0000
0000
0000
0000
0000
0011
0000
0000
0000
0000
0000
1001
0000
0000
0000
0000
0000
,
1010
0000
1001
1010
0100
1001
0101
0010
,
1100
0000
0100
0000
1001
0000
0011
0000
0001
0010
0100
1000
0001
0100
0010
1000
,
0011
0100
1001
0110
0010
1000
0011
0100
,
0010
0000
0000
0000
0000
0000
0000
0000
1000
0000
0000
0000
0000
0000
0000
0000
0101
0000
0000
0000
0000
0000
0000
0000
0000
0000
0000
0000
0000
0000
0000
0000
0110
0000
0000
0000
0000
0000
0000
0000
0000
0000
0000
0000
1000
0000
0000
0000
0001
0000
0000
0000
0000
0000
0000
0000
0001
0000
0000
0000
0000
0000
0000
0010
,
1000
0000
0000
0000
0000
0000
0000
0000
0001
0000
0000
0000
0000
0000
0000
0000
0001
0000
0000
0000
0000
0000
0000
1000
0001
0000
0000
0000
0000
0000
0000
0000
0010
0000
0000
0000
0000
0000
0000
0000
0010
0000
0000
0000
0000
0000
0000
0001
1000
0000
0000
0000
0000
0000
0000
0000
0100
0000
0000
0000
0000
0000
0000
0000
,
0100
0000
0000
0000
0000
0000
0000
1000
0001
0000
0000
0000
0000
0000
0000
0000
1000
0000
0000
0000
0000
0000
0000
0000
1000
0000
0000
0000
0000
0000
0000
0001
1000
0000
0000
0000
0000
0000
0000
0000
0200
0000
0000
0000
0000
0000
0000
0000
1310
0000
0000
0000
0000
0000
0000
0000
1001
0000
0000
0000
0000
0000
0000
0000
,
0000
0000
0000
0000
0000
0000
0000
0100
0020
0000
0000
0000
0000
0000
0000
0000
0131
0000
0000
0000
0000
0000
0000
0000
1001
0000
0000
0000
0000
0000
0000
0000
0000
0000
0000
0000
0000
0000
0000
0001
0200
0000
0000
0000
0000
0000
0000
0000
1310
0000
0000
0000
0000
0000
0000
0000
1001
0000
0000
0000
0000
0000
0000
0000
,
0000
0000
0000
0000
0000
0000
1001
0000
0000
0100
0000
0000
1010
0000
0000
0000
0001
0000
0000
0000
0020
0000
0000
0000
0130
0000
0000
0000
0000
0000
1001
0000
0000
0000
0000
0000
0100
0000
0000
0000
0000
0000
0100
0000
0000
1000
0000
0000
,
0011
0000
0000
0000
0110
0000
1002
0000
0013
0000
0102
0000
1013
0000
0100
1000
,
0011
0000
0000
0000
0000
0000
0001
0000
0100
0000
0001
0000
0100
0000
0001
0000
0100
0000
0000
0000
0000
0000
0000
0000
0002
0000
0000
0000
0000
0000
1003
0000
0000
0200
0000
0000
0010
0000
0000
0300
0000
0000
1010
0000
0000
0000
0000
0000
,
1001
0000
0100
0000
0010
0000
1001
0000
0010
0000
0100
0000
1010
0000
0010
0100
,
1001
0000
0000
0000
0000
0000
1000
0000
0100
0000
0010
0000
0002
0000
0000
0003
0000
0000
0000
0000
0000
0000
0000
0000
0002
0000
0000
0000
0000
0000
0000
0000
0000
0023
0000
0000
0000
0000
0000
0030
0100
0000
0000
0000
1000
0000
0000
0000
,
0001
0000
0000
0000
0000
0100
0000
0000
0000
0000
1000
0000
0001
0000
0000
0000
0000
0000
0100
0000
0000
0000
0000
0000
1001
0000
0000
0000
0000
0000
0000
0000
0000
0000
0000
0000
0011
0000
0000
0000
0000
0000
0100
0000
0000
0000
0000
0000
,
0000
0000
1000
0100
0021
0030
0100
0100
0001
1000
0100
0000
0010
0000
1000
0000
,
0011
0100
1010
0010
0101
0000
1010
0101
,
0000
0000
0000
0000
0000
0000
0101
0000
0000
0000
0000
0000
1020
0000
0000
0030
0000
0000
1000
0000
0000
1000
0000
0000
0001
0000
0000
0001
0000
0000
1000
0000
0000
0001
0000
0000
0000
0100
0000
0000
0000
0010
0000
0000
0000
1000
0000
0000
,
0000
0010
0000
0000
0000
0100
0000
0000
0000
0001
0000
0000
0000
0010
0000
0000
0000
0100
0000
0000
0000
1000
0000
0000
0000
0100
0000
0000
0000
0010
0000
0000
0000
0200
0000
0000
0000
0000
0000
0000
0000
0000
0000
0000
0000
0000
0000
0000
,
0000
0000
0001
0000
0000
0000
1000
1000
0010
0000
0010
0300
0002
0003
0002
0000
,
1000
0000
0000
0003
0000
0000
0001
0000
0000
0010
0000
0000
0100
0000
0000
0000
0000
0000
0100
0000
0000
0000
0000
0000
0010
0000
0000
0000
0001
0000
0000
0000
0010
0000
0000
0000
0100
0000
0000
0000
0010
0000
0000
0000
0200
0000
0000
0000
,
0000
0000
0000
0000
0300
0000
0012
0000
0000
0000
0000
0000
1003
0000
0000
0010
0000
0000
0100
0000
0000
0010
0000
0000
1002
0000
0000
0000
0000
0000
0003
0000
0002
0000
0000
0000
0000
0000
0003
0000
0002
0000
0000
0000
0000
0000
0003
0000
,
0020
0000
0031
1000
0001
1000
0010
0100
0010
1000
0001
0100
0010
1000
0010
0100
,
0001
0100
1000
0010
0100
0001
0100
0010
1000
0000
1200
0000
0300
0000
0020
0000
,
1000
0000
0000
0000
0000
0000
0032
0000
0000
0000
0000
0000
2103
0000
0000
0000
0000
0000
3002
0000
0000
0000
0000
0000
0123
0000
0000
0000
0000
0000
0130
0000
0000
1000
0000
0000
0001
0000
0000
0000
0010
0000
0000
0000
0100
0000
0000
0000
,
1000
0010
0100
0001
0010
0100
0010
2000
3200
0320
0130
0010
,
1002
0000
0000
0000
0023
0000
1000
0000
0031
0000
0100
0000
2010
0000
3000
0000
0000
0000
1010
0000
0000
0101
0000
0000
,
0000
0000
0000
0000
0000
0000
0000
0010
0000
0100
0000
0010
0000
0100
0000
0010
0000
0100
0000
0010
0000
0100
0000
0010
0000
0200
0000
0000
0000
0000
0300
0000
0000
0200
0000
0000
0000
0000
0000
0300
0000
0000
0000
0200
0000
0000
0000
0000
,
1302
0003
0002
0003
1002
0003
0210
0300
0200
0300
0200
0300
1020
0030
0102
0003
,
0002
0003
0102
1003
0102
0003
1002
0003
1002
0003
0002
0003
0102
0003
0012
0003
,
1001
0010
0100
0001
1000
0010
0100
0010
1000
0001
0100
0002
,
1000
0003
0020
1031
0020
0030
0120
0030
0020
0031
1000
0001
,
0100
0000
0000
0000
0010
0000
0000
0000
2000
0000
0000
0000
0002
0000
0000
0003
0000
0000
0200
0000
0000
0300
0000
0000
3010
0000
0000
0000
0000
0000
0200
0000
0000
0000
0000
0000
0321
0000
0000
0000
0000
0000
0230
0000
0000
0000
0000
0000
,
1302
0000
0000
0000
0000
0000
0103
0000
0000
0010
0000
0000
0001
0000
0000
0000
0010
0000
0000
0000
0100
0000
0000
0000
1010
0000
0000
0100
0000
0000
1001
0000
0000
0000
0000
0000
0001
0000
0000
1000
0000
0000
0000
0000
0100
0000
0010
0000
,
0001
0000
0001
1000
0100
0010
0001
0100
0010
1000
0100
0010
0001
0100
0010
1000
,
0010
0000
0000
0100
0000
0000
0010
0000
0000
1000
0000
0000
0001
0000
0000
1000
0000
0000
0100
0000
0000
0010
0000
0000
0001
0000
0000
0000
0000
0000
2000
0000
0000
0000
0000
0000
0001
0000
0000
0000
3200
0000
0000
0000
0000
0000
0000
0000
,
0321
0000
0000
0000
1000
0030
0020
0000
1000
0030
0210
0000
1302
0000
0123
0000
,
0030
0000
0000
1000
0010
0100
0001
0000
0000
0100
0000
0000
0010
0000
0000
1000
0000
0000
0101
0000
0000
2000
0000
0000
,
3100
0010
0001
0010
0100
1000
0010
1000
0001
0100
0001
1000
0001
0010
0100
0010
,
2001
0000
0000
0000
0000
0000
0000
0000
0000
0000
0000
0000
0000
0000
0000
0000
0000
0000
0000
0000
0000
0000
0000
0000
0000
0000
0000
0000
0000
0000
0000
0000
0000
0000
0000
0000
0000
0000
0000
0000
0000
0000
0000
0000
0000
0000
0000
0000
0000
0000
0000
0000
0000
0000
0000
0000
0000
0000
0000
0000
0000
0000
0000
0000
0000
0000
0000
0000
0000
0000
0000
0000
0000
0000
0000
0000
0000
0000
0000
0000
0000
0000
0000
0000
3000
0000
0000
0000
0000
0000
0000
0000
0000
0100
0000
0000
0010
0000
0000
0000
0000
0000
0000
0000
0000
0000
0000
0000
0000
0000
0000
0000
0000
0000
0000
0000
0000
0000
0000
0000
0001
0000
0000
0000
0000
0000
0000
0000
0100
0000
0000
0000
0000
0000
0000
0000
0010
0000
0000
0000
0000
0000
0000
0000
1000
0000
0000
0000
0000
0000
0000
0000
0000
0000
0000
0000
0000
0000
0000
0000
0000
0000
0000
0000
0000
0000
0000
0000
0200
0000
0000
0000
0000
0000
0000
0000
0000
0000
0000
0000
0000
0000
0000
0000
0000
0000
0000
0000
0000
0000
0000
0000
,
1301
0000
0000
0000
;

//---------------dance-single - Copied from----------------
#NOTES:
     dance-single:
     Copied from:
     Challenge:
     13:
     1.000,1.000,1.000,0.986,0.860,783.000,316.000,141.000,0.000,97.000:


0000
0000
0000
0000
,
1011
1011
0100
1000
0011
0100
0010
1001
,
0000
0000
0000
0000
0000
0000
0100
0000
0000
0000
0000
0000
0021
0000
0000
0000
0000
0000
0030
0000
0000
0000
0000
0000
1001
0000
0000
0000
0000
0000
1100
0000
0011
0000
1100
0000
0011
0000
0000
1100
0000
0000
0011
0000
0000
0110
0000
0000
,
1001
0000
0010
0000
0101
0000
1010
0000
0100
0000
0011
0110
1010
0000
0100
0000
,
0010
0001
0010
1000
0101
0010
0100
1000
0002
0000
0003
0020
0000
0030
0100
1000
,
0021
0000
1000
0000
0101
0000
2030
0000
0010
0000
0001
0000
3102
0003
0002
0000
,
0200
0300
2000
3000
0120
0030
1000
0100
1000
0000
1000
0100
1013
0001
0010
0100
,
1002
1000
1103
0020
1000
0130
2011
0000
,
0020
0030
0200
0300
0012
0003
0200
0300
3001
0000
1000
0100
1010
0001
0110
1000
,
0102
0000
0003
0020
1001
0030
1200
0300
0020
0000
1030
0200
0011
0300
2000
0000
,
0010
0000
0000
3000
0000
0000
0012
0000
0000
0000
0000
0000
1100
0000
0000
0003
0000
0000
0102
0000
0000
0000
0000
0000
1000
0000
0000
0003
0000
0000
0100
0000
0000
0002
0000
0000
1100
0000
0000
0003
0010
0000
0000
0000
0100
0000
0000
0000
,
1011
0000
0100
0010
1001
0000
1101
0000
0010
0001
0100
0000
1011
0000
1110
0000
,
0100
0001
1100
0010
0001
1010
0100
0010
0101
1000
0001
0110
1001
0000
0100
0000
,
1011
0100
0100
1000
1000
1001
1000
0011
,
0001
0000
0000
0000
0000
0000
0011
0000
0000
1000
0000
0000
0101
0000
0000
0000
0000
0010
0000
0000
0000
0000
0200
0000
0001
0000
0000
0300
0000
0000
1010
0000
0000
0000
0000
0000
1110
0000
0000
0000
0000
0000
0011
0000
0000
0000
0000
0000
,
1000
0000
1010
0000
1100
0000
1100
0000
0100
0000
0101
1000
0010
0000
0110
0000
,
0001
0001
1110
0100
0100
0110
1011
0101
,
0011
0000
0000
0000
0000
0000
1001
0000
0000
0010
0000
0000
1100
0000
0000
0000
0000
0000
1010
0000
0001
0000
0010
0000
1001
0000
0010
0000
0100
0000
1000
0000
0000
0000
0000
0000
1010
0000
0000
0000
0000
0000
1100
0000
0000
0000
0000
0000
,
0011
0010
1101
0110
1000
1100
1011
1010
,
0010
0000
0010
0000
0012
0003
0210
0300
1000
0000
1000
0000
0001
0000
0021
0000
,
0031
0000
0210
0300
1011
0000
0010
0000
0011
0000
1010
0110
1001
0000
1100
0000
,
0111
0100
0101
0010
1010
0110
1011
0011
,
1100
0000
0000
0000
0000
0000
1001
0000
0000
0010
0000
0000
0101
0000
0000
0000
0000
0010
0000
0000
0000
0000
0200
0000
0001
0000
0000
0300
0000
0000
1100
0000
0000
0000
0000
0000
1011
0000
0000
0000
0000
0000
0110
0000
0000
0000
0000
0000
,
0101
0000
0101
0000
1010
0000
0110
0000
1100
0000
1001
0010
1101
0000
0011
0000
,
1010
0000
0000
0100
0000
0000
1100
0000
0000
0100
0000
0000
1002
0000
0003
0000
0020
0000
1031
0000
0100
0000
1000
0000
,
0101
0000
0000
0000
0010
0000
0000
0000
0200
0000
0000
0000
0001
0000
0000
0000
0000
0000
0001
0000
0000
0000
0000
0000
0310
0000
0000
0000
0000
0000
0010
0000
0000
0000
0000
0000
1001
0000
0000
0000
0000
0000
0010
0000
0000
0001
0000
0000
,
0120
0000
0100
0030
1001
0000
0010
0001
0110
0000
2000
0000
0011
0000
3010
0100
,
1010
0000
0101
0000
1100
0000
0000
1100
0011
0000
0100
0000
0001
0010
0100
0000
,
1011
1110
0000
0000
0200
2300
3200
0320
,
0031
0010
0100
1000
0002
0000
0010
1000
0010
0100
0013
0000
0002
2003
3020
0230
,
2300
3000
0000
0000
0200
0000
0320
0000
2030
0000
3200
0000
0302
0000
0203
0000
,
1301
0000
1000
0000
1020
0000
1031
0100
1010
0000
1001
0000
1100
0000
1100
0010
,
1002
0203
0320
2030
3002
0023
0230
2300
,
3011
0100
0010
1000
0001
1100
0101
1010
,
0101
0000
0110
0000
1001
0000
1020
0000
0100
0000
1000
0000
0031
0010
1100
0110
,
1011
0000
0000
0000
0000
0000
0000
0000
0020
0000
0000
0000
1100
0000
0000
0000
0030
0000
0001
0000
0000
0010
0000
0000
0101
0000
0000
0000
0000
0000
0000
0000
0000
0000
0000
0000
1010
0000
0000
0000
0000
0000
0001
0000
0000
0010
0000
0000
,
0100
0000
1000
0000
0101
0000
0010
0000
1001
0000
0000
0200
0011
0300
0010
0000
,
1101
0000
0101
0000
1010
0000
1110
0000
1001
0000
1010
0000
1001
0011
1100
0010
,
1101
0000
0000
0000
0000
0000
0000
0010
1100
0000
0000
0000
0000
0000
0000
0000
1011
0000
0000
0000
0000
0000
0000
0000
1111
0000
0000
0000
0000
0000
0000
0000
0000
0000
0000
0000
0000
0000
0000
0000
1000
0000
0000
0000
0000
0000
0000
0000
0010
0000
0000
0000
0000
0000
0000
0000
0101
0000
0000
0000
0000
0000
0000
0000
,
0000
0000
0000
0000
0000
0000
0000
0000
1010
0000
0000
0000
0000
0000
0000
0000
1110
0000
0000
0000
0000
0000
0000
0000
1101
0000
0000
0000
0000
0000
0000
0000
0000
0000
0000
0000
0000
0000
0000
1000
0011
0000
0000
0000
0000
0000
0000
0000
0111
0000
0000
0000
0000
0000
0000
0000
1111
0000
0000
0000
0000
0000
0000
0000
,
0000
0000
0000
0000
0000
0000
0011
0000
0000
1000
0000
0000
0101
0000
0000
0000
0010
0000
0000
0000
0200
0000
0000
0000
0310
0000
0000
0000
0000
0000
1100
0000
0000
0000
0000
0000
0011
0000
0000
0000
0000
0000
1001
0000
0000
0000
0000
0000
,
1010
0000
1001
1010
0100
1001
1101
0010
,
1100
0000
0100
0000
1101
0000
0011
0000
0001
0010
0101
1000
0011
0100
0010
1000
,
0111
0100
1001
0110
0010
1000
0011
0100
,
0010
0000
0000
0000
0000
0000
0000
0000
1000
0000
0000
0000
0000
0000
0000
0000
0101
0000
0000
0000
0000
0000
0000
0000
0000
0000
0000
0000
0000
0000
0000
0000
0110
0000
0000
0000
0000
0000
0000
0000
0000
0000
0000
0000
1010
0000
0000
0000
0101
0000
0000
0000
0000
0000
0000
0000
0001
0000
0000
0000
0000
0000
0000
0010
,
1100
0000
0000
0000
0000
0000
0000
0000
0001
0000
0000
0000
0000
0000
0000
0000
0001
0000
0000
0000
0000
0000
0000
1000
0011
0000
0000
0000
0000
0000
0000
0000
0010
0000
0000
0000
0000
0000
0000
0000
0010
0000
0000
0000
0000
0000
0000
0001
1100
0000
0000
0000
0000
0000
0000
0000
0100
0000
0000
0000
0000
0000
0000
0000
,
0100
0000
0000
0000
0000
0000
0000
1000
0011
0000
0000
0000
0000
0000
0000
0000
1000
0000
0000
0000
0000
0000
0000
0000
1000
0000
0000
0000
0000
0000
0000
0001
1100
0000
0000
0000
0000
0000
0000
0000
0200
0000
0000
0000
0000
0000
0000
0000
1310
0000
0000
0000
0000
0000
0000
0000
1011
0000
0000
0000
0000
0000
0000
0000
,
0000
0000
0000
0000
0000
0000
0000
0100
0020
0000
0000
0000
0000
0000
0000
0000
0131
0000
0000
0000
0000
0000
0000
0000
1011
0000
0000
0000
0000
0000
0000
0000
0000
0000
0000
0000
0000
0000
0000
0001
1200
0000
0000
0000
0000
0000
0000
0000
1311
0000
0000
0000
0000
0000
0000
0000
1111
0000
0000
0000
0000
0000
0000
0000
,
0000
0000
0000
0000
0000
0000
1001
0000
0000
0100
0000
0000
1010
0000
0000
0000
0001
0000
0000
0000
0020
0000
0000
0000
0130
0000
0000
0000
0000
0000
1011
0000
0000
0000
0000
0000
0100
0000
0000
0000
0000
0000
0110
0000
0000
1010
0000
0000
,
1001
0000
0000
0000
0110
0000
1002
0000
0013
0000
0102
0000
1013
0000
0100
1000
,
0011
0000
0000
0000
0000
0000
0001
0000
0100
0000
0001
0000
1100
0000
0001
0000
0100
0000
0000
0000
0000
0000
0000
0000
0002
0000
0000
0000
0000
0000
1003
0000
0000
0200
0000
0000
0011
0000
0000
0300
0000
0000
1010
0000
0000
0000
0000
0000
,
1011
0000
0100
0000
0010
0000
1101
0000
0010
0000
0001
0000
1110
0000
0011
0011
,
1011
0000
0000
0000
0000
0000
0010
0000
0100
0000
1000
0000
0121
0000
0000
0030
0000
0000
0000
0000
0000
0000
0000
0000
0002
0000
0000
0000
0000
0000
0000
0000
0000
0023
0000
0000
0000
0000
0000
0030
0100
0000
0000
0000
1000
0000
0000
0000
,
0011
0000
0000
0000
0000
0100
0000
0000
0000
0000
1000
0000
0011
0000
0000
0000
0000
0000
0100
0000
0000
0000
0000
0000
1001
0000
0000
0000
0000
0000
0000
0000
0000
0000
0000
0000
0011
0000
0000
0000
0000
0000
0100
0000
0000
0000
0000
0000
,
0000
0000
1010
0100
0021
0030
0100
0100
0011
1000
0100
0000
0010
0000
1000
0000
,
0111
0100
1010
0010
0101
0000
1010
0101
,
0000
0000
0000
0000
0000
0000
0101
0000
0000
0000
0000
0000
1020
0000
0000
0030
0000
0000
1000
0000
0000
1000
0000
0000
0011
0000
0000
0011
0000
0000
1000
0000
0000
0001
0000
0000
0000
0100
0000
0000
0000
1000
0000
0000
0000
0010
0000
0000
,
0000
0000
0000
0000
1000
0000
0000
0000
0000
0000
0000
0000
0000
0000
0000
0000
0000
0000
0000
0000
0001
0000
0000
0000
0000
0000
0000
0000
0000
0000
0000
0000
0000
0000
0000
0000
1000
0000
0000
0000
0000
0000
0000
0000
0000
0000
0000
0000
0000
0000
0000
0000
0010
0000
0000
0000
0000
0000
0000
0000
0000
0000
0000
0000
0000
0000
0000
0000
0100
0000
0000
0000
0000
0000
0000
0000
0000
0000
0000
0000
0000
0000
0000
0000
0001
0000
0000
0000
0000
0000
0000
0000
0000
0000
0000
0000
0000
0000
0000
0000
1000
0000
0000
0000
0000
0000
0000
0000
0000
0000
0000
0000
0000
0000
0000
0000
0001
0000
0000
0000
0000
0000
0000
0000
0000
0000
0000
0000
0000
0000
0000
0000
0100
0000
0000
0000
0000
0000
0000
0000
0000
0000
0000
0000
0001
0000
0000
0000
0000
0000
1000
0000
0000
0000
0000
0000
0010
0000
0000
0000
0000
0000
1000
0000
0000
0000
0000
0000
0001
0000
0000
0000
0000
0000
0100
0000
0000
0000
0000
0000
0001
0000
0000
0000
0000
0000
1000
0000
0000
0000
0000
0000
,
0010
0100
0010
1000
0001
0100
0010
0100
0001
0010
0100
1000
0001
0010
0100
1000
0001
0010
0100
1000
0001
0010
0100
1000
0002
0000
0003
0000
0002
0000
0000
0000
,
1100
0000
0000
0003
0000
0000
0001
0000
0000
0010
0000
0000
1000
0000
0000
0000
0000
0000
0100
0000
0000
0000
0000
0000
1010
0000
0000
0000
0001
0000
0000
0000
0010
0000
0000
0000
0100
0000
0000
0000
0010
0000
0000
0000
2000
0000
0000
0000
,
0000
0000
0000
0000
0000
0000
3012
0000
0000
0000
0000
0000
0100
0000
0000
1000
0003
0000
0102
0000
0000
0100
0003
0000
1012
0000
0000
0000
0000
0000
0003
0000
0002
0000
0000
0000
0000
0000
0003
0000
0002
0000
0000
0000
0000
0000
0003
0000
,
0020
0000
0130
1000
0011
1000
0100
0001
0010
1000
0001
0100
1010
0001
0010
1000
,
0010
0100
1010
0101
1010
0100
1000
0100
0011
0000
1210
0000
0300
0000
0020
0000
,
1100
0000
0000
0000
0000
0000
0032
0000
0000
0000
0000
0000
2103
0000
0000
0000
0000
0000
3002
0000
0000
0000
0000
0000
0123
0000
0000
0000
0000
0000
0130
0000
0000
1000
0000
0000
0011
0000
0000
0000
0100
0000
0000
0000
1000
0000
0000
0000
,
0101
0000
0010
0000
0100
0000
0011
0000
1000
0011
0100
0000
0011
0000
2000
0011
3200
0000
1320
0000
0130
0000
0010
0000
,
1102
0000
0000
0000
0023
0000
1000
0000
0031
0000
0100
0000
2010
0000
3000
0000
0000
0000
1110
0000
0000
0111
0000
0000
,
0000
0000
0000
0000
0000
0000
0000
0010
0000
0100
0000
0010
0000
0100
0000
0010
0000
0100
0000
0010
0000
0100
0000
0010
0000
0200
0000
0000
0000
0000
0300
0000
0000
0200
0000
0000
0000
0000
0000
0300
0000
0000
0000
0200
0000
0000
0000
0000
,
1312
0003
0002
0003
1002
0003
0210
0300
0200
0300
0200
0300
1120
0030
0112
0003
,
0002
0003
0102
1003
0102
0003
1012
0003
1012
0003
0002
0003
0102
0003
0012
0003
,
1011
0100
1000
0111
1000
0010
0101
1000
0100
0011
1000
0002
,
1000
0003
0020
1031
0020
0030
0120
0030
0020
1031
0100
1000
,
0110
0000
0000
0000
0001
0000
0000
0000
2000
0000
0000
0000
0012
0000
0000
0003
0000
0000
0200
0000
0000
0300
0000
0000
3010
0000
0000
0000
0000
0000
0200
0000
0000
0000
0000
0000
0321
0000
0000
0000
0000
0000
0230
0000
0000
0000
0000
0000
,
1302
0000
0000
0000
0000
0000
0103
0000
0000
0010
0000
0000
1001
0000
0000
0000
0010
0000
0000
0000
0100
0000
0000
0000
1010
0000
0000
0110
0000
0000
1001
0000
0000
0000
0000
0000
0011
0000
0000
1000
0000
0000
0000
0000
0100
0000
0010
0000
,
1001
0000
0001
1000
0110
0001
0010
0100
1010
0001
0100
1000
0011
0100
0010
0001
,
1010
0000
0000
0100
0000
0000
0010
0000
0000
0001
0000
0000
1010
0000
0000
0001
0000
0000
0100
0000
0000
1000
0000
0000
0011
0000
0000
0000
0000
0000
2000
0000
0000
0000
0000
0000
0011
0000
0000
0000
3200
0000
0000
0000
0000
0000
0000
0000
,
0321
0000
0000
0000
1100
0030
0020
0000
1100
0030
0210
0000
1312
0000
1123
0000
,
0030
0000
0000
1000
0010
0100
0001
0000
0000
0100
0000
0000
0010
0000
0000
1000
0000
0000
0101
0000
0000
2000
0000
0000
,
3101
0000
0000
1000
0000
0000
0001
0000
0100
0010
0000
0000
1000
0000
0000
0100
0001
0000
0010
0000
0000
1000
0000
0000
0110
0000
0000
0001
0000
0000
0100
0000
0010
1000
0000
0000
0001
0000
0000
0010
1000
0000
0100
0000
0000
0010
0000
0000
,
2001
0000
0000
0000
0000
0000
0000
0000
0000
0000
0000
0000
0000
0000
0000
0000
0000
0000
0000
0000
0000
0000
0000
0000
0000
0000
0000
0000
0000
0000
0000
0000
0000
0000
0000
0000
0000
0000
0000
0000
0000
0000
0000
0000
0000
0000
0000
0000
0000
0000
0000
0000
0000
0000
0000
0000
0000
0000
0000
0000
0000
0000
0000
0000
0000
0000
0000
0000
0000
0000
0000
0000
0000
0000
0000
0000
0000
0000
0000
0000
0000
0000
0000
0000
3000
0000
0000
0000
0000
0000
0000
0000
0000
0100
0000
0000
0011
0000
0000
0000
0000
0000
0000
0000
0000
0000
0000
0000
0000
0000
0000
0000
0000
0000
0000
0000
0000
0000
0000
0000
0001
0000
0000
0000
0000
0000
0000
0000
0100
0000
0000
0000
0000
0000
0000
0000
0010
0000
0000
0000
0000
0000
0000
0000
1000
0000
0000
0000
0000
0000
0000
0000
0000
0000
0000
0000
0000
0000
0000
0000
0000
0000
0000
0000
0000
0000
0000
0000
0200
0000
0000
0000
0000
0000
0000
0000
0000
0000
0000
0000
0000
0000
0000
0000
0000
0000
0000
0000
0000
0000
0000
0000
,
1311
0000
0000
0000
;
