#TITLE:Dishevel;
#SUBTITLE:;
#ARTIST:The Flashbulb;
#TITLETRANSLIT:;
#SUBTITLETRANSLIT:;
#ARTISTTRANSLIT:;
#CREDIT:;
#BANNER:dishevel-bn.PNG;
#BACKGROUND:dishevel-bg.PNG;
#LYRICSPATH:;
#CDTITLE:OMEGAspike.PNG;
#MUSIC:08 Dishevel.mp3;
#OFFSET:0.000;
#SAMPLESTART:13.560;
#SAMPLELENGTH:13.940;
#SELECTABLE:YES;
#BPMS:0.000=210.420;
#STOPS:;
#BGCHANGES:;
// cache tags:
#FIRSTBEAT:0.500;
#LASTBEAT:512.000;
#SONGFILENAME:Songs/toune 2/(OMEGAspike)Dishevel/08 Dishevel.sm;
#HASMUSIC:1;
#HASBANNER:1;
#MUSICLENGTH:146.241;
// end cache tags

//---------------dance-single - ----------------
#NOTES:
     dance-single:
     :
     Challenge:
     13:
     1.000,1.000,0.704,0.397,1.000,904.000,103.000,58.000,0.000,8.000:
0000
1001
0000
0000
0000
0000
0000
0000
,
0000
0000
0000
0000
,
0000
0000
0000
0000
,
1000
0000
0100
0000
0010
0000
0001
0000
0010
0000
0100
0000
,
1000
0100
0010
0001
0010
0100
1000
0100
,
0010
0001
0010
0100
1000
0100
0010
0001
0010
0100
1000
0100
,
0010
0001
0010
0100
1000
0100
0010
0001
0010
0100
1000
0100
0010
0001
0010
0100
,
2000
0000
0000
0000
,
3200
0000
0000
0000
0000
0000
0320
2030
,
3002
0000
0000
0000
,
0203
0000
0320
2030
0000
0000
0000
0000
,
0000
3020
0031
0000
0000
0000
0000
0000
,
0000
0000
0000
0000
,
0000
0000
0000
0000
,
1001
1001
1001
0000
0000
0000
0000
0000
,
0000
0000
0000
0000
,
0000
0000
0000
0000
,
1010
1010
1010
0000
0000
0000
0010
0010
,
1100
0000
0000
0000
0001
0100
0010
1000
0100
0000
0000
0000
0000
0000
0000
0000
,
0001
0010
0100
1000
0100
0010
0001
0010
,
0100
0000
0000
0000
1000
0000
0000
0000
0100
0000
0000
0000
0010
0000
0000
0000
0001
0000
0000
0000
0100
0000
0000
0000
0010
0000
0000
0000
1000
0000
0000
0000
0001
0000
0000
0000
0100
0000
0000
0010
0000
0000
1000
0000
0000
0010
0000
0000
,
0100
0001
0010
0100
1000
0100
0010
0001
1000
0000
0000
0000
0010
0000
0001
0000
,
0000
0000
0000
0000
1000
0100
0000
0000
0000
0000
0000
0000
0001
0000
0100
0000
,
0020
0000
0000
1030
,
0000
0000
0000
0000
1000
0010
0100
0001
,
0000
0000
1000
0100
0010
0001
0000
0000
,
0010
0100
1000
0010
0000
0000
0100
0001
,
1000
0100
0000
0000
0010
0001
0100
0010
,
0000
0010
1000
0100
0010
0001
0000
0001
,
0010
0100
1000
0010
0000
0010
0100
0001
,
1000
0100
0000
0010
0001
0100
0010
0100
,
0000
0001
0010
0100
1000
0100
0000
0010
,
0100
1000
0010
0100
0000
0010
0100
0001
,
0010
0100
0000
0010
1000
0001
0100
0001
,
1100
0000
0000
0000
0000
0000
0001
0010
0100
1000
0000
0000
0011
0000
0000
1000
0000
0000
0100
0000
0000
0010
0000
0000
,
1001
0000
0100
0000
0010
0000
0001
0010
0100
0000
1000
0011
0000
0000
0100
0000
,
1010
0000
0000
0000
0000
0000
0101
0000
0000
0000
0000
0000
1001
0000
0000
0000
0110
0000
0000
0000
1000
0000
0100
0000
0010
0000
0000
0000
0001
0000
0000
1000
,
0100
0000
0010
0000
0001
0000
0100
0010
1000
0000
0002
0000
0000
0000
0000
0000
,
1103
0000
0000
0000
0000
0000
0000
0000
0000
0110
0000
0000
0000
0000
0000
0000
0000
0000
0101
0000
0000
0000
0000
0000
1000
0000
0000
0000
0000
0000
0100
0000
0000
0000
0000
0000
0010
0000
0000
0000
0000
0000
0001
0000
0100
0000
0010
0000
,
1000
0000
0010
0100
0000
0000
0010
0100
1000
0000
0010
0000
0100
0000
1001
0000
,
0101
0000
1001
0000
0010
0000
0100
0000
1000
0100
0010
0000
0001
0000
0110
0000
,
1100
0000
0000
0000
0001
0000
0000
0000
0010
0000
0000
0000
0100
0000
1000
0000
0100
0000
0010
0000
0001
0000
0000
0000
0010
0100
2000
0000
0000
0000
0000
0000
,
3101
0000
0000
0000
0101
0000
0000
0000
1010
0000
0000
0000
0001
0100
0010
1000
,
0110
0000
1000
0001
0100
0000
1000
0000
0101
0000
0000
0000
1001
0000
0000
0000
,
0020
0000
0130
0001
0100
0000
0010
1000
0010
1000
0010
1000
0200
0000
0000
0000
,
0301
0000
0000
0000
0000
0000
0000
0000
0000
0010
0000
0000
0000
0000
0000
0000
0000
0000
0100
0000
0000
0000
0000
0000
1000
0000
0100
0000
0010
0000
0001
0000
0010
0000
0100
0000
2000
0000
0000
0000
0000
0000
0000
0000
0000
0000
0000
0000
,
3010
0000
0100
0000
0001
0100
0010
0000
1000
0100
0010
0001
1010
0000
0000
1010
,
0000
0000
1010
0000
0000
0101
0000
0000
1000
0100
0010
0000
0010
0100
1000
0000
,
0010
0000
0100
0001
0100
0000
0010
1000
0100
0010
0001
0000
0100
0010
0001
0010
,
0100
0000
0000
0000
0000
0000
1000
0000
0100
0000
0010
0000
0001
0000
0010
0000
0100
0000
1000
0000
0000
0000
0000
0000
0100
0000
0000
0001
0000
0000
0100
0000
0000
0001
0000
0000
0020
0000
0000
0000
0000
0000
0000
0000
0000
0000
0000
0000
,
0130
1000
0001
0100
0010
0000
0100
0010
1000
0100
0010
0000
0101
0000
0101
0000
,
0101
0000
0101
0000
0011
1000
0100
0000
0010
0001
1000
0100
0020
0000
0000
0000
,
1030
0000
0100
0000
0010
0000
0001
0000
0010
0000
0100
0000
1000
0000
0010
0000
0100
0000
0001
0000
1000
0000
0100
0000
0010
0000
0001
0000
0010
0000
0100
0000
1000
0000
0010
0000
0100
0000
0001
0000
1000
0000
0010
0000
0000
0100
0000
0000
,
0010
0100
0010
0100
0010
0100
0010
0000
0100
0000
0010
0000
0000
1100
0000
0000
,
0001
0100
0010
1000
0100
0010
0000
0001
0010
0100
1000
0001
0020
0000
0130
0000
,
1000
0000
0010
0000
0001
0010
0100
0000
1000
0001
0100
0010
2000
0000
0000
0000
,
3110
0000
0000
0000
0110
0000
0000
0000
0001
0010
0100
0000
0100
0010
0001
0000
,
1100
0000
0000
0000
1010
0000
0000
0000
0101
0010
1000
0000
0110
0001
1000
0100
,
0011
0000
0110
0000
1010
0000
0001
0000
1010
0000
1010
0000
0100
0010
0100
0010
,
0100
0001
0100
0000
0001
0100
0001
0000
0100
0001
0100
0000
0001
0100
0001
0000
,
1000
0100
0011
0000
1000
0100
0011
0000
1000
0100
0011
0000
1000
0100
0011
0000
,
0100
0000
1000
0000
0010
0000
0000
0000
0100
0000
0001
0000
0010
0000
0000
0000
0100
0000
1000
0000
0010
0000
0000
0000
1000
0100
0010
0001
1000
0010
0100
0001
,
1000
0000
0000
0000
0010
0000
0000
0000
0100
0000
0001
0000
0010
0100
1000
0001
,
0010
0000
0100
0000
1000
0000
0100
0000
0010
0000
0100
0000
1000
0000
0001
0000
0100
0000
0010
0000
0000
1000
0000
0000
,
0100
0010
0001
0010
0100
0000
2000
0000
,
3000
0000
0000
0000
,
0000
0000
0000
0000
,
0000
0000
0000
0000
,
0000
0000
0000
0000
,
0000
0000
0000
0000
1000
0000
0100
0000
0010
0000
0001
0010
0100
1000
0010
0000
,
0100
0000
0000
0000
0010
0000
0100
0001
0100
0000
0010
1000
0100
0010
0001
0000
,
1010
0000
1010
0000
0100
0000
1000
0000
0010
0000
0100
0001
0100
0001
0100
0000
,
0010
0000
0000
0000
0100
1000
0100
1000
0010
0000
0010
0000
0101
0000
0101
0000
,
1010
0000
1010
0000
0001
0000
0010
0000
0100
0000
1000
0100
0010
0100
1000
0000
,
0101
0000
0000
0000
1000
0000
0010
0100
0001
0000
0010
0000
0100
0010
0100
0010
,
1000
0010
1000
0000
0101
0000
0010
0000
1000
0000
0100
0000
0010
0100
0010
0100
,
0010
0000
0001
0000
1100
0000
0000
1100
0000
0000
1100
0000
0010
0100
0010
0100
,
0001
0000
0010
0000
0100
0000
1000
0000
0001
0000
0100
0000
0010
0000
0000
1000
0000
0000
0100
0000
0000
0000
0000
0000
0010
0000
0000
0000
0000
0000
0001
0000
0000
0010
0000
0000
0100
0000
0000
1000
0000
0000
0010
0000
0000
0000
0000
0000
,
0100
1000
0001
0000
1100
0000
1100
0000
0010
0000
0001
0010
0100
0000
1000
0100
,
0010
0100
0010
0100
0010
0000
0001
0000
0100
0000
0010
1000
0001
0100
0010
0000
,
1000
0000
0100
0000
0010
0000
0001
0000
0010
0000
0100
0000
1000
0000
0000
0010
0000
0000
0100
0000
0000
0000
0000
0000
0020
0000
0000
0000
0000
0000
1130
0000
0000
0000
0000
0000
1100
0000
0000
0000
0000
0000
1100
0000
0000
0000
0000
0000
,
0010
0000
0000
0000
0000
0000
0101
0000
0000
0000
0000
0000
0010
0000
0000
1000
0000
0000
0010
0000
0000
1000
0000
0000
0001
0000
0000
0000
0000
0000
0010
0000
0000
0000
0000
0000
0100
0000
1000
0000
0010
0000
0100
0000
0001
0000
0010
0000
,
0200
0000
0000
0000
0310
1000
0001
0000
0100
0000
0010
0000
1000
0100
0010
0001
,
0100
0010
1000
0001
0110
0000
0000
1100
0000
0000
0101
0000
0020
0000
0000
0000
,
0230
0000
0300
0000
0020
0000
0000
2030
0000
0000
3101
0000
0000
1001
0000
0000
,
1000
0000
0010
0000
0100
0000
0001
0000
1000
0000
0100
0000
0011
0000
0000
0000
0000
0000
0000
0000
0000
0110
0000
0000
0000
0000
0000
0000
0000
0000
1010
0000
0000
0000
0000
0000
0200
0000
0000
0000
0000
0000
0000
0000
0000
0000
0000
0000
,
0310
0000
0000
0000
0100
0000
0100
0000
0100
0010
0100
0000
1010
0000
1010
0000
,
0100
0000
0000
0000
0000
0000
0000
0000
0001
0000
0000
0000
0000
0000
0000
0000
0010
0000
0000
0000
0000
0000
0000
0000
0100
0000
0000
0000
0000
0000
0000
0000
1000
0000
0000
0000
0000
0000
0000
0000
0100
0000
0000
0000
0000
0000
0000
0000
0010
0000
0000
0000
0000
0000
0000
0000
0001
0000
0000
0000
0000
0000
0000
0000
0010
0000
0000
0000
0000
0000
0000
0000
0100
0000
0000
0000
0000
0000
0000
0000
1000
0000
0000
0000
0000
0000
0000
0000
0100
0000
0000
0000
0000
0000
0000
0000
0010
0000
0000
0000
0000
0000
0000
0000
0001
0000
0000
0000
0000
0000
0000
0000
0100
0000
0000
0000
0000
0000
0000
0000
0010
0000
0000
0000
0000
0000
0000
0000
1000
0000
0000
0000
0000
0000
0000
0000
0001
0000
0000
0000
0000
0000
0000
0000
1000
0000
0000
0000
0000
0000
0100
0000
0000
0000
0000
0000
0010
0000
0000
0000
0000
0000
0001
0000
0000
0000
0000
0000
1000
0000
0000
0000
0000
0000
0100
0000
0000
0000
0000
0000
0010
0000
0000
0000
0000
0000
0001
0000
0000
0000
0000
0000
,
1000
0000
0000
0000
0000
0000
0100
0000
0000
0000
0000
0000
0010
0000
0000
0000
0000
0000
0001
0000
0000
0000
0000
0000
1000
0000
0000
0000
0000
0000
0100
0000
0000
0000
0000
0000
0010
0000
0000
0000
0000
0000
0001
0000
0000
0000
0000
0000
1000
0000
0000
0000
0000
0000
0000
0000
0010
0000
0000
0000
0000
0000
0000
0000
0100
0000
0000
0000
0000
0000
0000
0000
0001
0000
0000
0000
0000
0000
0000
0000
0100
0000
0000
0000
0000
0000
0000
0000
0010
0000
0000
0000
0000
0000
0000
0000
1000
0000
0000
0000
0000
0000
0000
0000
0100
0000
0000
0000
0000
0000
0000
0000
0010
0000
0000
0000
0000
0000
0000
0000
0001
0000
0000
0000
0000
0000
0000
0000
0010
0000
0000
0000
0000
0000
0000
0000
0100
0000
0000
0000
0000
0000
0000
0000
1000
0000
0000
0000
0000
0000
0000
0000
0000
0000
0000
0000
0000
0000
0000
0000
0100
0000
0000
0000
0000
0000
0000
0000
0000
0000
0000
0000
0000
0000
0000
0000
0010
0000
0000
0000
0000
0000
0000
0000
0000
0000
0000
0000
0000
0000
0000
0000
,
0001
1000
0100
0010
0001
1000
0100
0010
0001
0010
0100
1000
,
0010
0100
0001
1000
0001
0100
0010
0100
0001
1000
0100
0010
,
0100
1000
0010
0100
0001
0100
0010
1000
0010
0100
1000
0100
,
0010
0001
0100
0001
0010
0001
1000
0100
1000
0010
1000
0100
,
0010
0000
0001
0000
0010
0000
0100
0000
1000
0000
0001
0000
0100
0000
0010
0000
1000
0000
0100
0010
0001
1000
0100
0010
,
0001
0000
1000
0100
0010
0001
0100
0001
1000
0100
0010
0001
0010
0100
1000
0010
,
0100
0000
0010
0000
1000
0000
0100
0000
0010
0000
0001
0000
0010
0000
0100
0000
0010
0000
0001
0000
1000
0000
0100
0000
1000
0000
0010
0100
0001
0000
0010
0000
,
0100
1000
0010
0100
0001
1000
0100
0010
0001
0010
0100
1000
0100
0010
0001
1000
,
0001
0100
0010
1000
0010
0100
1000
0001
0100
0010
0001
1000
0100
0010
0002
0000
,
0000
0103
0000
0000
0000
0000
0000
0000
,
0000
0000
0000
0000
,
0000
0000
0000
0000
1010
0100
1010
0100
,
1010
0100
1010
0100
0020
0000
0000
0000
,
0130
0001
0100
0010
1100
1100
0020
0000
,
0131
0000
0101
0000
1010
1010
0200
0000
,
0320
0000
0000
0000
0230
0000
0000
0000
0302
0000
0000
0000
0023
0230
0320
0230
,
1310
0000
0000
0000
0000
0000
0000
0000
1010
0000
0000
0000
0000
0000
0000
0000
0100
0010
0001
0000
1100
0000
0000
0000
1010
0000
0000
0000
1100
0000
0000
0000
,
0020
0000
0000
0130
0000
0000
0000
0000
,
0000
0000
0000
0000
0000
0000
0000
0000
0000
0100
0010
0001
1000
0000
0000
0020
0000
0000
0000
0000
0000
0000
0000
0000
,
0000
0000
0000
0000
,
0000
0000
0000
0000
0000
0000
0000
0230
,
0300
0200
0300
0020
0030
0020
0030
2002
,
0000
0000
0000
3003
0000
0000
0000
0000
,
0000
0000
0000
0000
,
0000
0000
0000
0000
,
0000
0000
0000
0000
,
0000
0000
0000
0000
0000
2000
0000
0000
,
0000
0000
0000
0000
0000
0000
0000
3000
,
0000
0200
0000
0000
0000
0302
0000
0000
,
0000
0000
0000
0000
0000
0000
0000
0003
,
0000
2000
0000
0000
0000
3102
0000
0000
,
0000
0000
0000
0000
0000
0000
0000
0003
,
0000
0000
0000
0000
0000
2010
0000
0000
,
0000
0000
0000
0000
0000
0000
0000
3000
,
0000
0000
0000
0000
0000
0220
0000
0000
,
0000
0000
0000
0000
0000
0000
0000
0330
,
0000
0000
0000
0000
0000
2200
0000
0000
,
0000
0000
0000
0000
0000
3300
0000
0000
,
0000
0000
0000
0000
0000
0000
0000
0220
,
0330
0000
0000
0000
;

//---------------dance-single - ----------------
#NOTES:
     dance-single:
     :
     Hard:
     11:
     0.930,1.000,0.294,0.472,0.927,840.000,43.000,69.000,0.000,0.000:
0000
1001
0000
0000
0000
0000
0000
0000
,
0000
0000
0000
0000
,
0000
0000
0000
0000
,
1000
0000
0100
0000
0010
0000
0001
0000
0010
0000
0100
0000
,
1000
0100
0010
0001
0010
0100
1000
0100
,
0010
0001
0010
0100
1000
0100
0010
0001
0010
0100
1000
0100
,
0010
0001
0010
0100
1000
0100
0010
0001
0010
0100
1000
0100
0010
0001
0010
0100
,
2000
0000
0000
0000
,
3200
0000
0000
0000
0000
0000
0320
2030
,
3002
0000
0000
0000
,
0203
0000
0320
2030
0000
0000
0000
0000
,
0000
3020
0031
0000
0000
0000
0000
0000
,
0000
0000
0000
0000
,
0000
0000
0000
0000
,
1001
1001
1001
0000
0000
0000
0000
0000
,
0000
0000
0000
0000
,
0000
0000
0000
0000
,
1010
1010
1010
0000
0000
0000
0010
0010
,
1100
0000
0000
0000
0001
0100
0010
1000
0100
0000
0000
0000
0000
0000
0000
0000
,
0001
0010
0100
1000
0100
0010
0001
0010
,
0100
0000
0000
0000
1000
0000
0000
0000
0100
0000
0000
0000
0010
0000
0000
0000
0001
0000
0000
0000
0100
0000
0000
0000
0010
0000
0000
0000
1000
0000
0000
0000
0001
0000
0000
0000
0100
0000
0000
0010
0000
0000
1000
0000
0000
0010
0000
0000
,
0100
0001
0010
0100
1000
0100
0010
0001
1000
0000
0000
0000
0010
0000
0001
0000
,
0000
0000
0000
0000
1000
0100
0000
0000
0000
0000
0000
0000
0001
0000
0100
0000
,
0020
0000
0000
1030
,
0000
0000
0000
0000
1000
0010
0100
0001
,
0000
0000
1000
0100
0010
0001
0000
0000
,
0010
0100
1000
0010
0000
0000
0100
0001
,
1000
0100
0000
0000
0010
0001
0100
0010
,
0000
0010
1000
0100
0010
0001
0000
0001
,
0010
0100
1000
0010
0000
0010
0100
0001
,
1000
0100
0000
0010
0001
0100
0010
0100
,
0000
0001
0010
0100
1000
0100
0000
0010
,
0100
1000
0010
0100
0000
0010
0100
0001
,
0010
0100
0000
0010
1000
0001
0100
0001
,
1100
0000
0000
0000
0000
0000
0001
0010
0100
1000
0000
0000
0011
0000
0000
1000
0000
0000
0100
0000
0000
0010
0000
0000
,
1001
0000
0100
0000
0010
0000
0001
0010
0100
0000
1000
0011
0000
0000
0100
0000
,
0010
0000
0000
0000
0000
0000
0010
0000
0000
0000
0000
0000
0010
0000
0000
0000
0101
0000
0000
0000
1000
0000
0100
0000
0010
0000
0000
0000
0001
0000
0000
1000
,
0100
0000
0010
0000
0001
0000
0100
0010
1000
0000
0002
0000
0000
0000
0000
0000
,
1003
0000
0000
0000
0000
0000
0000
0000
0000
1000
0000
0000
0000
0000
0000
0000
0000
0000
1000
0000
0000
0000
0000
0000
0001
0000
0000
0000
0000
0000
0100
0000
0000
0000
0000
0000
1000
0000
0000
0000
0000
0000
0001
0000
0100
0000
0010
0000
,
1000
0000
0010
0100
0000
0000
0010
0100
1000
0000
0010
0000
0100
0000
0001
0000
,
0001
0000
0001
0000
0010
0000
0100
0000
1000
0100
0010
0000
0001
0000
0010
0000
,
1100
0000
0000
0000
0001
0000
0000
0000
0010
0000
0000
0000
0100
0000
1000
0000
0100
0000
0010
0000
0001
0000
0000
0000
0010
0100
2000
0000
0000
0000
0000
0000
,
3001
0000
0000
0000
0001
0000
0000
0000
1000
0000
0000
0000
0001
0100
0010
1000
,
0010
0000
1000
0001
0100
0000
1000
0000
0101
0000
0000
0000
1001
0000
0000
0000
,
0020
0000
0130
0001
0100
0000
0010
1000
0010
1000
0010
1000
0200
0000
0000
0000
,
0301
0000
0000
0000
0000
0000
0000
0000
0000
0010
0000
0000
0000
0000
0000
0000
0000
0000
0100
0000
0000
0000
0000
0000
1000
0000
0100
0000
0010
0000
0001
0000
0010
0000
0100
0000
2000
0000
0000
0000
0000
0000
0000
0000
0000
0000
0000
0000
,
3010
0000
0100
0000
0001
0100
0010
0000
1000
0100
0010
0001
1000
0000
0000
1000
,
0000
0000
1000
0000
0000
0001
0000
0000
1000
0100
0010
0000
0010
0100
1000
0000
,
0010
0000
0100
0001
0100
0000
0010
1000
0100
0010
0001
0000
0100
0010
0001
0010
,
0100
0000
0000
0000
0000
0000
1000
0000
0100
0000
0010
0000
0001
0000
0010
0000
0100
0000
1000
0000
0000
0000
0000
0000
0100
0000
0000
0001
0000
0000
0100
0000
0000
0001
0000
0000
0020
0000
0000
0000
0000
0000
0000
0000
0000
0000
0000
0000
,
0130
1000
0001
0100
0010
0000
0100
0010
1000
0100
0010
0000
0001
0000
0010
0000
,
0001
0000
0010
0000
0100
1000
0100
0000
0010
0001
1000
0100
0020
0000
0000
0000
,
2030
0000
3200
0000
0310
0001
0010
0000
0100
1000
0001
0100
0010
0000
0100
0010
,
0100
0010
0100
0010
0100
0010
0100
0000
0010
0000
0100
0000
0000
1100
0000
0000
,
0001
0100
0010
1000
0100
0010
0000
0001
0010
0100
1000
0001
0020
0000
0130
0000
,
1000
0000
0010
0000
0001
0010
0100
0000
1000
0001
0100
0010
2000
0000
3000
0000
,
0110
0000
0000
0000
0110
0000
0000
0000
0001
0010
0100
0000
0100
0010
0001
0000
,
1100
0000
0000
0000
1010
0000
0000
0000
0001
0010
1000
0000
0010
0001
1000
0100
,
0001
0000
0010
0000
1000
0000
0001
0000
1010
0000
1010
0000
0100
0010
0100
0010
,
0100
0001
0100
0000
0001
0100
0001
0000
0100
0001
0100
0000
0001
0100
0001
0000
,
1000
0100
0010
0000
0100
0010
0001
0000
1000
0100
0010
0000
0100
0010
0001
0000
,
0100
1000
0010
0000
0100
0001
0010
0000
0100
1000
0010
0000
2002
0000
0000
0000
,
3003
0000
0000
0000
0010
0000
0000
0000
0100
0000
0001
0000
0010
0100
1000
0001
,
0010
0000
0100
0000
1000
0000
0100
0000
0010
0000
0100
0000
1000
0000
0001
0000
0100
0000
0010
0000
0000
1000
0000
0000
,
0100
0010
0001
0010
0100
0000
2000
0000
,
3000
0000
0000
0000
,
0000
0000
0000
0000
,
0000
0000
0000
0000
,
0000
0000
0000
0000
,
0000
0000
0000
0000
1000
0000
0100
0000
0010
0000
0001
0010
0100
1000
0010
0000
,
0100
0000
0000
0000
0010
0000
0100
0001
0100
0000
0010
1000
0100
0010
0001
0000
,
1010
0000
1010
0000
0100
0000
1000
0000
0010
0000
0100
0001
0100
0001
0100
0000
,
0010
0000
0000
0000
0100
1000
0100
1000
0010
0000
0010
0000
0002
0000
0023
0000
,
0230
0000
2300
0000
3001
0000
0010
0000
0100
0000
1000
0100
0010
0100
1000
0000
,
0101
0000
0000
0000
1000
0000
0010
0100
0001
0000
0010
0000
0100
0010
0100
0010
,
1000
0010
1000
0000
0001
0000
0010
0000
1000
0000
0100
0000
0010
0100
0010
0100
,
0010
0000
0001
0000
0100
0000
0000
0100
0000
0000
0100
0000
0010
0100
0010
0100
,
0001
0000
0010
0000
0100
0000
1000
0000
0001
0000
0100
0000
0010
0000
0000
1000
0000
0000
0100
0000
0000
0000
0000
0000
0010
0000
0000
0000
0000
0000
0001
0000
0000
0010
0000
0000
0100
0000
0000
1000
0000
0000
0010
0000
0000
0000
0000
0000
,
0100
1000
0001
0000
1000
0000
0100
0000
0010
0000
0001
0010
0100
0000
1000
0100
,
0010
0100
0010
0100
0010
0000
0001
0000
0100
0000
0010
1000
0001
0100
0010
0000
,
1000
0000
0100
0000
0010
0000
0001
0000
0010
0000
0100
0000
1000
0000
0000
0010
0000
0000
0100
0000
0000
0000
0000
0000
0020
0000
0000
0000
0000
0000
1030
0000
0000
0000
0000
0000
0100
0000
0000
0000
0000
0000
1000
0000
0000
0000
0000
0000
,
0010
0000
0000
0000
0000
0000
0001
0000
0000
0000
0000
0000
0010
0000
0000
1000
0000
0000
0010
0000
0000
1000
0000
0000
0001
0000
0000
0000
0000
0000
0010
0000
0000
0000
0000
0000
0100
0000
1000
0000
0010
0000
0100
0000
0001
0000
0010
0000
,
0200
0000
0000
0000
0310
1000
0001
0000
0100
0000
0010
0000
1000
0100
0010
0001
,
0100
0010
1000
0001
0010
0000
0000
1000
0000
0000
0001
0000
0020
0000
0000
0000
,
0230
0000
0300
0000
0020
0000
0000
2030
0000
0000
3001
0000
0000
0010
0000
0000
,
1000
0000
0100
0000
0010
0000
0001
0000
1000
0000
0100
0000
0010
0000
0000
0000
0000
0000
0000
0000
0000
0001
0000
0000
0000
0000
0000
0000
0000
0000
1000
0000
0000
0000
0000
0000
0200
0000
0000
0000
0000
0000
0000
0000
0000
0000
0000
0000
,
0310
0000
0000
0000
0100
0000
0100
0000
0100
0010
0100
0000
1000
0000
0001
0000
,
0200
0000
0000
0320
,
0000
0000
0000
0230
0000
0000
0000
0000
0000
0000
0000
0000
0000
0000
0000
0000
0000
0000
1300
0000
0010
0000
0100
0000
,
0001
1000
0100
0010
0001
1000
0100
0010
0001
0010
0100
1000
,
0010
0100
0001
1000
0001
0100
0010
0100
0001
1000
0100
0010
,
0100
1000
0010
0100
0001
0100
0010
1000
0010
0100
1000
0100
,
0010
0001
0100
0001
0010
0001
1000
0100
1000
0010
1000
0100
,
0010
0000
0001
0000
0010
0000
0100
0000
1000
0000
0001
0000
0100
0000
0010
0000
1000
0000
0100
0010
0001
1000
0100
0010
,
0001
0000
0010
0100
1000
0001
0100
0010
1000
0010
0100
0001
1000
0100
1000
0010
,
0100
0001
0010
0001
0100
0010
1000
0100
0010
0001
0010
0100
1000
0010
0100
0001
,
0100
0010
1000
0010
0100
0001
1000
0100
0010
0001
0010
0100
1000
0001
1000
0001
,
0100
0010
0100
0001
1000
0100
0010
0100
1000
0010
0100
0001
1000
0100
0020
0000
,
0000
0031
0000
0000
0000
0000
0000
0000
,
0000
0000
0000
0000
,
0000
0000
0000
0000
1010
0100
1010
0100
,
1010
0100
1010
0100
0020
0000
0000
0000
,
0130
0001
0100
0010
1100
1100
0020
0000
,
0031
0000
0101
0000
1010
1010
0200
0000
,
0320
0000
0000
0000
0230
0000
0000
0000
0302
0000
0000
0000
0023
0230
0320
0230
,
1300
0000
0000
0000
1010
0000
0000
0000
0001
0010
0100
0000
1001
0000
1100
0000
,
0020
0000
0000
0130
0000
0000
0000
0000
,
0000
0000
0000
0000
0000
0000
0000
0000
0000
0100
0010
0001
1000
0000
0000
0020
0000
0000
0000
0000
0000
0000
0000
0000
,
0000
0000
0000
0000
,
0000
0000
0000
0000
0000
0000
0000
0230
,
0300
0200
0300
0020
0030
0020
0030
2002
,
0000
0000
0000
3003
0000
0000
0000
0000
,
0000
0000
0000
0000
,
0000
0000
0000
0000
,
0000
0000
0000
0000
,
0000
0000
0000
0000
0000
2000
0000
0000
,
0000
0000
0000
0000
0000
0000
0000
3000
,
0000
0200
0000
0000
0000
0302
0000
0000
,
0000
0000
0000
0000
0000
0000
0000
0003
,
0000
2000
0000
0000
0000
3002
0000
0000
,
0000
0000
0000
0000
0000
0000
0000
0003
,
0000
0000
0000
0000
0000
2000
0000
0000
,
0000
0000
0000
0000
0000
0000
0000
3000
,
0000
0000
0000
0000
0000
0220
0000
0000
,
0000
0000
0000
0000
0000
0000
0000
0330
,
0000
0000
0000
0000
0000
2200
0000
0000
,
0000
0000
0000
0000
0000
3300
0000
0000
,
0000
0000
0000
0000
0000
0000
0000
0220
,
0330
0000
0000
0000
;
