#TITLE:Tempesta;
#SUBTITLE:;
#ARTIST:REDALiCE;
#TITLETRANSLIT:;
#SUBTITLETRANSLIT:;
#ARTISTTRANSLIT:;
#CREDIT:owenviau1;
#BANNER:../owenviau1 Simfiles 6 (Science X Owen).png;
#BACKGROUND:BG.PNG;
#LYRICSPATH:;
#CDTITLE:;
#MUSIC:REDALiCE - Tempesta.mp3;
#OFFSET:-0.197;
#SAMPLESTART:120.149;
#SAMPLELENGTH:29.999;
#SELECTABLE:YES;
#DISPLAYBPM:176.000;
#BPMS:0.000=176.000;
#STOPS:;
#BGCHANGES:;
// cache tags:
#FIRSTBEAT:0.000;
#LASTBEAT:801.000;
#SONGFILENAME:Songs/owenviau1 Simfiles 6/Tempesta - [owenviau1] v1.0.1/Tempesta.sm;
#HASMUSIC:1;
#HASBANNER:1;
#MUSICLENGTH:280.133;
// end cache tags

//---------------dance-single - 15- (owenviau1)----------------
#NOTES:
     dance-single:
     15- (owenviau1):
     Challenge:
     15:
     1.000,1.000,0.421,0.375,1.000,2405.000,118.000,105.000,124.000,0.000:
1000
0100
0010
0000
0001
0100
0010
0000
1000
0001
0100
0000
0010
1000
0001
0000
,
0100
0010
1000
0000
0001
0100
0010
0000
1000
0100
0010
0000
0001
0100
0010
0000
,
1000
0100
1000
0000
0010
0100
0001
0000
1000
0010
0100
0000
0001
0100
0010
0000
,
1000
0100
0010
0000
0001
0100
0010
0000
1000
0001
0010
0000
0100
1000
0001
0000
,
1000
0100
0010
0000
0001
0100
0010
0000
1000
0001
0100
0000
0010
1000
0001
0000
,
0100
0010
1000
0000
0001
0100
0010
0000
1000
0100
0010
0000
0001
0100
0010
0000
,
1000
0010
1000
0000
0001
0100
0001
0000
1000
0010
0100
0000
0001
0100
0010
0000
,
1000
0100
0010
0000
0001
0100
0010
0000
1000
0001
0010
0000
0100
1000
0001
0000
,
1000
0100
0010
0000
0001
0100
0010
0000
1000
0001
0100
0000
0010
1000
0001
0000
,
0100
0010
1000
0000
0001
0100
0010
0000
1000
0100
0010
0000
0001
0100
0010
0000
,
1000
0100
1000
0000
0001
0100
0001
0000
1000
0010
0100
0000
0001
0100
0010
0000
,
1000
0100
0010
0000
0001
0100
0010
0000
1000
0001
0010
0000
0100
1000
0001
0000
,
1000
0100
0010
0000
0001
0100
0010
0000
1000
0001
0100
0000
0010
1000
0001
0000
,
0100
0010
1000
0000
0001
0100
0010
0000
1000
0100
0010
0000
0001
0100
0010
0000
,
1000
0100
1000
0000
0001
0100
0001
0000
1000
0010
0100
0000
0001
0100
0010
0000
,
1000
0100
0010
0000
0001
0100
0010
0000
1000
0001
0100
0000
0010
1000
0001
0000
,
1000
0100
0010
0001
0100
0010
1000
0001
0010
0001
1000
0100
0010
0001
0100
0010
,
1000
0001
0100
0001
1000
0010
0100
0010
1000
0100
0010
0001
0100
0010
1000
0001
,
0010
0001
0100
0010
1000
0100
0010
0001
1000
0100
1000
0010
0100
0010
1000
0001
,
0100
0001
0010
0100
1000
0100
0010
0001
0100
0010
1000
0001
0100
0001
1000
0010
,
0100
0010
1000
0100
0010
0001
0100
0010
1000
0001
0010
0001
1000
0100
0010
0001
,
0100
0010
1000
0010
0100
0001
0010
0001
1000
0100
1000
0010
0100
0001
0010
0001
,
1000
0100
0010
0001
1000
0001
0010
0100
1000
0010
0100
0010
1000
0001
0100
0001
,
0010
0100
1000
0010
0100
0001
1000
0100
1000
0001
0100
0010
1000
0001
0010
0001
,
1000
0100
0010
0001
0100
0010
1000
0001
0010
0100
1000
0001
0100
0001
1000
0010
,
0100
0001
0010
0100
1000
0001
0010
0001
0100
0010
1000
0100
0010
0001
0100
0010
,
1000
0100
0010
0001
0100
0010
1000
0001
0010
0001
1000
0100
0010
0001
0100
0010
,
1000
0001
0100
0001
1000
0010
0100
0010
1000
0100
0010
0001
0100
0010
1000
0001
,
0010
0001
0100
0010
1000
0100
0010
0001
1000
0100
1000
0010
0100
0010
1000
0001
,
0100
0001
0010
0100
1000
0100
0010
0001
0100
0010
1000
0001
0100
0001
1000
0010
,
0100
0010
1000
0100
0010
0001
0100
0010
1000
0001
0010
0001
1000
0100
0010
0001
,
0100
0010
1000
0010
0100
0001
0010
0001
1000
0100
1000
0010
0100
0001
0010
0001
,
1000
0010
0100
0001
1000
0100
1000
0010
,
0101
1000
0001
0100
0010
1000
0100
0010
,
1001
0100
0010
1000
0100
1000
0001
0100
,
0101
0010
1000
0100
0010
0001
0100
0010
,
1100
0001
0100
0010
1000
0100
0010
0001
,
0110
1000
0001
0100
0001
1000
0010
0100
,
0101
0001
1000
0100
0010
0001
0100
0010
,
1010
1000
0100
0010
0001
1000
0001
0100
,
0110
0010
1000
0100
1000
0001
0010
0001
,
1002
0203
0320
2030
3200
0320
0032
0023
,
1430
0304
4003
3400
4300
3040
0430
0304
,
0143
1030
0400
0310
0004
0103
0040
1030
,
0014
0103
0001
1000
0100
1000
0001
0100
,
1010
0010
1000
0100
0010
0001
1000
0010
,
0101
0100
0001
1000
0100
1000
0010
0100
,
1001
0001
0100
0010
1000
0010
0100
0001
,
1000
0000
0100
0010
0000
0010
0000
0001
,
0000
1000
0001
0000
0100
0000
0010
0000
,
1000
0000
0001
0100
0000
0100
0000
0010
,
0000
1000
0001
0000
0000
1000
0100
0010
,
0001
0000
1000
0010
0000
0010
0000
0100
,
0000
0001
1000
0000
0100
0000
0010
0000
,
0001
0000
1000
0010
0000
0010
0000
0100
,
0000
0001
1000
0100
0000
0000
0000
0000
,
1000
0000
0010
0100
0000
0100
0000
0001
,
0000
1000
0001
0000
0100
0000
0010
0000
,
1000
0000
0001
0100
0000
0100
0000
0010
,
0000
1000
0001
0000
0000
1000
0100
0010
,
0001
0000
1000
0010
0000
0010
0000
0100
,
0000
0001
1000
0000
0100
0000
0010
0000
,
0001
0000
1000
0010
0000
0010
0000
0100
,
0002
0003
0010
0000
0100
0000
1000
0000
0001
0000
0100
0000
0010
0000
1000
0000
0010
0000
0100
0000
0001
0000
1000
0000
0100
0000
0010
0000
0001
0000
0100
0000
,
1001
0010
0101
1000
1100
0001
0110
1000
,
0011
0100
1001
0010
0110
0001
1010
0100
,
1001
0010
0110
1000
0011
0001
1100
0001
,
0110
0100
1001
0100
0011
1000
0110
0001
,
1100
0110
0011
0101
0110
1001
1010
0110
,
0101
1001
0110
1100
0110
0011
0101
0110
,
1000
0100
0010
0001
0100
0010
1000
0001
0100
0001
0010
0100
1000
0001
0100
0010
,
1000
0000
0000
0000
0002
0000
0000
0003
0000
0000
0000
0000
0002
0000
0000
0003
0200
0000
0000
0300
0020
0000
0000
0030
2000
0000
0000
3000
0002
0000
0000
0003
,
1000
0100
0010
0001
0100
0010
1000
0001
0100
0001
1000
0100
0010
0000
MMMM
0000
,
0001
0100
0010
1000
0100
0010
0001
1000
0100
1000
0010
0100
0001
0000
MMMM
0000
,
1000
0010
0100
0010
1000
0001
0010
0001
1000
0100
0010
0001
0100
0000
MMMM
0000
,
0001
1000
0100
1000
0010
0100
0001
1000
0100
0010
0001
0100
0010
0000
MMMM
0000
,
0100
0001
1000
0100
1000
0010
0100
0001
1000
0100
0010
0001
0010
0000
MMMM
0000
,
0100
1000
0001
0100
0001
1000
0010
0100
0001
1000
0100
0010
0001
0000
MMMM
0000
,
1000
0100
1000
0001
0100
0001
1000
0010
0100
0001
1000
0100
0010
0000
MMMM
0000
,
0001
0010
0100
1000
0001
1000
0010
0100
0010
1000
0001
0100
0010
0000
MMMM
0000
,
1000
0100
0010
0001
0100
0010
1000
0001
0100
0001
1000
0100
0010
0000
MMMM
0000
,
0001
0100
0010
1000
0100
0010
0001
1000
0100
1000
0010
0100
0001
0000
MMMM
0000
,
0100
0001
1000
0010
0100
0001
0010
0001
1000
0100
0010
0001
0100
0000
MMMM
0000
,
0001
0100
0010
1000
0010
0100
0001
1000
0100
0010
0001
0100
0010
0000
MMMM
0000
,
0100
0001
1000
0100
1000
0010
0100
0001
1000
0100
0010
0001
0010
0000
MMMM
0000
,
0100
1000
0001
0100
0001
1000
0010
0100
0001
1000
0100
0010
0001
0000
MMMM
0000
,
1000
0100
1000
0001
0100
0001
1000
0010
0100
0001
1000
0100
0010
0000
MMMM
0000
,
0001
0010
0100
1000
0001
1000
0010
0100
0010
1000
0001
0100
0010
1000
0100
0010
,
M001
0100
0010
1000
0001
0010
0001
1000
0100
0010
0001
0100
0010
1000
0001
0100
,
0001
1000
0010
0100
0010
1000
0100
0010
0001
0100
0010
1000
0001
0010
0001
0100
,
0010
1000
0100
0010
0001
1000
0100
1000
0010
0100
0010
1000
0001
0100
0001
0010
,
0100
1000
0100
0010
0001
0100
0010
1000
0001
0100
0001
1000
0010
0100
0010
1000
,
0100
0010
0001
0100
0010
1000
0001
0010
0001
1000
0100
0010
0001
0100
0010
1000
,
0010
0100
0001
0010
0001
1000
0100
1000
0010
0100
0001
0010
0001
1000
0100
0010
,
0001
1000
0001
0010
0100
1000
0010
0100
0010
1000
0001
0100
0001
0010
0100
1000
,
0010
0100
0001
1000
0100
1000
0001
0100
0010
1000
0001
0010
0001
1000
0100
0010
,
0001
0100
0010
1000
0001
0010
0100
1000
0001
0100
0001
1000
0010
0100
0001
0010
,
0100
1000
0001
0010
0001
0100
0010
1000
0100
0010
0001
0100
0010
1000
0100
0010
,
0001
0100
0010
1000
0001
0010
0001
1000
0100
0010
0001
0100
0010
1000
0001
0100
,
0001
1000
0010
0100
0010
1000
0100
0010
0001
0100
0010
1000
0001
0010
0001
0100
,
0010
1000
0100
0010
0001
1000
0100
1000
0010
0100
0010
1000
0001
0100
0001
0010
,
0100
1000
0100
0010
0001
0100
0010
1000
0001
0100
0001
1000
0010
0100
0010
1000
,
0100
0010
0001
0100
0010
1000
0001
0010
0001
1000
0100
0010
0001
0100
0010
1000
,
0010
0100
0001
0010
0001
1000
0100
1000
0010
0100
0001
0100
0010
1000
0001
0010
,
0M01
1000
0100
0010
0001
0100
0010
1000
0001
0100
0001
1000
0010
0100
0010
1000
,
0100
0010
0001
0100
0010
1000
0001
0010
0001
0100
0010
1000
0100
0010
0001
1000
,
0100
1000
0010
0100
0010
1000
0001
0100
0001
0010
0100
1000
0100
0010
0001
0100
,
0010
1000
0001
0100
0001
1000
0010
0100
0010
1000
0100
0010
0001
0100
0010
1000
,
0001
0010
0001
1000
0100
0010
0001
0100
0010
1000
0010
0100
0001
0010
0001
1000
,
0100
1000
0010
0100
0001
0010
0001
1000
0100
0010
0001
1000
0001
0010
0100
1000
,
0010
0100
0010
1000
0001
0100
0001
0010
0100
1000
0010
0100
0001
1000
0100
1000
,
0001
0100
0010
1000
0001
0010
0001
1000
0100
0010
0001
0100
0010
1000
0001
0010
,
010M
1000
0001
0100
0001
1000
0010
0100
0001
0010
0100
1000
0001
0010
0001
0100
,
0010
1000
0100
0010
0001
0100
0010
1000
0100
0010
0001
0100
0010
1000
0001
0010
,
0001
1000
0100
0010
0001
0100
0010
1000
0001
0100
0001
1000
0010
0100
0010
1000
,
0100
0010
0001
0100
0010
1000
0001
0010
0001
0100
0010
1000
0100
0010
0001
1000
,
0100
1000
0010
0100
0010
1000
0001
0100
0001
0010
0100
1000
0100
0010
0001
0100
,
0010
1000
0001
0100
0001
1000
0010
0100
0010
1000
0100
0010
0001
0100
0010
1000
,
0001
0010
0001
1000
0100
0010
0001
0100
0010
1000
0010
0100
0001
0010
0100
1000
,
0001
0000
0000
0000
0200
0000
0000
0000
0300
0000
0000
0000
0200
0000
0000
0000
0320
0000
0030
0000
2000
0000
0000
0000
3002
0000
0000
0003
0200
0000
0000
0000
,
0310
1000
0001
0000
0100
0010
1000
0000
0001
0010
0001
0000
1000
0100
0010
0000
,
0001
0100
0010
0000
1000
0100
1000
0000
0001
0100
0010
0000
1000
0000
0001
0000
,
0100
0010
1000
0000
0002
0103
0010
0000
2000
3100
0010
0000
0001
0010
0200
0300
,
1000
0001
0200
0300
0010
1000
0002
0003
2000
3100
1000
0000
0040
0130
0001
0000
,
1000
0010
0100
0000
0001
0100
0010
0000
1000
0001
0100
0000
0001
0100
0010
0000
,
1000
0100
1000
0000
0001
0100
0001
0000
1000
0010
0100
0000
0001
0000
1000
0000
,
0010
0100
0001
0000
2000
3100
1000
0000
0020
0130
0001
0000
1000
0100
0020
0030
,
0001
0010
0200
0300
1000
0001
2000
3000
0020
0130
0020
0030
2000
3001
0200
0300
,
0010
1000
0001
0000
0100
0010
1000
0000
0001
0010
0001
0000
1000
0100
0010
0000
,
0001
0100
0010
0000
1000
0100
1000
0000
0001
0100
0010
0000
1000
0000
0001
0000
,
0100
0010
1000
0000
0002
0103
0010
0000
2000
3100
0010
0000
0001
0010
0200
0300
,
1000
0001
0200
0300
0010
1000
0002
0003
2000
3100
1000
0000
0040
0130
0001
0000
,
1000
0010
0100
0000
0001
0100
0010
0000
1000
0001
0100
0000
0001
0100
0010
0000
,
1000
0100
1000
0000
0001
0100
0001
0000
1000
0010
0100
0000
0001
0000
1000
0000
,
0010
0100
0001
0000
2000
3100
1000
0000
0020
0130
0001
0000
1000
0100
0020
0030
,
0001
0010
0200
0300
1000
0001
2000
3000
0010
0100
0001
1000
0100
0010
0001
0000
,
1001
0010
0101
1000
1100
0001
0110
1000
,
0011
0100
1001
0010
0110
0001
1010
0100
,
1001
0010
0110
1000
0011
0001
1100
0001
,
0110
0100
1001
0100
0011
1000
0110
0001
,
1001
0010
0101
1000
1100
0001
0110
1000
,
0011
0100
1001
0010
0110
0001
1010
0100
,
1001
0010
0110
1000
0011
0001
1100
0001
,
0110
0100
1001
0100
0011
1000
0110
0001
,
1001
0010
0101
1000
1100
0001
0110
1000
,
0011
0100
1001
0010
0110
0001
1010
0100
,
1001
0010
0110
1000
0011
0001
1100
0001
,
0110
0100
1001
0100
0011
1000
0110
0001
,
1100
0110
0011
0101
0110
1001
1010
0110
,
0101
1001
0110
1100
0110
0011
0101
0110
,
1000
0100
0010
0001
0100
0010
1000
0001
0100
0001
0010
0100
1000
0001
0100
0010
,
1000
0000
0000
0000
0002
0000
0000
0003
0000
0000
0000
0000
0002
0000
0000
0003
0000
0000
0000
0000
0002
0000
0000
0003
2000
0000
0000
0000
0000
0000
3000
0000
,
0001
0100
0010
1000
0100
0010
0001
1000
0100
1000
0010
0100
0001
0000
MMMM
0000
,
1000
0010
0100
0010
1000
0001
0010
0001
1000
0100
0010
0001
0100
0000
MMMM
0000
,
0001
1000
0100
1000
0010
0100
0001
1000
0100
0010
0001
0100
0010
0000
MMMM
0000
,
0100
0001
1000
0100
1000
0010
0100
0001
1000
0100
0010
0001
0010
0000
MMMM
0000
,
0100
1000
0001
0100
0001
1000
0010
0100
0001
1000
0100
0010
0001
0000
MMMM
0000
,
1000
0100
1000
0001
0100
0001
1000
0010
0100
0001
1000
0100
0010
0000
MMMM
0000
,
0001
0010
0100
1000
0001
1000
0010
0100
0010
1000
0001
0100
0010
0000
MMMM
0000
,
1000
0100
0010
0001
0100
0010
1000
0001
0100
0001
1000
0100
0010
0000
MMMM
0000
,
0001
0100
0010
1000
0100
0010
0001
1000
0100
1000
0010
0100
0001
0000
MMMM
0000
,
0100
0001
1000
0010
0100
0001
0010
0001
1000
0100
0010
0001
0100
0000
MMMM
0000
,
0001
0100
0010
1000
0010
0100
0001
1000
0100
0010
0001
0100
0010
0000
MMMM
0000
,
0100
0001
1000
0100
1000
0010
0100
0001
1000
0100
0010
0001
0010
0000
MMMM
0000
,
0100
1000
0001
0100
0001
1000
0010
0100
0001
1000
0100
0010
0001
0000
MMMM
0000
,
1000
0100
1000
0001
0100
0001
1000
0010
0100
0001
1000
0100
0010
0000
MMMM
0000
,
0001
0010
0100
1000
0001
1000
0010
0100
0010
1000
0001
0100
0010
0000
MMMM
0000
,
1000
0100
0010
0001
0100
0010
1000
0001
0100
0001
1000
0010
0100
0010
1000
0100
,
M010
0001
0100
0010
1000
0001
0010
0001
0100
0010
1000
0100
0010
0001
1000
0100
,
1000
0010
0100
0010
1000
0001
0100
0001
0010
0100
1000
0100
0010
0001
0100
0010
,
1000
0001
0100
0001
1000
0010
0100
0010
1000
0100
0010
0001
0100
0010
1000
0001
,
0010
0001
1000
0100
0010
0001
0100
0010
1000
0010
0100
0001
0010
0001
1000
0100
,
1000
0010
0100
0001
0010
0001
1000
0100
0010
0001
1000
0001
0010
0100
1000
0010
,
0100
0010
1000
0001
0100
0001
0010
0100
1000
0010
0100
0001
1000
0100
1000
0001
,
0100
0010
1000
0001
0010
0001
1000
0100
0010
0001
0100
0010
1000
0001
0010
0100
,
1000
0001
0100
0001
1000
0010
0100
0001
0010
0100
1000
0001
0010
0001
0100
0010
,
1000
0100
0010
0001
0100
0010
1000
0100
0010
0001
0100
0010
1000
0001
0010
0001
,
1000
0100
0010
0001
0100
0010
1000
0001
0100
0001
1000
0010
0100
0010
1000
0100
,
0010
0001
0100
0010
1000
0001
0010
0001
0100
0010
1000
0100
0010
0001
1000
0100
,
1000
0010
0100
0010
1000
0001
0100
0001
0010
0100
1000
0100
0010
0001
0100
0010
,
1000
0001
0100
0001
1000
0010
0100
0010
1000
0100
0010
0001
0100
0010
1000
0001
,
0010
0001
1000
0100
0010
0001
0100
0010
1000
0010
0100
0001
0010
0001
1000
0100
,
1000
0010
0100
0001
0100
0010
1000
0100
0010
0001
0100
0010
1000
0001
0100
0001
,
1000
0010
0100
0010
1000
0100
0010
0001
0100
0010
1000
0001
0010
0001
0100
0010
,
1000
0001
0100
0000
0020
1030
0001
0000
0200
0310
1000
0000
0001
0100
0020
0030
,
0100
0010
2000
3000
0001
0100
0020
0030
2000
3001
0100
0000
0040
0030
1000
0000
,
0001
1000
0010
0000
0002
0103
0010
0000
2000
3100
0010
0000
0001
0010
0200
0300
,
1000
0001
0200
0300
0010
1000
0002
0003
2000
3100
1000
0000
0040
0130
0001
0000
,
1000
0010
0100
0000
0002
0103
0010
0000
2000
3001
0100
0000
0001
0100
0020
0030
,
1000
0100
2000
3000
0001
0100
0002
0003
2000
3010
0100
0000
0004
0003
1000
0000
,
0010
0100
0001
0000
2000
3100
1000
0000
0020
0130
0001
0000
1000
0100
0020
0030
,
0001
0010
0200
0300
1000
0001
2000
3000
0020
0130
0020
0030
2000
3001
0200
0300
,
0010
1000
0001
0000
0200
0310
1000
0000
0002
0013
0001
0000
1000
0100
0020
0030
,
0001
0100
0020
0030
1000
0100
2000
3000
0002
0103
0010
0000
4000
3000
0001
0000
,
0100
0010
1000
0000
0002
0103
0010
0000
2000
3100
0010
0000
0001
0010
0200
0300
,
1000
0001
0200
0300
0010
1000
0002
0003
2000
3100
1000
0000
0040
0130
0001
0000
,
1000
0010
0100
0000
0002
0103
0010
0000
2000
3001
0100
0000
0001
0100
0020
0030
,
1000
0100
2000
3000
0001
0100
0002
0003
2000
3010
0100
0000
0004
0003
1000
0000
,
0010
0100
0001
0000
2000
3100
1000
0000
0020
0130
0001
0000
1000
0100
0020
0030
,
0001
0010
0200
0300
1000
0001
2000
3000
0020
0130
0002
0003
2000
3010
0200
0000
,
0000
0300
0000
0000
,
0000
0000
0000
0000
,
0000
0000
0000
0000
,
0000
0000
0000
0000
,
0000
0000
0000
0000
,
0000
0000
0000
0000
;
