#TITLE:Mario Syndrome;
#SUBTITLE:(Re-Mix Ver.);
#ARTIST:Koji Kondo arranged by King Records;
#TITLETRANSLIT:;
#SUBTITLETRANSLIT:;
#ARTISTTRANSLIT:;
#CREDIT:Kyon;
#BANNER:Mario Syndrome (Re-Mix Ver.).png;
#BACKGROUND:Mario Syndrome (Re-Mix Ver.)-bg.png;
#LYRICSPATH:;
#CDTITLE:Dj DMA Original Simfile.png;
#MUSIC:Mario Syndrome (Re-Mix Ver.).mp3;
#OFFSET:0.240;
#SAMPLESTART:52.733;
#SAMPLELENGTH:12.000;
#SELECTABLE:YES;
#BPMS:0.000=113.780;
#STOPS:;
#BGCHANGES:;
// cache tags:
#FIRSTBEAT:3.000;
#LASTBEAT:187.000;
#SONGFILENAME:Songs/toune 2/Mario Syndrome (Re-Mix Ver.)/Mario Syndrome (Re-Mix Ver.).sm;
#HASMUSIC:1;
#HASBANNER:1;
#MUSICLENGTH:98.925;
// end cache tags

//---------------dance-single - ----------------
#NOTES:
     dance-single:
     :
     Easy:
     3:
     0.173,0.284,0.101,0.152,0.000,95.000,10.000,15.000,0.000,0.000:
0000
0000
0000
0000
,
0001
0000
1000
0000
,
0010
0200
0000
0000
,
0301
0000
1000
0000
,
0001
2000
0000
0000
,
3010
0000
0100
0000
,
0001
2000
0000
0000
,
3010
0000
0100
0000
,
1001
0000
0010
0200
,
0000
0000
0310
0000
,
1001
0000
0000
0001
,
1001
0010
0100
0010
,
1001
0010
1000
0001
,
0101
1000
0010
1000
,
1001
0101
1010
0001
,
0000
0000
1000
0000
,
0010
0000
0000
0000
,
0100
0000
0010
0000
,
1000
0002
0000
0000
,
1003
0000
0010
0000
,
0100
0200
0000
0300
,
0010
0000
0001
0000
,
1000
0002
0000
0003
,
1000
0000
0010
0000
,
0100
0000
0001
0000
,
1001
0000
0010
0000
,
0100
0000
0011
0000
,
1000
0000
0001
0000
,
0001
0000
1000
0000
,
0010
0000
0100
0000
,
0001
0000
1000
0000
,
0001
0000
0010
0000
,
0100
0000
0001
0000
,
0010
0000
0010
0000
,
0100
0000
0100
0000
,
0001
0000
1000
0000
,
0001
0000
1000
0000
,
1000
0000
0001
0000
,
0001
0000
0001
0020
,
0000
0000
0000
0230
,
0000
0301
0000
0002
,
0000
0000
0000
2003
,
0000
0000
3001
0010
,
0000
0100
0000
0001
,
0000
2000
0000
3002
,
0000
0000
0000
0023
,
0000
0000
0200
0330
;

//---------------dance-single - ----------------
#NOTES:
     dance-single:
     :
     Hard:
     8:
     0.464,0.425,0.283,0.081,0.420,285.000,28.000,8.000,0.000,0.000:
0000
0000
0000
0001
,
1000
0000
0001
0100
1001
0000
0010
0000
,
0110
0000
0002
0000
0000
0003
1000
0000
,
1000
0001
1000
0010
0110
0000
1000
0100
,
0011
0002
0000
1003
,
1000
0010
0110
0000
0010
0100
0001
0000
,
0100
1000
0100
0000
0100
0010
0001
0000
,
0101
0000
0001
0100
1000
0000
0001
0000
,
1000
0000
0001
0000
1000
0000
0010
0000
1000
0000
0010
0000
0100
0010
0000
1000
,
0000
1000
0001
0000
0110
0000
0000
0000
0000
0000
0000
0000
1001
0000
0100
0000
,
1000
0010
1000
0100
0010
0001
1000
0000
,
1001
0101
1000
0010
,
0110
0100
1000
1000
,
1100
0000
0001
1000
0001
0100
0010
0000
,
0001
1001
0101
0000
,
0001
0000
1000
0000
,
0010
0000
0100
1000
0100
0001
0100
0000
,
1001
0000
0011
0000
,
0110
0000
0100
0000
1000
0001
0100
1000
,
1000
0100
0101
1000
,
0010
0000
0100
0000
0001
0100
1000
0010
,
0001
0001
0100
1000
,
0001
0000
0001
1000
0010
0010
0100
0000
,
1001
0000
0010
0000
0100
0001
0001
0100
,
0000
1000
1010
0000
0110
0000
0001
0100
,
1000
0000
0000
0000
0101
0000
0000
0000
0000
1001
0000
0000
1000
0000
0010
0000
,
0100
0000
0000
0000
0110
0000
0000
0000
1001
0000
0000
0000
0001
0000
0000
1000
,
0000
0000
0010
0000
0000
0000
0100
0000
0010
0000
1000
0010
0000
0100
0010
1000
,
0001
0000
0100
1000
0000
0100
0000
0001
1000
0001
1000
0001
1000
0000
0000
0010
,
0000
0000
0100
0000
0000
0000
0001
0000
0001
0000
0100
1000
0000
1000
0000
0010
,
0000
0001
0000
1000
0001
0000
1000
0000
1000
0001
1000
0001
1000
0100
0000
0010
,
0000
0000
1000
0000
0100
1000
0000
0010
0100
0000
0000
0000
0001
2000
0000
0000
,
0000
0000
3000
0000
0100
1000
0000
1000
0010
0000
0000
0000
0001
1000
0000
1000
,
0000
0000
1000
0000
1000
0010
0000
0010
0100
0000
0000
0000
0001
0020
0000
0000
,
0000
0000
0030
0000
0001
1000
0000
1000
0001
0000
0000
0000
0010
0100
0000
0100
,
0000
0000
0100
0000
0100
1000
0000
1000
0001
0000
0000
0000
0001
0020
0000
0000
,
0000
0000
0030
0000
0001
1000
0000
1000
0001
0000
0000
0000
0001
1000
0000
1000
,
0000
0000
1000
0000
1000
0010
0000
0010
0100
0000
0000
0000
0001
0020
0000
0000
,
0000
0000
0030
0000
0001
1000
0000
1000
0001
0000
0000
0000
0010
0100
0000
1000
,
0000
1000
0001
0000
0001
0100
0000
0100
1000
0000
0000
0000
1000
0010
0000
0100
,
0000
0001
1000
0001
0000
0000
0000
0000
0010
0000
0000
0000
0100
0010
0000
0001
,
0000
1000
0100
0000
0010
0100
0000
0010
0001
0000
0000
0000
0001
0100
0000
1000
,
0000
1000
0010
0000
0100
0000
0000
0000
1001
0000
0000
0000
0001
1000
0000
1000
,
0000
1000
0010
0000
0100
0010
0000
1000
0001
0000
0000
0000
0001
0100
0000
1000
,
0000
0010
1000
0010
0000
0000
0000
0000
0001
0000
0000
0000
0100
1000
0000
1000
,
0000
1000
0010
0000
0010
1000
0000
0100
0001
0000
0000
0000
0100
1000
0000
1000
,
0000
0100
0001
0000
1001
0000
0000
0000
0220
0000
0000
0000
0330
0000
0000
0000
;

//---------------dance-single - ----------------
#NOTES:
     dance-single:
     :
     Challenge:
     9:
     0.547,0.496,0.354,0.030,0.561,341.000,35.000,3.000,0.000,0.000:
0000
0000
0000
0000
0000
0000
0001
0100
,
1000
0000
0001
0100
1001
0000
0010
0100
,
0110
0000
0000
0000
0001
1000
0001
1000
0100
0001
0010
0000
1000
0000
0000
0000
,
1000
0000
0001
0000
1000
0000
0010
0000
0100
0010
0100
0000
1000
0000
0100
0000
,
0011
0000
0000
0000
0001
1000
0010
0100
0010
0100
0010
0100
1000
0000
0000
0000
,
1000
0010
0110
0000
0010
0100
0001
0000
,
0100
1000
0100
0000
0100
0010
0001
0000
,
0101
0000
0001
0100
1000
0000
0001
0000
,
1000
0000
0001
0000
1000
0000
0010
0000
1000
0000
0010
0000
0100
0010
0000
1000
,
0000
1000
0001
0000
0110
0000
0000
0000
1001
0000
0000
0000
1001
0000
0100
0000
,
1000
0010
1000
0100
0010
0001
1000
0000
,
1001
0000
0101
0000
1000
0100
0010
0000
,
0110
0000
0100
0010
1000
0000
1000
0000
,
1100
0000
0001
1000
0001
0100
0010
0000
,
0001
0000
0000
0000
1001
0000
0000
0101
0000
0000
0101
0000
0000
0000
0000
0000
,
1001
0010
1010
0100
,
0010
0000
0000
0000
0100
0010
1000
0010
0100
0010
0001
0010
0100
0000
0000
0000
,
1001
1000
0011
0100
,
0110
0000
0000
0000
0100
0010
0100
0010
1000
0010
0001
0010
0100
0000
0000
0000
,
1000
0010
0100
0000
0101
0000
1000
0000
,
0010
0000
0200
1000
0001
0010
1300
0010
,
0001
0000
0001
0010
0100
0000
1000
0000
,
0001
0000
0001
1000
0010
0010
0100
0001
,
1000
0100
0010
1000
0100
0001
0001
0100
,
0010
1000
1010
0000
0110
0000
0001
0100
,
1000
0000
0010
0000
0101
0000
0000
0000
0000
1001
0000
0000
1000
0000
0010
0000
,
0100
0000
0000
0000
0110
0000
0000
0000
1001
0000
0000
0000
0101
0000
0000
1010
,
0000
0000
0110
0000
0000
0000
0100
0000
0010
0000
1000
0010
0000
0100
0010
1000
,
0001
0000
0100
1000
0000
0100
0000
0001
1000
0001
1000
0001
1000
0000
0000
0110
,
0000
0000
1100
0000
0000
0000
0001
0000
0001
0000
0100
1000
0000
1000
0000
0010
,
0000
0001
0000
1000
0001
0000
1000
0000
1000
0001
1000
0001
1000
0100
0000
0010
,
0000
0000
0000
0000
1000
0000
0000
0000
0100
0000
1000
0000
0000
0000
0010
0000
0100
0000
0000
0000
0000
0000
0000
0000
0001
0000
1000
0000
0000
0100
0000
0000
,
0010
0000
0000
0001
0000
0000
0010
0000
0100
0000
1000
0000
0000
0000
1000
0000
0010
0000
0000
0000
0000
0000
0000
0000
0001
0000
1000
0000
0000
0000
1000
0000
,
0000
0000
0000
0000
1000
0000
0000
0000
1000
0000
0010
0000
0000
0000
0010
0000
0100
0000
0000
0000
0000
0000
0000
0000
0001
0000
0010
0000
0000
0100
0000
0000
,
1000
0000
0000
0100
0000
0000
0010
0000
0001
0000
1000
0000
0000
0000
1000
0000
0001
0000
0000
0000
0000
0000
0000
0000
0010
0000
0100
0000
0000
0000
0100
0000
,
0000
0000
0000
0000
0100
0000
0000
0000
0100
0000
1000
0000
0000
0000
1000
0000
0001
0000
0000
0000
0000
0000
0000
0000
0001
0000
0010
0000
0000
0100
0000
0000
,
0010
0000
0000
0100
0000
0000
0010
0000
0001
0000
1000
0000
0000
0000
1000
0000
0001
0000
0000
0000
0000
0000
0000
0000
0001
0000
1000
0000
0000
0000
1000
0000
,
0000
0000
0000
0000
1000
0000
0000
0000
1000
0000
0010
0000
0000
0000
0010
0000
0100
0000
0000
0000
0000
0000
0000
0000
0001
0000
1000
0000
0000
0000
0000
1000
,
0000
0010
0000
0000
1000
0000
0000
0000
1000
0000
0100
0000
0000
0000
1000
0000
0001
0000
0000
0000
0000
0000
0000
0000
0010
0000
0100
0000
0000
0000
1000
0000
,
0000
1000
0001
0000
0001
0100
0000
0100
1000
0000
0000
0000
1000
0010
0000
0100
,
0000
0001
1000
0001
0000
0000
0000
0000
0010
0000
0000
0000
0100
0010
0000
0001
,
0000
1000
0100
0000
0010
0100
0000
0010
0001
0000
0000
0000
0001
0100
0000
1000
,
0000
1000
0010
0000
0100
0000
0000
0000
1001
0000
0000
0000
0001
1000
0000
1000
,
0000
1000
0010
0000
0100
0010
0000
1000
0001
0000
0000
0000
0001
0100
0000
1000
,
0000
0010
1000
0010
0000
0000
0000
0000
0001
0000
0000
0000
0100
1000
0000
1000
,
0000
1000
0010
0000
0010
1000
0000
0100
0001
0000
0000
0000
0100
1000
0000
1000
,
0000
0100
0001
0000
1001
0000
0000
0000
0220
0000
0000
0000
0330
0000
0000
0000
;

//---------------dance-single - ----------------
#NOTES:
     dance-single:
     :
     Medium:
     7:
     0.394,0.423,0.010,0.000,0.420,272.000,1.000,0.000,0.000,0.000:
0000
0000
0000
0100
,
0001
0001
0010
0001
,
0010
0100
0000
0100
,
0001
1000
1000
0001
,
0010
1000
0000
0010
,
1000
0010
0010
1000
,
0100
1000
0010
0010
,
0001
1000
0010
0001
,
0010
0000
0000
0000
0100
0000
0000
0000
0010
0000
0010
0000
0001
1000
0000
1000
,
0000
0001
1000
0000
0010
0000
0000
0000
0000
0000
0000
0000
0010
0000
0010
0000
,
0100
1000
0100
0001
0100
0100
0010
0000
,
0001
0010
1000
1000
,
0001
0010
0010
0001
,
0100
0000
0001
0000
0100
0001
0001
0000
,
0010
0100
1000
0000
,
0010
0000
1000
0000
,
0100
0000
0100
0100
0010
0010
0001
0000
,
1000
0000
1000
0000
,
0001
0000
0001
0000
0001
0010
0100
0100
,
1000
0010
0100
0100
,
0001
0000
0001
0000
1000
0100
0100
1000
,
0100
0010
0100
1000
,
0100
0000
0100
1000
0100
0010
0010
0000
,
0010
0000
1000
0000
1000
0100
0001
0100
,
0000
0010
1000
0000
1000
0000
1000
0000
,
1000
0000
0000
0000
0010
0000
0000
0000
0000
1000
0000
0000
0100
0000
1000
0000
,
1000
0000
0000
0000
0010
0000
0000
0000
0001
0000
0000
0000
0100
0000
0000
0100
,
0000
0000
0001
0000
0000
0000
0001
0000
0010
0000
0100
0010
0000
0001
0100
1000
,
0001
0000
0010
0001
0000
0001
0000
0010
0100
0001
1000
0100
1000
0000
0000
1000
,
0000
0000
0100
0000
0000
0000
0010
0000
1000
0000
0100
0010
0000
0100
0000
0100
,
0000
0100
0000
0100
0010
0000
0010
0000
1000
0010
0100
1000
0100
0010
0000
0001
,
0000
0000
0010
0000
0001
0001
0000
0100
1000
0000
0000
0000
0010
1000
0000
0000
,
0000
0000
0000
0000
0001
1000
0000
0010
1000
0000
0000
0000
0100
0100
0000
0001
,
0000
0000
0010
0000
0001
1000
0000
0010
0001
0000
0000
0000
0010
0001
0000
0000
,
0000
0000
0000
0000
0100
0001
0000
0100
0100
0000
0000
0000
0100
0010
0000
0010
,
0000
0000
0100
0000
0001
1000
0000
0100
0001
0000
0000
0000
0010
0100
0000
0000
,
0000
0000
0000
0000
1000
0001
0000
0001
1000
0000
0000
0000
0010
0010
0000
1000
,
0000
0000
0010
0000
0010
0010
0000
1000
0100
0000
0000
0000
0001
1000
0000
0000
,
0000
0000
0000
0000
0010
0001
0000
0001
0001
0000
0000
0000
1000
1000
0000
1000
,
0000
0100
0010
0000
0010
0100
0000
0001
1000
0000
0000
0000
0010
0100
0000
1000
,
0000
1000
0010
1000
0000
0000
0000
0000
0010
0000
0000
0000
0001
0100
0000
0010
,
0000
0001
0010
0000
1000
0001
0000
0100
0100
0000
0000
0000
0100
0100
0000
1000
,
0000
0001
0010
0000
1000
0000
0000
0000
0010
0000
0000
0000
1000
0001
0000
0010
,
0000
0010
1000
0000
0001
0100
0000
0001
0001
0000
0000
0000
0001
0100
0000
0001
,
0000
0001
0100
0001
0000
0000
0000
0000
1000
0000
0000
0000
0010
0100
0000
0010
,
0000
0010
0001
0000
0010
0010
0000
0001
0001
0000
0000
0000
0100
0001
0000
1000
,
0000
0001
0010
0000
0001
0000
0000
0000
1100
0000
0000
0000
0000
0000
0000
0000
;
