#TITLE:He He He;
#SUBTITLE:EXoduz Violation II;
#ARTIST:Cardboard Box;
#TITLETRANSLIT:;
#SUBTITLETRANSLIT:;
#ARTISTTRANSLIT:;
#CREDIT:;
#BANNER:../Banner.png;
#BACKGROUND:../Background.png;
#LYRICSPATH:;
#CDTITLE:;
#MUSIC:He He He.ogg;
#OFFSET:-0.485;
#SAMPLESTART:96.491;
#SAMPLELENGTH:12.000;
#SELECTABLE:YES;
#DISPLAYBPM:253.000;
#BPMS:0.000=126.500,79.000=253.000;
#STOPS:;
#BGCHANGES:;
// cache tags:
#FIRSTBEAT:7.000;
#LASTBEAT:404.000;
#SONGFILENAME:Songs/EXoduz Violation II/He He He - [Ov3rHell3XoduZ]/sm.sm;
#HASMUSIC:1;
#HASBANNER:1;
#MUSICLENGTH:120.474;
// end cache tags

//---------------dance-single - ----------------
#NOTES:
     dance-single:
     :
     Beginner:
     15:
     0.825,1.000,0.050,0.988,0.809,509.000,6.000,119.000,4.000,0.000:
0000
0000
0000
0000
,
0000
0000
0000
1000
,
0001
0000
0000
0000
0100
0000
0000
0010
0000
1000
0000
0000
0100
0000
0000
0000
,
0010
0000
0000
0000
0001
0000
0000
1000
0000
0010
0000
0000
0100
0000
0000
0000
,
0001
0000
0000
0000
0010
0000
0000
0100
0000
1000
0000
0000
0001
0000
0000
0000
,
1000
0000
0000
0000
0100
0000
0000
0010
0000
0001
0000
0000
1000
0000
0000
0000
,
0001
0000
0000
0000
0100
0000
0000
0010
0000
1000
0000
0000
0100
0000
0000
0000
,
0010
0000
0000
0000
0001
0000
0000
1000
0000
0100
0000
0000
0010
0000
0000
0000
,
0001
0000
0000
0000
1000
0000
0000
0010
0000
0100
0000
0000
0001
0000
0000
0000
,
0010
0000
0000
0000
0100
0000
0000
1000
0000
0001
0000
0000
1000
0000
0000
0000
,
0010
0000
0000
0000
0100
0000
0000
0001
0000
0010
0000
0000
0100
0000
0000
0000
,
1000
0000
0000
0000
0100
0000
0000
1000
0000
0010
0000
0000
0100
0000
0000
0000
,
0001
0000
0000
0000
1000
0000
0000
0100
0000
0010
0000
0000
0001
0000
0000
0000
,
1000
0000
0000
0000
0001
0000
0000
1000
0000
0100
0000
0000
0010
0000
0000
0000
,
0100
0000
0000
0000
1000
0000
0000
0001
0000
0100
0000
0000
0001
0000
0000
0000
,
0010
0000
0000
0000
0100
0000
0000
1000
0000
0010
0000
0000
1000
0000
0000
0000
,
0100
0000
0000
0000
1000
0000
0000
0001
0000
1000
0000
0000
0100
0000
0000
0000
,
0010
0000
0000
0000
0001
0000
0000
1000
0000
0010
0000
0000
0100
0000
0000
0000
,
0001
0000
0000
0000
1000
0000
0000
0100
0000
0010
0000
0000
0001
0000
0000
0000
,
1000
0040
0000
0230
,
0302
0023
0230
2300
,
0000
3020
0000
0000
0000
0000
0230
0000
,
0302
2003
3200
0320
,
0000
0032
0000
0000
0000
0000
2003
0000
,
3200
2300
3002
0203
,
0000
0320
0000
0000
0000
0000
2030
0000
,
3002
0023
0230
2300
,
0000
3020
0000
0000
0000
0000
0230
0000
,
0302
2003
3200
2300
,
0000
3002
0000
0000
0000
0000
0203
0000
,
0320
2030
3200
0320
,
0000
0032
0000
0000
0000
0000
2003
0000
,
3200
2300
3020
0230
,
0000
0302
0000
0000
0000
0000
0023
0000
,
0230
0000
0000
2300
0000
0000
3200
0000
0000
0310
0001
1000
,
0010
0100
0001
1000
0100
1000
0001
1000
0001
0010
0000
0000
,
0100
1000
0001
1000
,
0010
0000
0000
0100
0000
0000
0001
1000
0010
0200
0000
0000
,
0301
0010
0100
2000
0000
0000
3010
0100
0001
0020
0000
0000
,
0130
1000
0001
0100
0001
1000
0100
0010
0001
1000
0001
0100
,
0001
1000
0100
0010
0001
1000
0001
0010
0100
1000
0001
0100
,
0001
1000
0100
0020
0000
0000
0000
0000
0000
0031
0000
0000
,
1001
1000
1010
0010
,
0110
0100
0101
0002
,
2003
3200
2300
3020
,
0230
0302
2003
3200
,
2300
3002
2003
3020
,
0230
0000
0000
0301
0010
0100
1000
0001
0100
0001
1000
0100
,
1000
0001
0010
0100
1000
0010
0100
0001
1000
0100
1000
0001
,
0010
0100
0010
0001
1000
0100
0010
0100
1000
0001
1000
0010
,
0100
0001
0010
0100
1000
0010
0100
0001
0010
0100
1000
0010
,
0100
0001
0010
0100
1000
0010
0100
0001
0010
0400
0000
0000
,
4300
3040
0430
0304
,
4003
3400
0340
0430
,
4300
3004
4003
3040
,
0430
0304
0043
0430
,
0340
0034
4003
3040
,
4030
3400
0340
0034
,
4003
3040
4030
3400
,
0340
0034
0043
0430
,
4300
3004
0403
0304
,
0043
0430
0340
0034
,
0403
0340
4030
3400
,
4300
3040
0430
0304
,
0043
0034
4003
3040
,
0430
0304
4003
3400
,
4300
3004
0043
0430
,
4300
3004
0000
2003
,
3020
0230
0302
2003
,
0000
3200
0000
0000
0000
0000
0320
0000
,
0032
2003
3020
0230
,
0000
0302
0000
0000
0000
0000
2003
0000
,
3200
2300
3020
0230
,
0000
0302
0000
0000
0000
0000
0023
0000
,
0230
2300
3200
0320
,
0000
0032
0000
0000
0000
0000
2003
0000
,
3020
0230
0302
2003
,
0000
3200
0000
0000
0000
0000
0320
0000
,
0032
2003
3002
0023
,
0000
0230
0000
0000
0000
0000
2300
0000
,
3002
0203
0302
2003
,
0000
3200
0000
0000
0000
0000
0320
0000
,
0032
2003
3020
0230
,
0000
0000
0000
0000
0000
0000
0000
0000
0000
0000
0000
0000
0301
0010
0100
1000
,
0001
0100
0001
1000
0010
0100
0001
0010
0001
1000
0010
1000
0100
0010
0001
1000
,
0010
1000
0200
0000
0000
0000
0000
0000
0000
0000
0000
0000
0310
0001
1000
0010
,
0100
0001
1000
0100
1000
0001
0010
0100
1000
0010
0100
0001
1000
0100
1000
0001
,
0010
0001
2000
0000
0000
0000
0000
0000
0000
0000
0000
0000
3001
1000
0010
0100
,
0001
1000
0100
1000
0001
0010
0001
1000
0010
0100
0001
1000
0100
1000
0001
0010
,
0100
1000
0002
0000
0000
0000
0000
0000
0000
0000
0000
0000
1003
0010
0100
0001
,
1000
0100
1000
0001
0010
0001
1000
0010
0100
0001
1000
0100
0010
0100
1000
0100
,
0010
0001
2000
0000
0000
0000
0000
0000
0000
0000
0000
0000
3010
0100
0001
0010
,
0001
1000
0010
1000
0100
0010
0001
0010
0100
1000
0001
0100
0001
1000
0100
0010
,
0100
1000
0002
0000
0000
0000
0000
0000
0000
0000
0000
0000
1003
0100
0010
0100
,
1000
0001
0100
0001
0010
0001
1000
0010
0100
0001
1000
0100
1000
0001
0010
0001
,
1000
0010
0200
0000
0000
0000
0000
0000
0000
0000
0000
0000
0301
0010
0001
1000
,
0010
1000
0100
0010
0001
1000
0001
0010
0001
1000
0010
0100
0001
1000
0100
0010
,
0001
1000
0020
0000
0000
0000
0000
0000
0000
0000
0000
0000
0130
0001
0010
0100
,
1000
0001
0100
0001
1000
0100
0010
0001
1000
0010
1000
0100
0010
0001
0100
0001
,
0010
0001
1000
0100
0010
0001
1000
0001
0010
0100
1000
0001
0200
0000
0000
0000
,
0300
0000
0000
0000
,
MMMM
0000
0000
0000
;

//---------------dance-single - ----------------
#NOTES:
     dance-single:
     :
     Easy:
     16:
     1.000,1.000,0.050,0.955,1.000,837.000,6.000,115.000,4.000,0.000:
0000
0000
0000
0000
,
0000
0000
0000
0000
0000
0000
0000
0000
0000
0000
0000
0000
2000
3000
0000
0000
,
0002
0003
0000
0000
0200
0300
0000
0020
0030
2000
3000
0000
0200
0300
0000
0000
,
0020
0030
0000
0000
0002
0003
0000
2000
3000
0020
0030
0000
0200
0301
0010
0100
,
2000
3010
0100
0001
2000
3001
1000
0020
0130
0002
1003
0100
0020
0031
1000
0010
,
2000
3100
0010
0001
2000
3010
0100
0002
0013
0200
1300
0001
2000
3001
1000
0010
,
0200
0301
0010
0100
2000
3001
1000
0200
0310
0002
1003
0010
2000
3100
0010
0001
,
2000
3001
0010
0100
2000
3001
1000
0020
0130
0002
0013
0100
2000
3001
1000
0100
,
0020
0031
1000
0010
2000
3001
0100
0002
0013
0200
1300
0001
2000
3100
0010
0001
,
2000
3001
0010
0100
2000
3001
0100
0002
1003
0020
0130
0001
2000
3100
1000
0001
,
0020
0130
1000
0001
0200
0301
1000
0200
0310
0002
1003
0010
0200
0301
1000
0100
,
0020
0031
1000
0001
0020
0000
0130
0200
0000
1300
2000
0000
3002
1003
0010
0100
,
0002
0000
0000
1003
0000
0000
0010
0000
0000
0100
0000
0000
0002
0000
0000
1003
0000
0000
0010
0000
0000
0200
0000
0000
0301
0000
0000
2000
0000
0000
3100
0000
0010
0000
0001
0000
2000
0000
0000
3010
0000
0000
0100
0000
0000
0001
0000
0000
,
2000
0000
0000
3100
0000
0000
0010
0000
0000
0001
0000
0000
2000
0000
0000
3010
0000
0000
0100
0000
0000
0001
0000
0000
1000
0000
0100
0000
0010
0000
0001
0000
1000
0000
0001
0000
0020
0000
0000
0130
0000
0000
1000
0000
0000
0001
0000
0000
,
0200
0000
0301
0000
1000
0000
0100
0000
2000
0000
3010
0000
0100
0000
0002
0000
0023
0000
0230
0000
1300
0001
1000
0100
0020
0000
0031
0000
1000
0000
0010
0000
,
2000
0000
0000
0000
0000
0000
0000
0000
0000
0000
0000
0000
3100
0000
0000
0000
0000
0000
0000
0000
0000
0000
0000
0000
0010
0000
0000
0000
0000
0000
0000
0000
0000
0000
0000
0000
0001
0000
0000
0000
0000
0000
0000
0000
0000
0000
0000
0000
2000
0000
0000
0000
0000
0000
0000
0000
3100
0000
0000
0000
0000
0000
0000
0000
0010
0000
0000
0000
0000
0000
0000
0000
0001
0000
0000
0000
0000
0000
0000
0000
0000
0000
0000
0000
1000
0000
0000
0000
0000
0000
0000
0000
0000
0000
0000
0000
0010
0000
0000
0000
0000
0000
0000
0000
0100
0000
0000
0000
0000
0000
0000
0000
0001
0000
0000
0000
0000
0000
0000
0000
1000
0000
0000
0000
0000
0000
0000
0000
0000
0000
0000
0000
0100
0000
0000
0000
0000
0000
0000
0000
0000
0000
0000
0000
0010
0000
0000
0000
0000
0000
0001
0000
0000
0000
0000
0000
0010
0000
0000
0000
0000
0000
0000
0000
0000
0000
0000
0000
1000
0000
0000
0000
0000
0000
0100
0000
0000
0000
0000
0000
1000
0000
0000
0000
0000
0000
0000
0000
0000
0000
0000
0000
,
0001
0000
0000
0000
0000
0000
0100
0000
0000
0000
0000
0000
0001
0000
0000
0000
0000
0000
0000
0000
0000
0000
0000
0000
1000
0000
0000
0000
0000
0000
0010
0000
0000
0000
0000
0000
1000
0000
0000
0000
0000
0000
0000
0000
0000
0000
0000
0000
0010
0000
0000
0000
0000
0000
0100
0000
0000
0000
0000
0000
0010
0000
0000
0000
0000
0000
0100
0000
0000
0000
0000
0000
0010
0000
0000
0000
0000
0000
0000
0000
0000
0000
0000
0000
0001
0000
0000
0000
0000
0000
0010
0000
0000
0000
0000
0000
0001
0000
0000
0000
0000
0000
0010
0000
0000
0000
0000
0000
0001
0000
0000
0000
0000
0000
0000
0000
0000
0000
0000
0000
1000
0000
0000
0000
0000
0000
0100
0000
0000
0000
0000
0000
1000
0000
0000
0000
0000
0000
0100
0000
0000
0000
0000
0000
1000
0000
0000
0000
0000
0000
0000
0000
0001
0000
0000
0000
0000
0000
0000
0000
1000
0000
0000
0000
0000
0000
0000
0000
0010
0000
0000
0000
0000
0000
0000
0000
0100
0000
0000
0000
0000
0000
0000
0000
0001
0000
0000
0000
0000
0000
0000
0000
,
2000
0000
0000
0000
0000
0000
0000
0000
3100
0000
0000
0000
0000
0000
0000
0000
0010
0000
0000
0000
0000
0000
0000
0000
0001
0000
0000
0000
0000
0000
0000
0000
0010
0000
0000
0000
0000
0000
0000
0000
0100
0000
0000
0000
0000
0000
0000
0000
2000
0000
0000
0000
0000
0000
0000
0000
0000
0000
0000
0000
3001
0000
0000
0000
0000
0000
0000
0000
0000
0000
0000
0000
1000
0000
0000
0000
0000
0000
0000
0000
0000
0000
0000
0000
0010
0000
0000
0000
0000
0000
0100
0000
0000
0000
0000
0000
0001
0000
0000
0000
0000
0000
0010
0000
0000
0000
0000
0000
0001
0000
0000
0000
0000
0000
1000
0000
0000
0000
0000
0000
0010
0000
0000
0000
0000
0000
1000
0000
0000
0000
0000
0000
0010
0000
0000
0000
0000
0000
0100
0000
0000
0000
0000
0000
0002
0000
0000
0000
0000
0000
1003
0000
0000
0000
0000
0000
0010
0000
0000
0000
0000
0000
0000
0000
0000
0000
0000
0000
0200
0000
0000
0000
0000
0000
0301
0000
0000
0000
0000
0000
0010
0000
0000
0000
0000
0000
0000
0000
0000
0000
0000
0000
,
0200
1300
0001
0000
2000
3010
0100
0000
0001
0010
0001
0010
0001
0000
1000
0010
1000
0010
1000
0000
0001
0100
0001
0100
0002
0000
1003
0000
0100
0000
0010
0000
,
0001
1000
0010
0100
0004
0000
0000
0000
0000
0000
0000
0000
0013
0000
0100
0000
,
1000
0001
0100
0001
1000
0100
0010
0001
,
1000
0020
0000
0000
0000
0000
0130
0001
,
1000
0100
1000
0001
0010
0001
1000
0010
,
0100
0002
0000
0000
0000
0000
0013
0100
,
1000
0001
0100
0001
1000
0100
0010
0001
,
1000
0020
0000
0000
0000
0000
0130
0001
,
1000
0100
1000
0001
0010
0001
1000
0010
,
0100
0002
0000
0000
0000
0000
0013
0100
,
1000
0001
0100
0001
1000
0100
0010
0001
,
1000
0002
0000
0000
0000
0000
0103
0010
,
1000
0100
1000
0001
0100
0001
1000
0100
,
0010
0002
0000
0000
0000
0000
1003
0010
,
0100
0001
1000
0100
1000
0001
1000
0100
,
0010
0002
0000
0000
0000
0000
0013
0100
,
1000
0000
0000
0001
0000
0000
0100
0000
0000
0001
0000
0000
1000
0000
0000
0100
0000
0000
0010
0000
0001
0000
1000
0000
,
0010
0100
0001
1000
0100
1000
0001
1000
0001
0010
0000
0000
,
0100
1000
0001
1000
,
0010
0000
0000
0100
0000
0000
0001
1000
0010
0200
0000
0000
,
0301
0010
0100
2000
0000
0000
3010
0100
0001
0020
0000
0000
,
0130
1000
0001
0100
0001
1000
0100
0010
0001
1000
0001
0100
,
0001
1000
0100
0010
0001
1000
0001
0010
0100
1000
0001
0100
,
0001
1000
0100
0020
0000
0000
0000
0000
0000
0031
0000
0000
,
1001
1000
1010
0010
,
0110
0100
0101
0002
,
2003
3200
2300
3020
,
0230
0302
2003
3200
,
2300
3002
2003
3020
,
0230
0000
0000
0301
0010
0100
1000
0001
0100
0001
1000
0100
,
1000
0001
0010
0100
1000
0010
0100
0001
1000
0100
1000
0001
,
0010
0100
0010
0001
1000
0100
0010
0100
1000
0001
1000
0010
,
0100
0001
0010
0100
1000
0010
0100
0001
0010
0100
1000
0010
,
0100
0001
0010
0100
1000
0010
0100
0001
0010
0400
0000
0000
,
4300
3040
0430
0304
,
4003
3400
0340
0430
,
4300
3004
4003
3040
,
0430
0304
0043
0430
,
0340
0034
4003
3040
,
4030
3400
0340
0034
,
4003
3040
4030
3400
,
0340
0034
0043
0430
,
4300
3004
0403
0304
,
0043
0430
0340
0034
,
0403
0340
4030
3400
,
4300
3040
0430
0304
,
0043
0034
4003
3040
,
0430
0304
4003
3400
,
4300
3004
0043
0430
,
4300
0000
0000
3004
0000
0000
0000
0000
0000
1003
0010
0100
,
0001
0000
1000
0000
0100
0000
1000
0000
0001
0000
0010
0000
0100
0000
1000
0000
0001
0000
1000
0000
0000
0010
0000
0000
,
0100
0000
0000
0002
0000
0000
0000
0000
0000
0000
0000
0000
0000
0000
0000
0000
0000
0000
0013
0000
0100
0000
1000
0000
,
0001
0000
0100
0000
0001
0000
1000
0000
0100
0000
0010
0000
0001
0000
1000
0000
0001
0000
0010
0000
0000
0100
0000
0000
,
1000
0000
0000
0002
0000
0000
0000
0000
0000
0000
0000
0000
0000
0000
0000
0000
0000
0000
1003
0000
0010
0000
0100
0000
,
0001
0000
1000
0000
0100
0000
1000
0000
0001
0000
0010
0000
0001
0000
1000
0000
0010
0000
0100
0000
0000
0001
0000
0000
,
1000
0000
0000
0002
0000
0000
0000
0000
0000
0000
0000
0000
0000
0000
0000
0000
0000
0000
0013
0000
0100
0000
1000
0000
,
0001
0000
1000
0000
0100
0000
0010
0000
0001
0000
1000
0000
0001
0000
0010
0000
0100
0000
1000
0000
0000
0100
0000
0000
,
0010
0000
0000
0002
0000
0000
0000
0000
0000
0000
0000
0000
0000
0000
0000
0000
0000
0000
1003
0000
0010
0000
0100
0000
,
0001
0000
1000
0000
0100
0000
1000
0000
0010
0000
0100
0000
0001
0000
0010
0000
0100
0000
1000
0000
0000
0001
0000
0000
,
0100
0000
0000
0020
0000
0000
0000
0000
0000
0000
0000
0000
0000
0000
0000
0000
0000
0000
1030
0000
0100
0000
0010
0000
,
0001
0000
1000
0000
0001
0000
0010
0000
0001
0000
1000
0000
0010
0000
0100
0000
0001
0000
1000
0000
0000
0100
0000
0000
,
0010
0000
0000
0002
0000
0000
0000
0000
0000
0000
0000
0000
0000
0000
0000
0000
0000
0000
1003
0000
0010
0000
0100
0000
,
0001
0000
1000
0000
0100
0000
1000
0000
0001
0000
0010
0000
0100
0000
1000
0000
0010
0000
0100
0000
0000
0001
0000
0000
,
1000
0000
0000
0200
0000
0000
0000
0000
0000
0000
0000
0000
0000
0000
0000
0000
0000
0000
0310
0000
0001
0000
1000
0000
,
0010
0100
0001
1000
0100
1000
0001
0010
0100
2000
0000
0000
,
0000
0000
0000
0000
0000
0000
0000
0000
0000
0000
0000
0000
3001
0010
0100
1000
,
0001
0100
0001
1000
0010
0100
0001
0010
0001
1000
0010
1000
0100
0010
0001
1000
,
0010
1000
0200
0000
0000
0000
0000
0000
0000
0000
0000
0000
0310
0001
1000
0010
,
0100
0001
1000
0100
1000
0001
0010
0100
1000
0010
0100
0001
1000
0100
1000
0001
,
0010
0001
2000
0000
0000
0000
0000
0000
0000
0000
0000
0000
3001
1000
0010
0100
,
0001
1000
0100
1000
0001
0010
0001
1000
0010
0100
0001
1000
0100
1000
0001
0010
,
0100
1000
0002
0000
0000
0000
0000
0000
0000
0000
0000
0000
1003
0010
0100
0001
,
1000
0100
1000
0001
0010
0001
1000
0010
0100
0001
1000
0100
0010
0100
1000
0100
,
0010
0001
2000
0000
0000
0000
0000
0000
0000
0000
0000
0000
3010
0100
0001
0010
,
0001
1000
0010
1000
0100
0010
0001
0010
0100
1000
0001
0100
0001
1000
0100
0010
,
0100
1000
0002
0000
0000
0000
0000
0000
0000
0000
0000
0000
1003
0100
0010
0100
,
1000
0001
0100
0001
0010
0001
1000
0010
0100
0001
1000
0100
1000
0001
0010
0001
,
1000
0010
0200
0000
0000
0000
0000
0000
0000
0000
0000
0000
0301
0010
0001
1000
,
0010
1000
0100
0010
0001
1000
0001
0010
0001
1000
0010
0100
0001
1000
0100
0010
,
0001
1000
0020
0000
0000
0000
0000
0000
0000
0000
0000
0000
0130
0001
0010
0100
,
1000
0001
0100
0001
1000
0100
0010
0001
1000
0010
1000
0100
0010
0001
0100
0001
,
0010
0001
1000
0100
0010
0001
1000
0001
0010
0100
1000
0001
0200
0000
0000
0000
,
0300
0000
0000
0000
,
MMMM
0000
0000
0000
;

//---------------dance-single - ----------------
#NOTES:
     dance-single:
     :
     Medium:
     19:
     1.000,1.000,0.050,0.672,1.000,1255.000,6.000,81.000,4.000,0.000:
0000
0000
0000
0000
,
0000
0000
0000
0000
0000
0000
0000
0000
0000
0000
0000
0000
2000
3000
0000
0000
,
0002
0003
0000
0000
0200
0300
0000
0020
0030
2000
3000
0000
0200
0300
0000
0000
,
0020
0030
0000
0000
0002
0003
0000
2000
3000
0020
0030
0000
0200
0301
0010
0100
,
2000
3010
0100
0001
2000
3001
1000
0020
0130
0002
1003
0100
0020
0031
1000
0010
,
2000
3100
0010
0001
2000
3010
0100
0002
0013
0200
1300
0001
2000
3001
1000
0010
,
0200
0301
0010
0100
2000
3001
1000
0200
0310
0002
1003
0010
2000
3100
0010
0001
,
2000
3001
0010
0100
2000
3001
1000
0020
0130
0002
0013
0100
2000
3001
1000
0100
,
0020
0031
1000
0010
2000
3001
0100
0002
0013
0200
1300
0001
2000
3100
0010
0001
,
2000
3001
0010
0100
2000
3001
0100
0002
1003
0020
0130
0001
2000
3100
1000
0001
,
0020
0130
1000
0001
0200
0301
1000
0200
0310
0002
1003
0010
0200
0301
1000
0100
,
0020
0031
1000
0001
0020
0000
0130
0200
0000
1300
2000
0000
3002
1003
0010
0100
,
0002
0000
0000
1003
0000
0000
0010
0000
0000
0100
0000
0000
0002
0000
0000
1003
0000
0000
0010
0000
0000
0200
0000
0000
0301
0000
0000
2000
0000
0000
3100
0000
0010
0000
0001
0000
2000
0000
0000
3010
0000
0000
0100
0000
0000
0001
0000
0000
,
2000
0000
0000
3100
0000
0000
0010
0000
0000
0001
0000
0000
2000
0000
0000
3010
0000
0000
0100
0000
0000
0001
0000
0000
1000
0000
0100
0000
0010
0000
0001
0000
1000
0000
0001
0000
0020
0000
0000
0130
0000
0000
1000
0000
0000
0001
0000
0000
,
0200
0000
0301
0000
1000
0000
0100
0000
2000
0000
3010
0000
0100
0000
0002
0000
0023
0000
0230
0000
1300
0001
1000
0100
0020
0000
0031
0000
1000
0000
0010
0000
,
2000
0000
0000
0000
0000
0000
0000
0000
0000
0000
0000
0000
3100
0000
0000
0000
0000
0000
0000
0000
0000
0000
0000
0000
0010
0000
0000
0000
0000
0000
0000
0000
0000
0000
0000
0000
0001
0000
0000
0000
0000
0000
0000
0000
0000
0000
0000
0000
2000
0000
0000
0000
0000
0000
0000
0000
3100
0000
0000
0000
0000
0000
0000
0000
0010
0000
0000
0000
0000
0000
0000
0000
0001
0000
0000
0000
0000
0000
0000
0000
0000
0000
0000
0000
1000
0000
0000
0000
0000
0000
0000
0000
0000
0000
0000
0000
0010
0000
0000
0000
0000
0000
0000
0000
0100
0000
0000
0000
0000
0000
0000
0000
0001
0000
0000
0000
0000
0000
0000
0000
1000
0000
0000
0000
0000
0000
0000
0000
0000
0000
0000
0000
0100
0000
0000
0000
0000
0000
0000
0000
0000
0000
0000
0000
0010
0000
0000
0000
0000
0000
0001
0000
0000
0000
0000
0000
0010
0000
0000
0000
0000
0000
0000
0000
0000
0000
0000
0000
1000
0000
0000
0000
0000
0000
0100
0000
0000
0000
0000
0000
1000
0000
0000
0000
0000
0000
0000
0000
0000
0000
0000
0000
,
0001
0000
0000
0000
0000
0000
0100
0000
0000
0000
0000
0000
0001
0000
0000
0000
0000
0000
0000
0000
0000
0000
0000
0000
1000
0000
0000
0000
0000
0000
0010
0000
0000
0000
0000
0000
1000
0000
0000
0000
0000
0000
0000
0000
0000
0000
0000
0000
0010
0000
0000
0000
0000
0000
0100
0000
0000
0000
0000
0000
0010
0000
0000
0000
0000
0000
0100
0000
0000
0000
0000
0000
0010
0000
0000
0000
0000
0000
0000
0000
0000
0000
0000
0000
0001
0000
0000
0000
0000
0000
0010
0000
0000
0000
0000
0000
0001
0000
0000
0000
0000
0000
0010
0000
0000
0000
0000
0000
0001
0000
0000
0000
0000
0000
0000
0000
0000
0000
0000
0000
1000
0000
0000
0000
0000
0000
0100
0000
0000
0000
0000
0000
1000
0000
0000
0000
0000
0000
0100
0000
0000
0000
0000
0000
1000
0000
0000
0000
0000
0000
0000
0000
0001
0000
0000
0000
0000
0000
0000
0000
1000
0000
0000
0000
0000
0000
0000
0000
0010
0000
0000
0000
0000
0000
0000
0000
0100
0000
0000
0000
0000
0000
0000
0000
0001
0000
0000
0000
0000
0000
0000
0000
,
2000
0000
0000
0000
0000
0000
0000
0000
3100
0000
0000
0000
0000
0000
0000
0000
0010
0000
0000
0000
0000
0000
0000
0000
0001
0000
0000
0000
0000
0000
0000
0000
0010
0000
0000
0000
0000
0000
0000
0000
0100
0000
0000
0000
0000
0000
0000
0000
2000
0000
0000
0000
0000
0000
0000
0000
0000
0000
0000
0000
3001
0000
0000
0000
0000
0000
0000
0000
0000
0000
0000
0000
1000
0000
0000
0000
0000
0000
0000
0000
0000
0000
0000
0000
0010
0000
0000
0000
0000
0000
0100
0000
0000
0000
0000
0000
0001
0000
0000
0000
0000
0000
0010
0000
0000
0000
0000
0000
0001
0000
0000
0000
0000
0000
1000
0000
0000
0000
0000
0000
0010
0000
0000
0000
0000
0000
1000
0000
0000
0000
0000
0000
0010
0000
0000
0000
0000
0000
0100
0000
0000
0000
0000
0000
0002
0000
0000
0000
0000
0000
1003
0000
0000
0000
0000
0000
0010
0000
0000
0000
0000
0000
0000
0000
0000
0000
0000
0000
0200
0000
0000
0000
0000
0000
0301
0000
0000
0000
0000
0000
0010
0000
0000
0000
0000
0000
0000
0000
0000
0000
0000
0000
,
0200
1300
0001
0000
2000
3010
0100
0000
0001
0010
0001
0010
0001
0000
1000
0010
1000
0010
1000
0000
0001
0100
0001
0100
0002
0000
1003
0000
0100
0000
0010
0000
,
0001
0000
0000
1000
0000
0000
0010
0000
0000
0100
0000
0000
0004
0000
0000
0000
0000
0000
0000
0000
0000
0000
0000
0000
0000
0000
0000
0000
0000
0000
0000
0000
0000
0000
0000
0000
0013
0000
0000
0000
0100
0000
0000
0000
1000
0000
0000
0000
,
0001
0100
0001
1000
0100
0010
0001
1000
0010
0100
0001
1000
,
0100
1000
0001
0010
0100
1000
0010
0100
0001
1000
0100
1000
,
0001
0010
0100
1000
0010
0100
0001
0010
0001
1000
0010
0100
,
0001
1000
0100
1000
0001
0100
0001
1000
0010
0100
0001
0010
,
0001
1000
0010
1000
0100
0010
0001
0100
0001
1000
0100
1000
,
0001
0010
0100
1000
0010
0100
0001
0010
0001
1000
0010
0100
,
0001
1000
0100
1000
0001
0010
0100
1000
0001
0100
0001
1000
,
0100
0010
0100
1000
0001
0010
0001
1000
0010
0100
0001
1000
,
0010
0100
0001
1000
0100
1000
0001
0010
0100
1000
0010
0100
,
0001
0010
0001
1000
0010
0100
0001
1000
0100
1000
0001
0010
,
0100
1000
0010
0100
0001
0010
0001
1000
0010
0100
0001
1000
,
0100
1000
0001
0010
0100
1000
0010
0100
0001
1000
0100
0010
,
0100
1000
0001
0010
0100
1000
0001
0100
0001
1000
0100
0010
,
0001
1000
0010
0100
0001
1000
0100
1000
0001
0010
0100
1000
,
0001
0000
0000
0000
0100
0000
0000
0000
0001
0000
0000
0000
1000
0000
0000
0000
0100
0000
0000
0000
0010
0000
0000
0000
0001
0000
0000
0000
1000
0000
0000
0000
0010
0000
0000
0000
0100
0000
0000
0001
0000
0000
1000
0000
0000
0100
0000
0000
,
1000
0001
0010
0100
1000
0010
0100
0001
1000
0100
1000
0001
0010
0000
0000
0000
,
0100
1000
0001
1000
,
0010
0000
0000
0100
0000
0000
0001
1000
0010
0200
0000
0000
,
0301
0010
0100
2000
0000
0000
3010
0100
0001
0020
0000
0000
,
0130
1000
0001
0100
0001
1000
0100
0010
0001
1000
0001
0100
,
0001
1000
0100
0010
0001
1000
0001
0010
0100
1000
0001
0100
,
0001
1000
0100
0020
0000
0000
0000
0000
0000
0031
0000
0000
,
1001
1000
1010
0010
,
0110
0100
0101
0002
,
1003
0001
0100
0100
1000
0100
0100
0001
,
0100
0100
1000
0100
0100
0001
0010
0010
,
1000
0010
0010
0001
0010
0010
1000
0010
,
0010
0000
0000
0001
0000
0000
0001
0000
0010
0000
0100
0000
1000
0000
0001
0000
0100
0000
0001
0000
1000
0000
0100
0000
,
1000
0001
0010
0100
1000
0010
0100
0001
1000
0100
1000
0001
,
0010
0000
0000
0000
0100
0000
0000
0000
0010
0000
0000
0000
0001
0000
0000
0000
1000
0000
0000
0000
0100
0000
0000
0000
0010
0000
0000
0000
0100
0000
0000
0000
1000
0000
0000
0000
0001
0000
0000
1000
0000
0000
0010
0000
0000
0100
0000
0000
,
0001
1000
0100
1000
0001
0010
0100
1000
0010
0100
0001
1000
0100
1000
0001
0010
,
0001
0000
0000
1000
0000
0000
0010
0000
0000
0100
0000
0000
0001
0000
0000
1000
0000
0000
0100
0000
0000
1000
0000
0000
0001
0000
0000
0010
0000
0000
0100
0000
0000
1000
0000
0000
0100
0000
0000
0000
0010
0000
0000
0000
0001
0000
0000
0000
,
1000
0010
0100
0001
1000
0100
1000
0001
0010
0100
1000
0010
,
0100
0001
0010
0001
1000
0010
0100
0001
1000
0100
1000
0001
,
0010
0100
1000
0010
0100
0001
1000
0100
1000
0001
0010
0100
,
1000
0010
0100
0001
0010
0001
1000
0010
0100
0001
1000
0100
,
1000
0001
0010
0100
1000
0010
0100
0001
1000
0100
1000
0001
,
0010
0001
1000
0010
0100
0001
1000
0100
1000
0001
0010
0100
,
1000
0010
0100
0001
1000
0100
1000
0001
0010
0100
1000
0010
,
0100
0001
0010
0001
1000
0010
0100
0001
1000
0100
1000
0001
,
0010
0100
0010
0001
1000
0010
0100
0001
1000
0100
0010
0100
,
1000
0001
0010
0001
1000
0010
1000
0100
0010
0001
1000
0001
,
0100
0001
0010
0100
1000
0010
1000
0001
1000
0100
0010
0001
,
1000
0001
0010
0100
1000
0001
0100
0001
1000
0001
0010
0100
,
1000
0010
1000
0001
1000
0100
0010
0001
1000
0010
0100
0001
,
1000
0100
1000
0010
0100
0001
0010
0001
1000
0001
0010
0100
,
1000
0001
0100
0001
1000
0100
1000
0001
1000
0010
0100
0001
,
1000
0100
0010
0004
0000
0000
0000
0000
0000
1003
0010
0100
,
0001
1000
0001
0100
0001
1000
0100
0010
0001
1000
0010
0100
,
0001
0010
0001
1000
0010
0100
0001
1000
0100
1000
0001
0010
,
0100
1000
0010
0100
0001
0010
0001
1000
0010
0100
0001
1000
,
0100
0010
0100
1000
0001
0010
0100
0010
0001
1000
0010
1000
,
0100
0010
0100
1000
0001
0100
0001
1000
0100
0010
0001
1000
,
0010
1000
0100
0010
0001
0100
0001
0010
0001
1000
0001
0010
,
0100
1000
0001
0100
0001
1000
0100
0010
0100
1000
0001
0010
,
0001
1000
0010
0100
0001
1000
0100
0010
0100
1000
0001
0100
,
0001
1000
0010
0100
0001
0010
0001
1000
0010
0100
0001
1000
,
0100
1000
0001
0010
0100
1000
0010
0100
0001
0010
0001
1000
,
0010
0100
0001
1000
0100
1000
0001
0010
0100
1000
0001
0100
,
0001
1000
0010
0100
0001
0010
0001
1000
0010
0100
0001
1000
,
0100
1000
0001
0010
0100
1000
0010
0100
0001
1000
0100
1000
,
0001
0010
0100
1000
0010
0100
0001
1000
0001
0010
0100
1000
,
0001
0100
0001
1000
0100
0010
0001
1000
0010
0200
0000
0000
,
0000
0000
0000
0000
0000
0000
0000
0000
0000
0000
0000
0000
0301
1000
0100
1000
,
0001
0010
0100
1000
0001
0100
0001
1000
0010
0100
0001
0010
0001
1000
0100
0010
,
0001
1000
0010
1000
0001
0010
0001
1000
0010
0100
0001
1000
0100
1000
0001
0010
,
0001
1000
0010
0100
0001
1000
0100
1000
0001
0010
0100
1000
0001
0100
0001
1000
,
0010
0100
0001
0010
0001
1000
0010
0100
0001
1000
0100
1000
0001
0010
0100
1000
,
0010
0100
0001
1000
0100
0010
0100
1000
0001
0010
0100
0010
0001
1000
0010
1000
,
0100
0010
0001
0010
0100
1000
0001
0100
0001
1000
0100
0010
0001
1000
0010
0100
,
0001
1000
0100
1000
0001
0010
0100
1000
0010
0100
0001
0010
0001
1000
0010
0100
,
0001
1000
0100
1000
0001
0010
0100
1000
0001
0100
0001
1000
0100
0010
0001
1000
,
0010
1000
0001
0010
0100
1000
0001
0100
0001
1000
0010
0100
0001
1000
0100
1000
,
0001
0010
0100
1000
0001
0010
0001
1000
0010
0100
0001
1000
0100
1000
0001
0010
,
0100
1000
0010
0100
0001
1000
0100
1000
0001
1000
0100
0010
0001
1000
0010
1000
,
0001
0010
0100
1000
0001
0100
0001
1000
0100
0010
0001
1000
0010
1000
0001
0010
,
0100
1000
0001
0100
0001
1000
0010
0100
0001
0010
0001
1000
0100
0010
0001
0010
,
0100
1000
0001
0100
0001
1000
0100
0010
0001
1000
0010
0100
0001
0010
0001
1000
,
0010
1000
0100
0010
0001
1000
0001
0010
0100
1000
0001
0100
0001
1000
0100
1000
,
0001
0010
0100
1000
0001
0100
0001
1000
0010
0100
0001
1000
0200
0000
0000
0000
,
0300
0000
0000
0000
,
MMMM
0000
0000
0000
;

//---------------dance-single - ----------------
#NOTES:
     dance-single:
     :
     Hard:
     20:
     1.000,1.000,0.050,0.672,1.000,1325.000,6.000,81.000,4.000,0.000:
0000
0000
0000
0000
,
0000
0000
0000
0000
0000
0000
0000
0000
0000
0000
0000
0000
2000
3000
0000
0000
,
0002
0003
0000
0000
0200
0300
0000
0020
0030
2000
3000
0000
0200
0300
0000
0000
,
0020
0030
0000
0000
0002
0003
0000
2000
3000
0020
0030
0000
0200
0301
0010
0100
,
2000
3010
0100
0001
2000
3001
1000
0020
0130
0002
1003
0100
0020
0031
1000
0010
,
2000
3100
0010
0001
2000
3010
0100
0002
0013
0200
1300
0001
2000
3001
1000
0010
,
0200
0301
0010
0100
2000
3001
1000
0200
0310
0002
1003
0010
2000
3100
0010
0001
,
2000
3001
0010
0100
2000
3001
1000
0020
0130
0002
0013
0100
2000
3001
1000
0100
,
0020
0031
1000
0010
2000
3001
0100
0002
0013
0200
1300
0001
2000
3100
0010
0001
,
2000
3001
0010
0100
2000
3001
0100
0002
1003
0020
0130
0001
2000
3100
1000
0001
,
0020
0130
1000
0001
0200
0301
1000
0200
0310
0002
1003
0010
0200
0301
1000
0100
,
0020
0031
1000
0001
0020
0000
0130
0200
0000
1300
2000
0000
3002
1003
0010
0100
,
0002
0000
0000
1003
0000
0000
0010
0000
0000
0100
0000
0000
0002
0000
0000
1003
0000
0000
0010
0000
0000
0200
0000
0000
0301
0000
0000
2000
0000
0000
3100
0000
0010
0000
0001
0000
2000
0000
0000
3010
0000
0000
0100
0000
0000
0001
0000
0000
,
2000
0000
0000
3100
0000
0000
0010
0000
0000
0001
0000
0000
2000
0000
0000
3010
0000
0000
0100
0000
0000
0001
0000
0000
1000
0000
0100
0000
0010
0000
0001
0000
1000
0000
0001
0000
0020
0000
0000
0130
0000
0000
1000
0000
0000
0001
0000
0000
,
0200
0000
0301
0000
1000
0000
0100
0000
2000
0000
3010
0000
0100
0000
0002
0000
0023
0000
0230
0000
1300
0001
1000
0100
0020
0000
0031
0000
1000
0000
0010
0000
,
2000
0000
0000
0000
0000
0000
0000
0000
0000
0000
0000
0000
3100
0000
0000
0000
0000
0000
0000
0000
0000
0000
0000
0000
0010
0000
0000
0000
0000
0000
0000
0000
0000
0000
0000
0000
0001
0000
0000
0000
0000
0000
0000
0000
0000
0000
0000
0000
2000
0000
0000
0000
0000
0000
0000
0000
3100
0000
0000
0000
0000
0000
0000
0000
0010
0000
0000
0000
0000
0000
0000
0000
0001
0000
0000
0000
0000
0000
0000
0000
0000
0000
0000
0000
1000
0000
0000
0000
0000
0000
0000
0000
0000
0000
0000
0000
0010
0000
0000
0000
0000
0000
0000
0000
0100
0000
0000
0000
0000
0000
0000
0000
0001
0000
0000
0000
0000
0000
0000
0000
1000
0000
0000
0000
0000
0000
0000
0000
0000
0000
0000
0000
0100
0000
0000
0000
0000
0000
0000
0000
0000
0000
0000
0000
0010
0000
0000
0000
0000
0000
0001
0000
0000
0000
0000
0000
0010
0000
0000
0000
0000
0000
0000
0000
0000
0000
0000
0000
1000
0000
0000
0000
0000
0000
0100
0000
0000
0000
0000
0000
1000
0000
0000
0000
0000
0000
0000
0000
0000
0000
0000
0000
,
0001
0000
0000
0000
0000
0000
0100
0000
0000
0000
0000
0000
0001
0000
0000
0000
0000
0000
0000
0000
0000
0000
0000
0000
1000
0000
0000
0000
0000
0000
0010
0000
0000
0000
0000
0000
1000
0000
0000
0000
0000
0000
0000
0000
0000
0000
0000
0000
0010
0000
0000
0000
0000
0000
0100
0000
0000
0000
0000
0000
0010
0000
0000
0000
0000
0000
0100
0000
0000
0000
0000
0000
0010
0000
0000
0000
0000
0000
0000
0000
0000
0000
0000
0000
0001
0000
0000
0000
0000
0000
0010
0000
0000
0000
0000
0000
0001
0000
0000
0000
0000
0000
0010
0000
0000
0000
0000
0000
0001
0000
0000
0000
0000
0000
0000
0000
0000
0000
0000
0000
1000
0000
0000
0000
0000
0000
0100
0000
0000
0000
0000
0000
1000
0000
0000
0000
0000
0000
0100
0000
0000
0000
0000
0000
1000
0000
0000
0000
0000
0000
0000
0000
0001
0000
0000
0000
0000
0000
0000
0000
1000
0000
0000
0000
0000
0000
0000
0000
0010
0000
0000
0000
0000
0000
0000
0000
0100
0000
0000
0000
0000
0000
0000
0000
0001
0000
0000
0000
0000
0000
0000
0000
,
2000
0000
0000
0000
0000
0000
0000
0000
3100
0000
0000
0000
0000
0000
0000
0000
0010
0000
0000
0000
0000
0000
0000
0000
0001
0000
0000
0000
0000
0000
0000
0000
0010
0000
0000
0000
0000
0000
0000
0000
0100
0000
0000
0000
0000
0000
0000
0000
2000
0000
0000
0000
0000
0000
0000
0000
0000
0000
0000
0000
3001
0000
0000
0000
0000
0000
0000
0000
0000
0000
0000
0000
1000
0000
0000
0000
0000
0000
0000
0000
0000
0000
0000
0000
0010
0000
0000
0000
0000
0000
0100
0000
0000
0000
0000
0000
0001
0000
0000
0000
0000
0000
0010
0000
0000
0000
0000
0000
0001
0000
0000
0000
0000
0000
1000
0000
0000
0000
0000
0000
0010
0000
0000
0000
0000
0000
1000
0000
0000
0000
0000
0000
0010
0000
0000
0000
0000
0000
0100
0000
0000
0000
0000
0000
0002
0000
0000
0000
0000
0000
1003
0000
0000
0000
0000
0000
0010
0000
0000
0000
0000
0000
0000
0000
0000
0000
0000
0000
0200
0000
0000
0000
0000
0000
0301
0000
0000
0000
0000
0000
0010
0000
0000
0000
0000
0000
0000
0000
0000
0000
0000
0000
,
0200
1300
0001
0000
2000
3010
0100
0000
0001
0010
0001
0010
0001
0000
1000
0010
1000
0010
1000
0000
0001
0100
0001
0100
0002
0000
1003
0000
0100
0000
0010
0000
,
0001
0000
0000
1000
0000
0000
0010
0000
0000
0100
0000
0000
0004
0000
0000
0000
0000
0000
0000
0000
0000
0000
0000
0000
0000
0000
0000
0000
0000
0000
0000
0000
0000
0000
0000
0000
0013
0000
0000
0000
0100
0000
0000
0000
1000
0000
0000
0000
,
0001
0100
0001
1000
0100
0010
0001
1000
0010
0100
0001
1000
,
0100
1000
0001
0010
0100
1000
0010
0100
0001
1000
0100
1000
,
0001
0010
0100
1000
0010
0100
0001
0010
0001
1000
0010
0100
,
0001
1000
0100
1000
0001
0100
0001
1000
0010
0100
0001
0010
,
0001
1000
0010
1000
0100
0010
0001
0100
0001
1000
0100
1000
,
0001
0010
0100
1000
0010
0100
0001
0010
0001
1000
0010
0100
,
0001
1000
0100
1000
0001
0010
0100
1000
0001
0100
0001
1000
,
0100
0010
0100
1000
0001
0010
0001
1000
0010
0100
0001
1000
,
0010
0100
0001
1000
0100
1000
0001
0010
0100
1000
0010
0100
,
0001
0010
0001
1000
0010
0100
0001
1000
0100
1000
0001
0010
,
0100
1000
0010
0100
0001
0010
0001
1000
0010
0100
0001
1000
,
0100
1000
0001
0010
0100
1000
0010
0100
0001
1000
0100
0010
,
0100
1000
0001
0010
0100
1000
0001
0100
0001
1000
0100
0010
,
0001
1000
0010
0100
0001
1000
0100
1000
0001
0010
0100
1000
,
0001
0000
0000
0000
0100
0000
0000
0000
0001
0000
0000
0000
1000
0000
0000
0000
0100
0000
0000
0000
0010
0000
0000
0000
0001
0000
0000
0000
1000
0000
0000
0000
0010
0000
0000
0000
0100
0000
0000
0001
0000
0000
1000
0000
0000
0100
0000
0000
,
1000
0001
0010
0100
1000
0010
0100
0001
1000
0100
1000
0001
0010
0000
0000
0000
,
0100
1000
0001
1000
,
0010
0000
0000
0100
0000
0000
0001
1000
0010
0200
0000
0000
,
0301
0010
0100
2000
0000
0000
3010
0100
0001
0020
0000
0000
,
0130
1000
0001
0100
0001
1000
0100
0010
0001
1000
0001
0100
,
0001
1000
0100
0010
0001
1000
0001
0010
0100
1000
0001
0100
,
0001
1000
0100
0020
0000
0000
0000
0000
0000
0031
0000
0000
,
1001
1000
1010
0010
,
0110
0100
0101
0002
,
1003
0001
0100
0100
1000
0100
0100
0001
,
0100
0100
1000
0100
0100
0001
0010
0010
,
1000
0010
0010
0001
0010
0010
1000
0010
,
0010
0000
0001
0000
0010
0100
1000
0001
0100
0001
1000
0100
0010
0001
1000
0010
,
0100
0001
1000
0100
1000
0001
0100
0001
1000
0100
0010
0001
1000
0001
0010
0001
,
1000
0010
0100
0001
1000
0100
1000
0001
0100
0001
1000
0010
0100
0001
0010
0100
,
1000
0001
0100
0001
1000
0100
0010
0001
1000
0010
0100
0001
1000
0100
1000
0001
,
0010
0000
0000
0100
0000
0000
1000
0000
0000
0001
0000
0000
0100
0000
0000
0001
0000
0000
1000
0000
0000
0100
0000
0000
0010
0000
0000
0001
0000
0000
1000
0000
0000
0001
0000
0000
0100
0000
0000
0000
0010
0000
0000
0000
1000
0000
0000
0000
,
0100
0010
0001
1000
0001
0010
0100
1000
0001
0100
0001
1000
,
0100
0010
0001
1000
0010
1000
0001
0010
0100
1000
0001
0100
,
0001
1000
0100
0010
0001
1000
0001
0010
0001
1000
0010
1000
,
0100
0010
0001
0100
0001
1000
0100
1000
0001
0010
0100
1000
,
0001
0100
0001
1000
0010
0100
0001
0010
0001
1000
0010
0100
,
0001
1000
0100
1000
0001
0010
0100
1000
0001
0100
0001
1000
,
0100
0010
0001
1000
0001
0010
0001
1000
0010
0100
0001
1000
,
0100
1000
0001
0010
0100
1000
0001
0100
0001
1000
0010
0100
,
0001
0010
0001
1000
0010
0100
0001
1000
0100
1000
0001
0010
,
0100
1000
0001
0100
0001
1000
0100
0010
0001
1000
0001
0010
,
0100
1000
0001
0100
0001
1000
0010
0100
0001
0010
0001
1000
,
0010
0100
0001
1000
0100
1000
0001
0100
0001
0010
0100
1000
,
0010
0100
0001
0010
0001
1000
0100
0010
0100
1000
0001
0010
,
0100
0010
0001
1000
0010
1000
0001
0100
0001
1000
0100
0010
,
0001
1000
0001
0010
0001
1000
0010
0100
0001
1000
0100
1000
,
0001
0000
0000
0000
1000
0000
0000
0000
0100
0000
0000
0000
4000
0000
0000
0000
0000
0000
0000
0000
0000
0000
0000
0000
0000
0000
0000
0000
0000
0000
0000
0000
0000
0000
0000
0000
3001
0000
0000
0010
0000
0000
0100
0000
0000
1000
0000
0000
,
0001
0100
0001
1000
0100
0010
0001
1000
0010
0100
0001
0010
0001
1000
0010
0100
,
0001
1000
0100
1000
0001
0010
0100
1000
0001
0100
0001
1000
0100
0010
0001
1000
,
0010
0100
0001
1000
0100
1000
0001
0010
0100
0010
0001
1000
0010
0100
0001
1000
,
0100
1000
0001
0010
0001
1000
0010
0100
0001
1000
0100
1000
0001
0010
0100
0010
,
0001
1000
0010
1000
0100
0010
0001
0010
0100
1000
0001
0100
0001
1000
0010
0100
,
0001
1000
0100
1000
0001
0010
0100
1000
0010
0100
0001
1000
0100
1000
0001
0010
,
0100
1000
0010
0100
0001
1000
0100
1000
0001
0010
0001
1000
0010
0100
0001
1000
,
0100
1000
0001
0010
0100
0010
0001
1000
0010
0100
0001
1000
0100
0010
0100
1000
,
0001
0010
0001
1000
0010
0100
0001
1000
0100
1000
0001
0010
0100
1000
0001
0100
,
0001
1000
0100
0010
0001
1000
0010
1000
0100
0010
0001
1000
0001
0100
0010
1000
,
0100
0010
0001
1000
0001
0010
0100
1000
0001
0100
0001
1000
0010
0100
0001
1000
,
0100
1000
0001
0010
0100
0010
0001
1000
0010
0100
0001
1000
0100
0010
0100
1000
,
0001
0100
0001
1000
0100
0010
0001
1000
0001
0010
0100
1000
0001
0100
0001
1000
,
0010
0100
0001
0010
0001
1000
0010
0100
0001
1000
0100
1000
0001
0010
0100
0010
,
0001
1000
0100
1000
0001
0010
0100
1000
0001
0100
0001
1000
0200
0000
0000
0000
,
0000
0000
0000
0000
0000
0000
0000
0000
0000
0000
0000
0000
0310
0001
1000
0001
,
0010
0100
1000
0001
0100
0001
1000
0010
0100
0001
1000
0100
1000
0001
0010
0100
,
1000
0010
0100
0001
1000
0100
1000
0001
0010
0100
0010
0001
1000
0010
1000
0001
,
0100
0001
1000
0100
0010
0100
1000
0001
0100
0001
1000
0010
0100
0001
0010
0001
,
1000
0100
0010
0100
1000
0001
0100
0001
1000
0010
0100
0001
0010
0001
1000
0010
,
0100
0001
1000
0100
1000
0001
0010
0100
0010
0001
1000
0100
0010
0001
1000
0001
,
0010
0100
1000
0001
0100
0001
1000
0100
0010
0001
1000
0001
0010
0100
1000
0010
,
0100
0001
0010
0001
1000
0010
1000
0001
0100
0001
1000
0010
0100
0001
0010
0001
,
1000
0100
0010
0001
1000
0001
0010
0100
1000
0001
0100
0001
1000
0010
0100
0001
,
0010
0001
1000
0100
0010
0100
1000
0001
0010
0001
1000
0100
0010
0001
1000
0001
,
0010
0100
1000
0001
0100
0001
1000
0100
0010
0100
1000
0001
0010
0001
1000
0010
,
0100
0001
1000
0100
1000
0001
0010
0100
1000
0010
0100
0001
0010
0001
1000
0010
,
0100
0001
1000
0100
1000
0001
0010
0100
1000
0001
1000
0100
0010
0001
1000
0001
,
0010
0100
1000
0001
0100
0001
1000
0010
0100
0001
0010
0001
1000
0010
0100
0001
,
1000
0100
1000
0001
0010
0100
1000
0001
1000
0100
0010
0001
1000
0010
1000
0001
,
0010
0100
1000
0001
0100
0001
1000
0100
0010
0001
1000
0001
0010
0001
1000
0010
,
0100
0001
1000
0100
1000
0001
0010
0100
1000
0001
0100
0001
2000
0000
0000
0000
,
3000
0000
0000
0000
,
MMMM
0000
0000
0000
;

//---------------dance-single - ----------------
#NOTES:
     dance-single:
     :
     Challenge:
     22:
     1.000,1.000,0.008,0.730,1.000,1492.000,1.000,88.000,4.000,0.000:

0000
0000
0000
0000
,
0000
0000
0000
0000
0000
0000
0000
0000
0000
0000
0000
0000
2000
3000
0000
0000
,
0002
0003
0000
0000
0200
0300
0000
0020
0030
2000
3000
0000
0200
0300
0000
0000
,
0020
0030
0000
0000
0002
0003
0000
2000
3000
0020
0030
0000
0200
0301
0010
0100
,
2000
3010
0100
0001
2000
3001
1000
0020
0130
0002
1003
0100
0020
0031
1000
0010
,
2000
3100
0010
0001
2000
3010
0100
0002
0013
0200
1300
0001
2000
3001
1000
0010
,
0200
0301
0010
0100
2000
3001
1000
0200
0310
0002
1003
0010
2000
3100
0010
0001
,
2000
3001
0010
0100
2000
3001
1000
0020
0130
0002
0013
0100
2000
3001
1000
0100
,
0020
0031
1000
0010
2000
3001
0100
0002
0013
0200
1300
0001
2000
3100
0010
0001
,
2000
3001
0010
0100
2000
3001
0100
0002
1003
0020
0130
0001
2000
3100
1000
0001
,
0020
0130
1000
0001
0200
0301
1000
0200
0310
0002
1003
0010
0200
0301
1000
0100
,
0020
0031
1000
0001
0020
0000
0130
0200
0000
1300
2000
0000
3002
1003
0010
0100
,
0002
0000
0000
1003
0000
0000
0010
0000
0000
0100
0000
0000
0002
0000
0000
1003
0000
0000
0010
0000
0000
0200
0000
0000
0301
0000
0000
2000
0000
0000
3100
0000
0010
0000
0001
0000
2000
0000
0000
3010
0000
0000
0100
0000
0000
0001
0000
0000
,
2000
0000
0000
3100
0000
0000
0010
0000
0000
0001
0000
0000
2000
0000
0000
3010
0000
0000
0100
0000
0000
0001
0000
0000
1000
0000
0100
0000
0010
0000
0001
0000
1000
0000
0001
0000
0020
0000
0000
0130
0000
0000
1000
0000
0000
0001
0000
0000
,
0200
0000
0301
0000
1000
0000
0100
0000
2000
0000
3010
0000
0100
0000
0002
0000
0023
0000
0230
0000
1300
0001
1000
0100
0020
0000
0031
0000
1000
0000
0010
0000
,
2000
0000
0000
0000
0000
0000
0000
0000
0000
0000
0000
0000
3100
0000
0000
0000
0000
0000
0000
0000
0000
0000
0000
0000
0010
0000
0000
0000
0000
0000
0000
0000
0000
0000
0000
0000
0001
0000
0000
0000
0000
0000
0000
0000
0000
0000
0000
0000
2000
0000
0000
0000
0000
0000
0000
0000
3100
0000
0000
0000
0000
0000
0000
0000
0010
0000
0000
0000
0000
0000
0000
0000
0001
0000
0000
0000
0000
0000
0000
0000
0000
0000
0000
0000
1000
0000
0000
0000
0000
0000
0000
0000
0000
0000
0000
0000
0010
0000
0000
0000
0000
0000
0000
0000
0100
0000
0000
0000
0000
0000
0000
0000
0001
0000
0000
0000
0000
0000
0000
0000
1000
0000
0000
0000
0000
0000
0000
0000
0000
0000
0000
0000
0100
0000
0000
0000
0000
0000
0000
0000
0000
0000
0000
0000
0010
0000
0000
0000
0000
0000
0001
0000
0000
0000
0000
0000
0010
0000
0000
0000
0000
0000
0000
0000
0000
0000
0000
0000
1000
0000
0000
0000
0000
0000
0100
0000
0000
0000
0000
0000
1000
0000
0000
0000
0000
0000
0000
0000
0000
0000
0000
0000
,
0001
0000
0000
0000
0000
0000
0100
0000
0000
0000
0000
0000
0001
0000
0000
0000
0000
0000
0000
0000
0000
0000
0000
0000
1000
0000
0000
0000
0000
0000
0010
0000
0000
0000
0000
0000
1000
0000
0000
0000
0000
0000
0000
0000
0000
0000
0000
0000
0010
0000
0000
0000
0000
0000
0100
0000
0000
0000
0000
0000
0010
0000
0000
0000
0000
0000
0100
0000
0000
0000
0000
0000
0010
0000
0000
0000
0000
0000
0000
0000
0000
0000
0000
0000
0001
0000
0000
0000
0000
0000
0010
0000
0000
0000
0000
0000
0001
0000
0000
0000
0000
0000
0010
0000
0000
0000
0000
0000
0001
0000
0000
0000
0000
0000
0000
0000
0000
0000
0000
0000
1000
0000
0000
0000
0000
0000
0100
0000
0000
0000
0000
0000
1000
0000
0000
0000
0000
0000
0100
0000
0000
0000
0000
0000
1000
0000
0000
0000
0000
0000
0000
0000
0001
0000
0000
0000
0000
0000
0000
0000
1000
0000
0000
0000
0000
0000
0000
0000
0010
0000
0000
0000
0000
0000
0000
0000
0100
0000
0000
0000
0000
0000
0000
0000
0001
0000
0000
0000
0000
0000
0000
0000
,
2000
0000
0000
0000
0000
0000
0000
0000
3100
0000
0000
0000
0000
0000
0000
0000
0010
0000
0000
0000
0000
0000
0000
0000
0001
0000
0000
0000
0000
0000
0000
0000
0010
0000
0000
0000
0000
0000
0000
0000
0100
0000
0000
0000
0000
0000
0000
0000
2000
0000
0000
0000
0000
0000
0000
0000
0000
0000
0000
0000
3001
0000
0000
0000
0000
0000
0000
0000
0000
0000
0000
0000
1000
0000
0000
0000
0000
0000
0000
0000
0000
0000
0000
0000
0010
0000
0000
0000
0000
0000
0100
0000
0000
0000
0000
0000
0001
0000
0000
0000
0000
0000
0010
0000
0000
0000
0000
0000
0001
0000
0000
0000
0000
0000
1000
0000
0000
0000
0000
0000
0010
0000
0000
0000
0000
0000
1000
0000
0000
0000
0000
0000
0010
0000
0000
0000
0000
0000
0100
0000
0000
0000
0000
0000
0002
0000
0000
0000
0000
0000
1003
0000
0000
0000
0000
0000
0010
0000
0000
0000
0000
0000
0000
0000
0000
0000
0000
0000
0200
0000
0000
0000
0000
0000
0301
0000
0000
0000
0000
0000
0010
0000
0000
0000
0000
0000
0000
0000
0000
0000
0000
0000
,
0200
1300
0001
0000
2000
3010
0100
0000
0001
0010
0001
0010
0001
0000
1000
0010
1000
0010
1000
0000
0001
0100
0001
0100
0002
0000
1003
0000
0100
0000
0010
0000
,
0001
0000
1000
0000
0010
0000
0100
0000
0001
0010
0100
1000
0001
0100
0001
1000
0100
0010
0001
1000
0001
0010
0100
1000
0001
0000
1000
0000
0010
0000
0100
0000
,
0001
1000
0100
1000
0001
0010
0100
1000
0010
0100
0001
0010
0001
1000
0010
0100
,
0001
1000
0100
1000
0001
0010
0100
0010
0001
1000
0010
1000
0100
0010
0001
1000
,
0001
0010
0100
1000
0001
0100
0001
1000
0100
0010
0100
1000
0001
0010
0001
1000
,
0100
0010
0001
1000
0010
1000
0100
0010
0001
0100
0001
1000
0100
1000
0001
0010
,
0100
0010
0001
1000
0010
0100
0001
1000
0100
0010
0100
1000
0001
0010
0001
1000
,
0010
0100
0001
1000
0100
0010
0100
1000
0001
0100
0001
1000
0100
0010
0001
1000
,
0010
1000
0100
0010
0001
0100
0001
1000
0100
0010
0100
1000
0001
0010
0100
1000
,
0001
0010
0001
1000
0010
0100
0001
1000
0100
1000
0001
0010
0100
1000
0001
0100
,
0001
1000
0010
0100
0001
0010
0001
1000
0100
0010
0001
1000
0010
1000
0100
0010
,
0001
1000
0001
0010
0100
1000
0001
0100
0001
1000
0100
0010
0001
1000
0001
0010
,
0001
1000
0010
0100
0001
1000
0100
1000
0001
0010
0100
0010
0001
1000
0100
0010
,
0100
1000
0001
0010
0001
1000
0010
1000
0100
0010
0001
0100
0001
1000
0100
0010
,
0100
1000
0001
0010
0001
1000
0010
0100
0001
1000
0100
1000
0001
0010
0100
0010
,
0001
1000
0010
1000
0100
0010
0001
0100
0001
1000
0100
1000
0001
0010
0100
1000
,
0001
0100
0001
1000
0100
0010
0001
1000
0001
0010
0100
1000
0001
0100
0001
1000
,
0100
0010
0001
1000
0010
1000
0100
0010
0001
0100
0001
1000
0200
0000
0000
0000
,
0320
0032
2003
3020
,
0230
0000
0000
0302
0000
0000
0013
0100
1000
0020
0000
0000
,
0130
0001
1000
0200
0000
0000
0310
0001
1000
0200
0000
0000
,
0310
0001
1000
0010
0100
0001
1000
0100
1000
0001
0010
0100
,
1000
0100
0010
0001
1000
0010
1000
0001
0100
0001
1000
0100
,
0010
0001
1000
0200
0000
0000
0000
0000
0000
0310
0001
1000
,
0001
0010
0100
1000
0001
0100
0001
1000
0100
0010
0001
1000
,
0010
0100
0001
1000
0100
1000
0001
1000
0100
0020
0000
0000
,
0031
1000
0010
0100
0001
1000
0100
1000
0001
0010
0100
1000
,
0010
0100
0001
1000
0100
1000
0001
0010
0100
1000
0001
0100
,
0001
1000
0100
0010
0001
1000
0010
0100
0001
0010
0001
1000
,
0100
0000
0000
0000
0010
0000
0000
0000
0001
0000
0000
0000
1000
0000
0000
0001
0000
0000
0100
0000
0000
0001
0000
0000
1000
0000
0000
0100
0000
0000
0010
0000
0000
0001
0000
0000
1000
0000
0000
0001
0000
0000
0010
0000
0000
0001
0000
0000
,
1000
0010
0100
0001
1000
0100
1000
0001
0010
0100
1000
0001
0100
0001
1000
0100
,
0010
0001
1000
0010
1000
0001
0100
0001
0010
0100
1000
0001
0100
0001
1000
0100
,
0010
0001
1000
0001
0010
0100
1000
0001
0100
0001
1000
0010
0100
0001
0010
0001
,
1000
0100
0010
0001
1000
0001
0010
0100
0010
0001
1000
0001
0100
0010
1000
0100
,
1000
0001
0010
0100
1000
0001
0100
0001
1000
0010
0100
0001
0010
0001
1000
0100
,
0010
0001
1000
0001
0010
0100
1000
0001
0100
0001
1000
0010
0100
0001
0010
0001
,
1000
0010
0100
0001
1000
0100
0010
0100
1000
0001
0100
0001
1000
0100
1000
0001
,
0010
0100
1000
0001
0100
0001
1000
0010
0100
0001
0010
0001
1000
0100
0010
0001
,
1000
0001
0010
0100
1000
0001
0100
0001
1000
0100
0010
0001
1000
0010
1000
0100
,
0010
0001
0100
0001
0010
0100
1000
0001
0100
0001
1000
0100
0010
0001
1000
0010
,
0100
0001
0010
0001
1000
0100
0010
0001
1000
0001
0010
0100
0010
0001
1000
0100
,
0010
0100
1000
0001
0100
0001
1000
0010
0100
0001
0010
0001
1000
0100
0010
0100
,
1000
0001
0100
0001
1000
0010
0100
0001
1000
0100
1000
0001
0010
0100
0010
0001
,
1000
0001
0100
0010
1000
0100
0010
0001
1000
0010
0100
0001
1000
0100
1000
0001
,
1000
0100
0010
0001
1000
0010
1000
0100
0010
0001
0100
0001
1000
0100
1000
0001
,
0010
0100
1000
0010
0100
0001
1000
0100
1000
0001
0010
0100
0010
0001
1000
0010
,
0100
0001
1000
0100
1000
0001
0010
0100
1000
0001
0100
0001
1000
0100
0010
0001
,
1000
0010
1000
0001
0010
0100
1000
0001
0100
0001
1000
0100
0010
0001
1000
0010
,
1000
0100
0010
0001
0100
0001
1000
0001
0010
0100
1000
0001
0100
0001
1000
0010
,
0100
0001
1000
0100
0040
0000
0000
0000
0000
0000
0000
0000
0031
0010
0100
1000
,
0001
0100
0001
1000
0100
0010
0001
1000
0010
0100
0001
0010
0001
1000
0010
0100
,
0001
1000
0100
1000
0001
0010
0100
1000
0001
0100
0001
1000
0100
0010
0001
1000
,
0010
0100
0001
1000
0100
1000
0001
0010
0100
0010
0001
1000
0010
0100
0001
1000
,
0100
1000
0001
0010
0001
1000
0010
0100
0001
1000
0100
1000
0001
0010
0100
0010
,
0001
1000
0010
1000
0100
0010
0001
0010
0100
1000
0001
0100
0001
1000
0010
0100
,
0001
1000
0100
1000
0001
0010
0100
1000
0010
0100
0001
1000
0100
1000
0001
0010
,
0100
1000
0010
0100
0001
1000
0100
1000
0001
0010
0001
1000
0010
0100
0001
1000
,
0100
1000
0001
0010
0100
0010
0001
1000
0010
0100
0001
1000
0100
0010
0100
1000
,
0001
0010
0001
1000
0010
0100
0001
1000
0100
1000
0001
0010
0100
1000
0001
0100
,
0001
1000
0100
0010
0001
1000
0010
1000
0100
0010
0001
1000
0001
0100
0010
1000
,
0100
0010
0001
1000
0001
0010
0100
1000
0001
0100
0001
1000
0010
0100
0001
1000
,
0100
1000
0001
0010
0100
0010
0001
1000
0010
0100
0001
1000
0100
0010
0100
1000
,
0001
0100
0001
1000
0100
0010
0001
1000
0001
0010
0100
1000
0001
0100
0001
1000
,
0010
0100
0001
0010
0001
1000
0010
0100
0001
1000
0100
1000
0001
0010
0100
0010
,
0001
1000
0100
1000
0001
0010
0100
1000
0001
0100
0001
1000
0200
0000
0000
0000
,
0000
0000
0000
0000
0000
0000
0000
0000
0000
0000
0000
0000
0310
0001
1000
0001
,
0010
0100
1000
0001
0100
0001
1000
0010
0100
0001
1000
0100
1000
0001
0010
0100
,
1000
0010
0100
0001
1000
0100
1000
0001
0010
0100
0010
0001
1000
0010
1000
0001
,
0100
0001
1000
0100
0010
0100
1000
0001
0100
0001
1000
0010
0100
0001
0010
0001
,
1000
0100
0010
0100
1000
0001
0100
0001
1000
0010
0100
0001
0010
0001
1000
0010
,
0100
0001
1000
0100
1000
0001
0010
0100
0010
0001
1000
0100
0010
0001
1000
0001
,
0010
0100
1000
0001
0100
0001
1000
0100
0010
0001
1000
0001
0010
0100
1000
0010
,
0100
0001
0010
0001
1000
0010
1000
0001
0100
0001
1000
0010
0100
0001
0010
0001
,
1000
0100
0010
0001
1000
0001
0010
0100
1000
0001
0100
0001
1000
0010
0100
0001
,
0010
0001
1000
0100
0010
0100
1000
0001
0010
0001
1000
0100
0010
0001
1000
0001
,
0010
0100
1000
0001
0100
0001
1000
0100
0010
0100
1000
0001
0010
0001
1000
0010
,
0100
0001
1000
0100
1000
0001
0010
0100
1000
0010
0100
0001
0010
0001
1000
0010
,
0100
0001
1000
0100
1000
0001
0010
0100
1000
0001
1000
0100
0010
0001
1000
0001
,
0010
0100
1000
0001
0100
0001
1000
0010
0100
0001
0010
0001
1000
0010
0100
0001
,
1000
0100
1000
0001
0010
0100
1000
0001
1000
0100
0010
0001
1000
0010
1000
0001
,
0010
0100
1000
0001
0100
0001
1000
0100
0010
0001
1000
0001
0010
0001
1000
0010
,
0100
0001
1000
0100
1000
0001
0010
0100
1000
0001
0100
0001
2000
0000
0000
0000
,
3000
0000
0000
0000
,
MMMM
0000
0000
0000
;
