#TITLE:Gobi's Valley;
#SUBTITLE:Banjo Kazooie;
#ARTIST:Grant Kirkhope;
#TITLETRANSLIT:;
#SUBTITLETRANSLIT:;
#ARTISTTRANSLIT:;
#CREDIT:_.Spitfire._;
#BANNER:Gobi'sValley-bn.PNG;
#BACKGROUND:Gobi'sValley-bg.PNG;
#LYRICSPATH:;
#CDTITLE:!cdtitle_spitfire.PNG;
#MUSIC:09 Gobi's Valley.mp3;
#OFFSET:-0.260;
#SAMPLESTART:100.000;
#SAMPLELENGTH:12.000;
#SELECTABLE:YES;
#BPMS:0.000=130.100;
#STOPS:;
#BGCHANGES:;
// cache tags:
#FIRSTBEAT:4.000;
#LASTBEAT:356.000;
#SONGFILENAME:Songs/toune 6/Gobi's Valley (_.Spitfire._)/09 Gobi's Valley.sm;
#HASMUSIC:1;
#HASBANNER:1;
#MUSICLENGTH:180.152;
// end cache tags

//---------------dance-single - ----------------
#NOTES:
     dance-single:
     :
     Hard:
     8:
     0.920,1.000,0.788,1.000,0.366,717.000,142.000,301.000,0.000,48.000:
0000
0000
0000
0000
,
2000
0000
0000
3200
0000
0000
0302
0000
,
0000
0000
2003
0000
0000
0000
3100
0010
0200
0000
0000
0000
2300
0000
0000
3000
,
1001
0000
0010
0010
0100
0000
0001
0000
1010
0000
0100
0100
0001
0000
0010
0000
,
0101
0000
1000
1000
0100
0000
0001
0000
1100
0000
0001
0001
0100
0000
0010
0000
,
1002
0000
0013
0000
0200
0000
0301
0000
2000
0000
3100
0000
0020
0000
0000
0030
,
1000
0010
1000
0010
1000
0000
0001
0000
0120
0000
0000
0000
0000
0000
1030
0000
,
2001
0000
3100
0000
0020
0000
0130
0000
0002
0000
0013
0000
2000
0000
0000
3000
,
1000
0100
0010
0100
1000
0000
0100
0000
0001
0010
0100
0010
0001
0000
1000
0000
,
0200
0000
0301
0000
0002
0000
1003
0000
2000
0000
3001
0000
0200
0000
0000
0300
,
0001
0010
0001
0010
0001
0000
0100
0000
2010
0000
0000
0000
0000
0000
3001
0000
,
0021
0000
0130
0000
0002
0000
1003
0000
0200
0000
0301
0000
2000
0000
0000
3000
,
1001
0000
0000
0000
1010
0000
0000
0000
0120
0000
0000
0000
0000
0000
0000
0030
,
1001
0000
0100
1000
0010
0000
0001
0000
1010
0000
0010
1000
0100
0000
0010
0000
,
1100
0000
0010
0001
0100
0000
1000
0000
0011
0000
0100
0000
1000
0000
0001
0000
,
2002
0000
3013
0000
2200
0000
3310
0000
0202
0000
0313
0000
2020
0000
0000
3030
,
1001
0100
0001
0100
1001
0000
0110
0000
0202
0000
0000
0000
0000
0000
1303
0000
,
2020
0000
3031
0000
0202
0000
1303
0000
2200
0000
3301
0000
0022
0000
0000
0033
,
1010
0100
0010
0001
1100
0000
1010
0000
0101
0010
0100
1000
0011
0000
0101
0000
,
2002
0000
3103
0000
0022
0000
0133
0000
2200
0000
3310
0000
2020
0000
0000
3030
,
0101
0010
0100
0010
1001
0000
0101
0000
0022
0000
0000
0000
0000
0000
0133
0000
,
0220
0000
0331
0000
2002
0000
3103
0000
2020
0000
3130
0000
2200
0000
0000
3300
,
1001
0000
0000
0000
1010
0000
0000
0000
0220
0000
0000
0000
0000
0000
0000
0330
,
2001
0000
3020
0230
0302
0000
0203
0320
,
1031
0000
0100
0100
1000
0000
0010
0010
0101
0000
0010
0010
0001
0000
1000
1000
,
0120
0000
0230
2300
3002
0000
2003
3200
,
0302
0023
0230
2300
,
3102
0000
0023
2030
3200
0000
2300
3020
,
1031
0000
1000
1000
0100
0000
0100
0100
0011
0000
0001
0001
0010
0000
0010
0010
,
1200
0000
2300
3002
0023
0000
0032
2003
,
3200
0000
0302
0023
2030
0000
3020
0230
,
0302
0023
0230
0000
0320
0230
2300
0000
,
3010
0100
0001
0100
0010
1000
0010
0100
0010
0001
0010
0100
2000
0000
3200
0000
,
2302
0000
3103
0000
2200
0000
3301
0000
2200
0000
3310
0000
2002
0000
0000
3003
,
0011
0100
1000
0001
1010
0000
0110
0000
0202
0000
0000
0000
0000
0000
0313
0000
,
0202
0000
0313
0000
2020
0000
3130
0000
0202
0000
1303
0000
2020
0000
0000
3030
,
1001
0010
0100
0010
1001
0000
0110
0000
1100
0010
0001
0010
1100
0000
1001
0000
,
0220
0000
0331
0000
0022
0000
1033
0000
2200
0000
3310
0000
0220
0000
0000
0330
,
1001
0010
1000
0100
0011
0000
0110
0000
2200
0000
0000
0000
0000
0000
3301
0000
,
0202
0000
0313
0000
0022
0000
1033
0000
0022
0000
0133
0000
2002
0000
0000
3003
,
0110
0000
0000
0000
1010
0000
0000
0000
0202
0000
0000
0000
0000
0000
0000
0303
,
1000
0100
1000
0100
1000
0000
0100
0000
0001
0010
0001
0010
0001
0000
0010
0000
,
1000
0001
1000
0010
1000
0001
1000
0010
1000
0001
1000
0010
1000
0001
1000
0010
,
0100
0001
0100
0001
0100
0000
0001
0000
0010
1000
0010
1000
0010
0000
1000
0000
,
1001
0100
0010
0100
1001
0010
0100
0010
,
0101
0010
0100
0010
0100
0000
0010
0000
0001
1000
0001
1000
0001
0000
1000
0000
,
0001
0100
0001
0010
0001
0100
0001
0010
0001
0100
0001
0010
0001
0100
0001
0010
,
1001
0010
1000
0010
1000
0000
0010
0000
0001
0100
0001
0100
0001
0000
0100
0000
,
0020
0000
0000
0130
0001
0000
0010
0000
0100
0000
0100
0000
0010
0000
0001
0000
,
2010
0000
3001
0100
0021
0000
1030
0001
,
0200
0000
0301
0100
0010
1000
0100
0010
,
0002
0000
0103
0000
2000
0000
3010
0000
0200
0000
1300
0000
0020
0000
0000
0030
,
0100
0010
0100
0010
0100
0000
0001
0000
2000
0000
0000
0000
0000
0000
3010
0000
,
2000
0000
3001
0000
0020
0000
1030
0000
0200
0000
0310
0000
0002
0000
0000
0003
,
0001
0100
0010
0100
0001
0000
0010
0000
1000
0010
0100
0010
1000
0000
0100
0000
,
0020
0000
1030
0000
0200
0000
0301
0000
2000
0000
3100
0000
0002
0000
0000
0003
,
0100
0010
1000
0010
0100
0000
0001
0000
0200
0000
0000
0000
0000
0000
1300
0000
,
0002
0000
0103
0000
0020
0000
1030
0000
0200
0000
0301
0000
2000
0000
0000
3000
,
0002
0000
0000
0000
0023
0000
0000
0000
2030
0000
0000
0000
0000
0000
0000
3000
,
0200
0320
0230
0320
2030
0000
3002
0000
0023
0000
0000
0000
0230
0000
0302
0000
,
0023
0000
0000
0030
1000
0000
1000
0000
0200
0000
0000
0300
0001
0000
0001
0000
0020
0000
0000
0030
0100
0000
0100
0000
2000
0000
0000
3000
0010
0000
0010
0000
,
2001
3200
2300
3200
0320
0000
0032
0000
0203
0000
0000
0000
0320
0000
2030
0000
,
3200
0320
0032
2003
,
3002
0203
0302
0203
0302
0000
0023
0000
2030
0000
0000
0000
3200
0000
0320
0000
,
0032
0000
0000
0003
1000
0000
1000
0000
0020
0000
0000
0030
0001
0000
0001
0000
0200
0000
0000
0300
0010
0000
0010
0000
2000
0000
0000
3000
0100
0000
0100
0000
,
1002
0203
0302
0203
0320
0000
0230
0000
0320
0000
0000
0000
2030
0000
3200
0000
,
0302
0000
0023
2030
3200
0000
2300
3020
,
0032
0203
0320
0000
2030
3002
0023
0000
,
0230
0300
0002
0003
0200
0300
0020
0030
0200
0300
2000
3000
0200
0300
0020
0030
0002
0003
0200
0300
0020
0030
2000
3000
0200
0000
0000
0000
0302
0000
0000
0000
,
1013
0000
0100
0100
0010
0000
1000
0000
1001
0000
0010
0010
0100
0000
0001
0000
,
0110
0000
1000
1000
0001
0000
0100
0000
0110
0000
0001
0001
1000
0000
0010
0000
,
0120
0000
0031
0000
0200
0000
0310
0000
2000
0000
3100
0000
0002
0000
0000
0003
,
1000
0001
0100
0001
1000
0000
0100
0000
1020
0000
0000
0000
0000
0000
0130
0000
,
0210
0000
1300
0000
0020
0000
0130
0000
0002
0000
0013
0000
2000
0000
0000
3000
,
0001
0010
1000
0010
0001
0000
0100
0000
1000
0010
0001
0010
1000
0000
0001
0000
,
0102
0000
0013
0000
2000
0000
3100
0000
0020
0000
0130
0000
0200
0000
0000
0300
,
1000
0100
1000
0100
1000
0000
0010
0000
0002
0000
0000
0000
0000
0000
0103
0000
,
2010
0000
3001
0000
0020
0000
1030
0000
0200
0000
0310
0000
0002
0000
0000
0003
,
0020
2030
3002
0000
,
0113
0000
0100
1000
0010
0000
0100
0000
0110
0000
0010
0001
0100
0000
0010
0000
,
1001
0000
0100
0010
1000
0000
0001
0000
1000
0000
0010
0000
0001
0000
1000
0000
,
0022
0000
1033
0000
0220
0000
0331
0000
2200
0000
3310
0000
2002
0000
0000
3003
,
1010
0001
0100
0010
1001
0000
0100
0000
2020
0000
0000
0000
0000
0000
3130
0000
,
0202
0000
0313
0000
0220
0000
0331
0000
2020
0000
3130
0000
2200
0000
0000
3300
,
1010
0001
0010
0100
0011
0000
0110
0000
0101
1000
0100
0010
1100
0000
0110
0000
,
2002
0000
3103
0000
2002
0000
3013
0000
2002
0000
3103
0000
2020
0000
0000
3030
,
1001
0010
0100
0010
1001
0000
0101
0000
0220
0000
0000
0000
0000
0000
1330
0000
,
2020
0000
3031
0000
0202
0000
0313
0000
2020
0000
3130
0000
0202
0000
0000
0303
,
1010
1001
0220
0000
,
0330
0000
0000
0000
;
