#TITLE:Mad Monster Mansion;
#SUBTITLE:Banjo-Kazooie;
#ARTIST:Rareware;
#TITLETRANSLIT:;
#SUBTITLETRANSLIT:;
#ARTISTTRANSLIT:;
#CREDIT:;
#BANNER:mmm.png;
#BACKGROUND:mmm-bg.png;
#LYRICSPATH:;
#CDTITLE:kyka06.png;
#MUSIC:MadMonsterMansion.mp3;
#OFFSET:-0.240;
#SAMPLESTART:59.607;
#SAMPLELENGTH:12.500;
#SELECTABLE:YES;
#BPMS:0.000=130.250,16.000=135.250,24.000=120.250,28.000=130.250,112.000=128.250,120.000=130.250,248.000=128.250,252.000=130.250;
#STOPS:;
#BGCHANGES:;
// cache tags:
#FIRSTBEAT:0.000;
#LASTBEAT:276.000;
#SONGFILENAME:Songs/new/BK - Mad Monster Mansion/mmm.sm;
#HASMUSIC:1;
#HASBANNER:1;
#MUSICLENGTH:128.444;
// end cache tags

//---------------dance-single - ----------------
#NOTES:
     dance-single:
     :
     Hard:
     10:
     0.576,0.886,0.101,0.031,0.510,501.000,13.000,4.000,0.000,0.000:
1001
0000
0000
0000
,
0011
0000
0000
0000
,
1010
0000
0000
0000
,
0101
0000
0000
0000
,
0002
0000
0000
0000
0000
0000
0000
0000
0000
0000
0000
0003
0020
0000
0000
0000
0000
0000
0000
0000
0000
0000
0000
0000
,
0230
0000
2300
0000
,
0000
0000
0000
0000
0000
0000
0000
0000
0000
0000
0000
0000
0000
0000
0000
0000
0000
3000
0000
0000
0010
0100
1000
0010
,
0100
0001
0100
1000
0010
0100
0001
0010
,
0100
1000
0010
0100
0001
0010
0100
1000
,
0010
0000
0100
0000
0001
0000
0000
0010
,
0100
1000
0010
0000
0100
0001
0010
0000
,
0100
0000
1000
0000
0010
0000
0000
1000
,
0100
0010
0001
0100
0010
1000
0100
1000
,
0010
0000
0100
0000
0001
0000
0000
0010
,
0100
1000
0010
0000
0100
0001
0010
0000
,
0100
0000
0000
1000
0010
0000
0100
0000
,
0001
0000
0000
0010
0000
0100
1000
0000
0000
0000
0000
0000
,
0010
0000
0000
0000
0100
0000
0000
0000
0001
0010
0001
0010
0001
0010
0001
0000
,
0100
0000
1000
0000
0010
0100
0010
0100
0010
0000
0100
0000
0001
0100
0010
1000
,
0100
0000
0000
0000
1000
0000
0000
0000
0010
0100
0010
0100
0010
0100
0010
0000
,
0001
0010
0100
1000
0010
0100
0001
0010
,
0100
0000
0000
0000
1000
0000
0000
0000
0100
0001
1000
0001
0010
0100
0001
0000
,
0010
0000
0001
0000
0010
1000
0010
0100
0001
1000
0100
0000
0100
0001
1000
0001
,
1000
0000
0000
0100
0001
0000
0010
0000
,
0100
0000
0000
1000
0000
0100
0001
0000
0000
0100
0000
0000
,
1000
0000
0000
0010
0100
0000
0001
0000
,
0010
0100
0010
0100
0001
0100
1000
0100
0010
0000
0000
0000
0000
0000
0000
0000
,
1000
0000
0000
0001
0010
0000
0100
0000
,
1000
0010
0100
0001
,
0010
0000
0000
0100
1000
0000
0010
0000
,
0100
0001
0100
0001
0100
0001
0010
0001
0010
0000
0000
0000
0000
0000
0000
0000
,
0010
0000
0000
0100
0001
0000
0010
0000
,
0100
1000
0010
0100
,
0001
1000
0001
1000
0001
1000
0001
1000
0100
0010
0100
0010
0100
0010
0100
0010
,
0001
0010
0100
1000
0010
0100
0001
0010
0100
1000
0010
1000
0100
1000
0010
0100
,
0001
0100
0010
0100
0001
1000
0100
1000
0010
1000
0100
0010
0001
0010
0100
1000
,
0010
0100
0001
0100
0010
1000
0010
0100
0001
0010
0100
1000
0010
0100
0001
0010
,
0100
0100
0001
0010
0100
1000
0010
0100
,
0001
0010
0100
1000
0010
0100
0001
0010
,
0100
0000
0010
0000
1000
0000
0000
0100
,
0010
0001
0100
0000
0010
1000
0100
0000
,
0010
0000
0001
0000
0100
0000
0000
0001
,
0010
0100
1000
0010
0100
0001
0010
0001
,
0100
0000
0010
0000
1000
0000
0000
0100
,
0010
0001
0100
0000
0010
1000
0100
0000
,
0010
0000
0000
0001
0100
0000
0010
0000
,
1000
0000
0000
0100
0000
0010
0001
0000
0000
0000
0000
0000
,
0001
0000
0001
0000
0010
0000
0000
0001
,
0010
0001
0100
0000
0010
0001
0010
0000
,
0001
0000
0010
0000
0010
0000
0000
0100
,
0010
0100
0010
0001
0010
0001
0100
0010
,
0001
0000
0100
0000
0010
0000
0000
0001
,
0010
0001
0100
0000
0100
0010
0001
0000
,
0010
0000
0000
0001
1000
0000
0010
0000
,
0100
0000
0000
0010
0000
0001
0100
0000
0000
0000
0000
0000
,
0001
1000
0001
1000
0001
1000
0001
1000
0100
0010
0100
0010
0100
0010
0100
0010
,
0001
0010
0100
1000
0010
0100
0001
0010
0100
1000
0010
1000
0100
1000
0010
0100
,
0001
0100
0010
0100
0001
1000
0100
1000
0010
1000
0100
0010
0001
0010
0100
1000
,
0010
0100
0001
0100
0010
1000
0010
0100
0001
0010
0100
1000
0010
0100
0001
0010
,
0001
0100
0010
0100
0010
0100
0010
0100
0001
1000
0001
1000
0001
1000
0001
1000
,
0010
1000
0001
0100
1000
0001
0010
1000
0001
0100
1000
0100
0001
0100
1000
0001
,
0010
0001
1000
0001
0010
0100
0001
0100
1000
0100
0001
1000
0010
1000
0001
0100
,
1000
0001
0010
0001
1000
0100
1000
0001
0010
1000
0001
0100
1000
0001
0010
1000
,
0001
0000
0010
0001
0010
0000
0001
0000
,
0100
0000
0000
0000
0010
0000
0100
0010
1000
0000
0001
0000
0010
0000
0001
0000
,
0010
0000
0001
0010
1000
0000
0100
0000
,
0010
0000
0000
0000
0000
0000
0001
1000
0001
0000
0100
0000
0010
0000
0100
0000
,
1010
0101
0110
1001
,
0110
0011
0101
0110
,
0110
0000
0000
0000
;

//---------------dance-single - ----------------
#NOTES:
     dance-single:
     :
     Medium:
     6:
     0.338,0.457,0.117,0.008,0.000,288.000,15.000,1.000,0.000,0.000:
0110
0000
0000
0000
,
1100
0000
0000
0000
,
0101
0000
0000
0000
,
0110
0000
0000
0000
,
1000
0000
0010
0000
,
0100
0000
0001
0000
,
0000
0000
0000
0000
,
1000
0100
0010
0001
,
0100
0010
1000
0100
,
0001
0000
0010
0000
0100
0000
0000
1000
,
0010
0101
0010
1010
,
0100
0000
0001
0000
0010
0000
0000
0100
,
1000
0000
0010
0000
0100
0001
0100
0000
,
0010
0000
0010
0000
0100
0000
0000
0100
,
0001
0000
0010
0000
0100
1000
0010
0000
,
0100
0000
0000
0001
0010
0000
0100
0000
,
1000
0000
0001
0010
0100
0000
0000
0000
,
1000
0000
0001
0000
0100
0010
0100
0000
,
0010
1000
0100
0000
0010
0001
0100
0000
,
0010
0000
1000
0000
0100
0000
0000
0010
,
0001
0100
0010
1000
,
0100
0000
0010
0000
0001
0000
0000
0100
,
0010
0000
1000
0000
0100
0010
0001
0000
,
0100
0000
0000
0010
1000
0000
0100
0000
,
0010
0000
0001
0100
0010
0000
0000
0000
,
1000
0000
0000
0001
1000
0000
0010
0000
,
1000
0000
0100
0010
0001
0000
0000
0000
,
1000
0000
0000
0100
0010
0000
0001
0000
,
1000
0001
0100
0010
,
1000
0000
0000
0001
1000
0000
0100
0000
,
0010
0001
0010
0001
0100
0000
0000
0000
,
0010
0000
0000
1000
0100
0000
0010
0000
,
0001
0100
0020
0000
,
1030
0100
0010
0100
1000
0100
1000
0100
,
0010
0001
0100
0001
0010
0001
0100
0001
,
0010
0100
0001
1000
0010
0001
0100
0010
,
1000
0100
0010
0001
0100
0010
1000
0100
,
0011
1000
0110
1000
,
1100
0000
0001
0000
0010
0001
0010
0001
,
0100
0000
0010
0000
1000
0000
0000
0100
,
0010
0000
0001
0000
0100
0010
1000
0000
,
0100
0000
0010
0000
0001
0000
0000
0100
,
0010
0000
1000
0000
0100
0000
0010
0001
,
0100
0000
0010
0000
0100
0000
0000
0001
,
1000
0000
0010
0000
0100
0001
0010
0000
,
0100
0000
0000
1000
0010
0000
0100
0000
,
0001
0000
1000
0100
0010
0000
0000
0000
,
0001
0000
0000
1000
0100
0000
0000
0010
,
0001
0000
0100
0000
0010
1000
0100
0000
,
0010
0000
0001
0000
0100
0000
0000
0001
,
0010
0000
0100
0000
1000
0000
0010
0100
,
0001
0000
0010
0000
0100
0000
0000
1000
,
0010
0000
0100
0000
0001
0010
0100
0000
,
1000
0000
0000
0010
0100
0000
0001
0000
,
1000
0100
0010
0000
,
1000
0100
0010
0001
,
0100
0010
1000
0100
,
0010
0001
0100
0010
,
1000
0100
0010
0001
,
0100
0010
1000
0100
,
0010
0001
0100
0010
,
1000
0100
0010
0001
,
0100
0001
0010
0001
,
0100
0000
0000
0001
1000
0000
0000
0100
,
0010
0000
0000
0001
0010
0100
1000
0010
,
0100
0000
0000
0001
1000
0000
0000
0010
,
0110
0000
0000
1000
1000
0000
0000
0001
,
0011
0100
0110
1000
,
1100
0010
0011
0100
,
1001
0000
0000
0000
;

//---------------dance-single - ----------------
#NOTES:
     dance-single:
     :
     Challenge:
     10:
     0.707,0.886,0.584,0.039,0.638,556.000,75.000,5.000,0.000,0.000:
1001
0000
0000
0000
0000
0000
0000
0000
0000
0000
0010
0000
,
2000
0100
0000
0000
0000
0000
0010
0000
0001
0000
0010
0000
0000
0001
0000
0000
0000
0010
0000
0000
0001
0010
3001
0000
,
0110
0000
0000
0000
,
1010
0000
0000
0000
,
2000
0000
0000
0000
0000
0000
0000
0000
0000
0000
0000
3200
0000
0000
0000
0000
0000
0000
0000
0000
0000
0000
0000
0000
,
0320
0000
0000
0000
0000
0000
0000
0000
0000
0000
0000
0030
0002
0000
0000
0000
0000
0000
0000
0000
0000
0000
0000
0000
,
0000
0000
0000
0000
0000
0000
0000
0000
0000
0000
0000
0000
0000
0000
0000
0000
0000
0003
0000
0000
0100
0010
0001
0100
,
0010
1000
0010
0001
0100
0010
1000
0100
,
0010
0001
0100
0010
1000
0100
0010
0001
,
0100
0000
0010
0000
1000
0000
0000
0100
,
0010
0001
0100
0000
0010
1000
0100
0000
,
0010
0000
0001
0000
0100
0000
0000
0001
,
0010
0100
1000
0010
0100
0001
0010
0001
,
0100
0000
0010
0000
1000
0000
0000
0100
,
0010
0001
0100
0000
0010
1000
0100
0000
,
0010
0000
0000
0001
0100
0000
0010
0000
,
1000
0000
0000
0100
0000
0010
0001
0000
0000
0000
0000
0000
,
0100
0000
0000
0000
0000
0000
0010
0000
0000
0000
0000
0000
1000
0100
1000
0100
1000
0100
1000
0100
1000
0100
0000
0000
,
0010
0000
0000
0001
0000
0000
0100
0010
0100
0010
0100
0010
0100
0000
0000
0010
0000
0000
1000
0100
1000
0100
1000
0100
,
0010
0000
0000
0000
0000
0000
0001
0000
0000
0000
0000
0000
0100
0010
0100
0010
0100
0010
0100
0010
0100
0010
0000
0000
,
1000
0100
0010
0001
0100
0010
1000
0100
,
0010
0000
0000
0000
0000
0000
0001
0000
0000
0000
0000
0000
0010
0100
1000
0001
0010
0001
0100
1000
0010
1000
0000
0000
,
0100
0000
0000
1000
0000
0000
0100
1000
0010
0100
0001
0010
0001
0000
0000
0010
0000
0000
0010
0001
0100
0001
0010
0001
,
0100
0000
0000
0010
1000
0000
0100
0000
,
0010
0000
0000
0001
0000
0110
1100
0000
0000
0010
0000
0000
,
0001
0000
0000
0100
0010
0000
1000
0000
,
0100
0001
0010
0100
1000
0100
1000
0010
0100
0001
0010
0001
0010
0000
0000
0000
0000
0000
0000
0000
0000
0000
0000
0000
,
0001
0000
0000
1000
0100
0000
0010
0000
,
0001
0100
0010
1000
,
0100
0000
0000
0010
0001
0000
0100
0000
,
0010
1000
0100
0010
0001
1000
0010
0100
1000
0100
0010
0001
0100
0000
0000
0000
0000
0000
0000
0000
0000
0000
0000
0000
,
0100
0000
0000
0010
1000
0000
0100
0000
,
0010
0001
0100
0010
,
1000
0001
1000
0001
1000
0001
1000
0001
0010
0100
0010
0100
0010
0100
0010
0100
,
1000
0100
0010
0001
0100
0010
1000
0100
0010
0001
0100
0001
0010
0001
0100
0010
,
1000
0010
0100
0010
1000
0001
0010
0001
0100
0001
0010
0100
1000
0100
0010
0001
,
0100
0010
1000
0010
0100
0001
0100
0010
1000
0100
0010
0001
0100
0010
1000
0100
,
0010
0010
1000
0100
0010
0001
0100
0010
,
1000
0100
0010
0001
0100
0010
1000
0100
,
0010
0000
0100
0000
0001
0000
0000
0010
,
0100
1000
0010
0000
0100
0001
0010
0000
,
0100
0000
1000
0000
0010
0000
0000
1000
,
0100
0010
0001
0100
0010
1000
0100
1000
,
0010
0000
0100
0000
0001
0000
0000
0010
,
0100
1000
0010
0000
0100
0001
0010
0000
,
0100
0000
0000
1000
0010
0000
0100
0000
,
0001
0000
0000
0010
0000
0100
1000
0000
0000
0000
0000
0000
,
1001
0010
1100
0001
0110
0010
1000
1001
,
0110
1100
0011
1000
0101
1001
0101
0100
,
1010
0010
0110
1000
0101
0100
0010
0011
,
0101
0011
0110
1010
0101
1100
0011
0110
,
1100
0100
0011
1000
0110
0010
0100
1001
,
0110
1100
0011
0100
0011
0101
1010
0001
,
0110
0010
0100
1001
1100
0001
0110
1000
,
0011
0000
0000
0100
0000
0000
0110
0000
0000
0000
1001
0000
0110
0000
0000
0000
0000
0000
0000
0000
0000
0000
0000
0000
,
1000
0001
1000
0001
1000
0001
1000
0001
0010
0100
0010
0100
0010
0100
0010
0100
,
1000
0100
0010
0001
0100
0010
1000
0100
0010
0001
0100
0001
0010
0001
0100
0010
,
1000
0010
0100
0010
1000
0001
0010
0001
0100
0001
0010
0100
1000
0100
0010
0001
,
0100
0010
1000
0010
0100
0001
0100
0010
1000
0100
0010
0001
0100
0010
1000
0100
,
0100
0010
0100
0010
0100
0010
0100
0010
1000
0001
1000
0001
1000
0001
1000
0001
,
0100
0001
1000
0010
0001
1000
0100
0001
1000
0010
0001
0010
1000
0010
0001
1000
,
0100
1000
0001
1000
0100
0010
1000
0010
0001
0010
1000
0001
0100
0001
1000
0010
,
0001
1000
0100
1000
0001
0010
0001
1000
0100
0001
1000
0010
0001
1000
0100
0001
,
1001
0000
0110
1001
0110
0000
1100
0000
,
0011
0000
0000
0000
0101
0000
0010
0100
0101
0000
1010
0000
0101
0000
1010
0000
,
0101
0000
1100
0110
0101
0000
0011
0000
,
0110
0000
0000
0000
0000
0000
1000
0001
1100
0000
0011
0000
0101
0000
0011
0000
,
0110
1001
0110
1100
,
0011
0110
1001
0110
,
1001
0000
0000
0000
;

//---------------dance-single - ----------------
#NOTES:
     dance-single:
     :
     Easy:
     4:
     0.266,0.322,0.117,0.008,0.000,223.000,15.000,1.000,0.000,0.000:
1001
0000
0000
0000
,
0101
0000
0000
0000
,
0011
0000
0000
0000
,
1001
0000
0000
0000
,
0100
0000
1000
0000
,
0001
0000
0010
0000
,
0000
0000
0000
0000
,
0100
0001
1000
0010
,
0001
1000
0100
0001
,
0010
1000
0001
0000
,
1000
0011
1000
1100
,
0001
0010
1000
0000
,
0100
1000
0001
0001
,
1000
1000
0001
0000
,
0010
1000
0001
1000
,
0001
0000
1000
0001
,
0100
0010
0001
0000
,
0100
0010
0001
0001
,
1000
0001
1000
0001
,
1000
0100
0001
0000
,
0010
0001
1000
0100
,
0001
1000
0010
0000
,
1000
0100
0001
0010
,
0001
0000
0100
0001
,
1000
0010
1000
0000
,
0100
0000
0100
1000
,
0100
0001
0010
0000
,
0100
0000
1000
0010
,
0100
0010
0001
1000
,
0100
0000
0100
0001
,
1000
1000
0001
0000
,
1000
0000
0001
1000
,
0010
0001
2000
0000
,
3100
1000
0100
0100
,
1000
0001
1000
0001
,
1000
0010
1000
0001
,
0100
1000
0001
0100
,
1010
0100
1001
0100
,
0101
0010
1000
1000
,
0001
1000
0100
0000
,
1000
0010
0001
0100
,
0001
1000
0010
0000
,
1000
0100
0001
1000
,
0001
1000
0001
0000
,
0100
1000
0001
1000
,
0001
0000
1000
0001
,
0010
0100
1000
0000
,
0010
0000
0001
0000
,
0010
0001
1000
0001
,
1000
0010
0001
0000
,
1000
0001
0100
1000
,
0010
1000
0001
0000
,
1000
0001
0010
0001
,
0100
0000
0001
0010
,
0100
0001
1000
0000
,
0100
0000
0000
0010
0010
0000
0000
1000
,
1000
0000
0000
0001
0001
0000
0100
0000
,
0010
0000
0000
1000
1000
0000
0000
0001
,
0001
0000
0000
0100
0100
0000
1000
0000
,
0001
0000
0000
1000
1000
0000
0000
0100
,
0100
0000
0000
0001
0001
0000
0010
0000
,
0100
0000
0000
1000
1000
0000
0000
0001
,
0001
0000
0000
0100
0100
0000
0001
0000
,
0001
0000
0100
0000
,
1000
0000
1000
0100
,
0001
0000
0100
0000
,
1001
0000
0100
0000
,
1010
0001
1001
0100
,
0101
1000
1010
0001
,
0110
0000
0000
0000
;
