#TITLE:Razorback;
#SUBTITLE:;
#ARTIST:S.S.H.;
#TITLETRANSLIT:;
#SUBTITLETRANSLIT:;
#ARTISTTRANSLIT:;
#CREDIT:;
#BANNER:Ut.ban.jpg;
#BACKGROUND:Ut.bag.jpg;
#LYRICSPATH:;
#CDTITLE:Mus1c.png;
#MUSIC:utrb666.mp3;
#OFFSET:0.000;
#SAMPLESTART:28.000;
#SAMPLELENGTH:12.000;
#SELECTABLE:YES;
#BPMS:0.000=170.060;
#STOPS:;
#BGCHANGES:;
// cache tags:
#FIRSTBEAT:0.500;
#LASTBEAT:462.500;
#SONGFILENAME:Songs/keyboard/Razorback/Unreal Tournament.sm;
#HASMUSIC:1;
#HASBANNER:1;
#MUSICLENGTH:163.113;
// end cache tags

//---------------dance-single - ----------------
#NOTES:
     dance-single:
     :
     Hard:
     12:
     1.000,1.000,1.000,0.294,0.913,1011.000,330.000,48.000,0.000,4.000:
0000
0000
1000
1000
1000
1000
0000
0000
1000
0000
0000
1000
0000
0000
0000
0000
,
0101
0000
0000
0001
0001
0001
0001
0000
0000
0001
0000
0000
1010
0000
1010
0000
,
1010
0000
0000
0010
0010
0010
0010
0000
0000
0010
0000
0000
0010
0000
0000
0000
,
1100
0000
0000
0100
0100
0100
0100
0000
0000
0100
0000
0000
0011
0000
0011
0000
,
0011
0000
1010
1010
1010
1010
0000
0000
0000
0100
0000
0100
0000
0000
0000
0000
,
0011
0000
0000
0000
0000
0000
0000
0000
0000
0101
0000
0000
0101
0000
0000
0101
0000
0000
0101
0000
0000
0000
0000
0000
0000
0000
1000
0000
0100
0000
1000
0000
0000
0000
0000
0000
0100
0000
0000
0000
0000
0000
0011
0000
0000
0000
0000
0000
,
0011
0000
0010
0100
1000
0100
0001
0010
1000
0100
1000
0100
0001
0010
1000
0100
,
0010
0001
0010
0100
0010
0001
1000
0100
0010
0001
0100
0010
0100
0010
1000
0001
,
0010
0100
1000
0100
0010
0001
0100
0010
1000
0100
0010
0100
1000
0100
0001
1000
,
0001
0100
0010
0001
1000
0100
0001
0010
0001
1000
0010
0100
0001
0010
0001
1000
,
0100
0010
0001
0010
0100
1000
0010
0100
0010
1000
0100
0001
0010
0100
0001
1000
,
0010
0100
0001
0100
0010
0001
1000
0010
0100
0010
0001
0100
1000
0010
1000
0010
,
0001
1000
0100
0010
0100
1000
0001
0010
0100
1000
0010
0100
0001
0010
0001
1000
,
0100
0001
0100
1002
0000
0113
0000
0000
0110
0000
0110
0000
0000
1001
0000
0000
,
1001
0000
1001
0000
0000
0011
0000
0000
0011
0000
0011
0000
0000
1100
0000
0000
,
1100
0000
1100
0000
0000
0110
0000
0000
0110
0000
0110
0000
0000
1001
0000
0000
,
1001
0000
1001
0000
0000
1100
0000
0000
1100
0000
1100
0000
0000
0011
0000
0000
,
0011
0000
0011
0000
0000
0101
0000
0000
0101
0000
0101
0000
0000
1100
0000
0000
,
1100
0000
1100
0000
0000
1010
0000
0000
1010
0000
1010
0000
0000
1001
0000
0000
,
1001
0000
1001
0000
0000
0110
0000
0000
0110
0000
0110
0000
0000
1010
0000
0000
,
1010
0000
1010
0000
0000
0101
0000
0000
0101
0000
0101
0000
0000
0010
1000
0010
,
1000
0000
0101
0000
0202
0000
0303
1000
1000
1000
0000
0000
0000
0010
0010
0010
,
0000
0001
0001
0001
0001
1100
0000
0011
0000
0000
2200
3300
0000
0000
0202
0303
,
0000
0000
1000
1000
1000
1000
0220
0330
0000
0000
2002
3003
0000
0001
0001
0001
,
0001
0220
0330
0000
0000
1000
1000
1000
0001
0010
0001
0010
0001
0000
0000
0000
,
0101
0000
0101
0000
1000
0010
1000
0010
1000
0010
1000
0010
1000
0010
1000
0010
,
1000
0010
1000
0010
1000
0010
0100
0010
0100
0010
0100
0010
0100
0010
0100
0010
,
0100
0010
0100
0001
0100
0001
0100
0001
0100
0001
0100
0001
0100
0001
0100
0001
,
0100
0001
0100
0010
0100
0010
0100
0010
0100
0010
0100
0010
0100
0010
1100
0000
,
1100
1100
1100
1010
0110
1001
0011
0110
,
1100
0101
1001
1010
0011
0110
1100
1001
,
0101
0110
0101
1100
0011
1001
1010
0110
,
0011
1001
0101
0011
0110
1100
1001
0011
,
1100
0101
1001
1010
1100
0110
0011
1001
,
0101
0011
1100
0011
0110
1001
1010
0011
,
1100
0101
1010
0110
0011
1001
0110
0011
,
1100
1010
0101
0011
1100
0101
0110
0110
,
0110
0000
0000
0000
0000
0000
0110
0000
0000
0000
0000
0000
0000
0000
0001
0000
0010
0000
0100
0000
1000
0000
0100
0000
1000
0000
0000
0100
0000
0000
0010
0000
0000
0001
0000
0000
1000
0000
0000
0100
0000
0000
0010
0000
0000
0100
0000
0000
,
1000
0000
0000
0001
0000
0000
0010
0000
0000
0100
0000
0000
1000
0000
0000
0010
0000
0000
0100
0000
0000
1000
0000
0000
0001
0000
0000
0100
0000
0000
0020
0000
0000
0000
0000
0000
0000
0000
0000
0000
0000
0000
0000
0000
0000
0000
0030
0000
,
0000
1001
1001
1001
1001
0100
1010
1010
,
0001
1000
0110
0010
0101
1000
0011
0011
,
0100
1010
1010
1010
1010
0001
0110
0110
,
0100
0001
1100
0100
0011
0010
1001
1001
,
0100
0011
0011
0011
0011
0100
1100
1100
,
0001
0100
0011
0100
1010
0010
1001
1001
,
0001
0110
0110
0110
0110
0100
1001
1001
,
0100
1000
0011
0001
1100
0001
0110
0110
,
0100
0000
1001
0000
0000
0000
1100
0000
0000
1100
0000
0000
1100
0000
0000
0000
,
0011
0000
0000
0000
0000
0000
0110
0000
0000
0110
0000
0000
1001
0000
1001
0000
,
1001
0000
0000
0000
0000
0000
1000
0000
0001
0000
1000
0000
0001
0000
0000
0000
0000
0000
1010
0000
0000
0000
0000
0000
0000
0000
0000
1010
0000
0000
0000
0000
0000
0000
0000
0000
1010
0000
0000
0000
0000
0000
0000
0000
0000
0000
0000
0000
,
1001
0000
0000
0000
0000
0000
1001
0000
0000
0010
1000
0000
0010
1000
0000
0000
,
0010
1000
0010
1000
0100
0010
0001
0010
0100
1000
0100
0010
0001
1000
0100
0010
,
0001
0100
0010
1000
0100
0010
0001
0100
0010
1000
0100
0010
0002
0000
0000
0000
,
0000
0000
0003
1000
0100
0010
0001
0100
0010
0001
0010
0100
0001
0010
0100
1000
,
0001
0010
0100
0010
0001
0100
0010
1000
0100
0010
0001
0010
1000
0001
1000
0001
,
1000
0001
1000
0001
1000
0100
0010
0100
1000
0010
0100
1000
0100
0001
0100
0010
,
0001
0010
0100
1000
0010
0100
0001
0010
0100
1000
0001
0100
0020
0000
0000
0000
,
0030
1000
0001
0100
0010
0001
0010
0100
1000
0010
0100
0001
0010
0100
1000
0001
,
0010
0100
0010
0001
1000
0100
0001
1000
0010
0001
1000
0010
0100
0010
0100
0010
,
0100
0010
0002
0000
0000
0000
2003
0000
0000
0000
3000
0000
0000
0000
0000
0000
,
0000
0000
0000
0000
,
0000
0200
0000
0320
0000
0030
0000
0000
,
0000
0000
0000
0000
,
0000
1001
1001
0100
1100
0001
1100
0100
,
0011
0100
1100
0011
1000
0110
0100
0011
,
0100
1001
0011
0100
1100
0010
0002
0000
,
2003
3002
2013
0000
,
3000
1001
1001
0100
1010
0100
1001
0010
,
0110
0001
1010
0101
0010
1100
0001
1010
,
0100
0011
1010
0001
0110
1000
0020
0000
,
0230
0320
0230
0000
,
0300
0002
0000
0023
0000
0030
0000
0000
,
0000
0000
0000
0000
,
0000
2000
0000
3200
0000
0300
0000
0000
,
0000
0000
0000
0000
,
0000
0200
0000
0320
0000
1030
1000
1000
,
0100
0000
0010
0000
0100
0001
1000
0001
0000
0000
1010
0000
0000
0000
1010
0000
,
0000
0200
0000
0302
0000
1003
1000
1000
,
0010
0000
1000
0000
0010
1000
0001
1000
0000
0000
0110
0000
0000
0110
0000
0000
,
0110
0110
1000
0011
0100
1010
0100
0001
,
1010
0100
0010
0110
0100
0001
1001
1000
,
0011
0100
0010
1010
0010
1100
0100
0001
,
0101
0100
0001
0110
1000
0001
1010
0100
,
1010
0100
0001
1001
1000
1010
0010
0010
,
0110
0100
0100
0101
0001
0001
0011
0010
,
1010
1000
1000
1100
0100
0110
0010
0010
,
0011
0010
0010
1010
0010
0010
0110
0010
,
0110
0200
0000
0302
0000
1103
1000
0100
,
1010
0001
0010
0110
0001
0100
1001
0100
,
0101
0002
0000
0203
0000
0310
0001
0100
,
1010
0100
0001
0101
0010
1000
0011
0100
,
0110
0200
0000
0320
0000
1030
1000
1000
,
0001
0000
0100
0000
0010
1000
0010
1000
0000
0000
1001
0000
0000
0000
1001
0000
,
0000
0020
0000
2030
0000
3001
0001
0001
,
0001
0000
0001
0000
0000
0100
0001
0100
0000
0000
1001
0000
0000
0000
1001
0000
,
1001
0000
0010
0100
0010
0100
1000
0010
1000
0010
0001
0100
0001
0100
0001
0100
,
0001
0100
1000
0100
1000
0100
0010
0001
0010
0001
0010
0001
1000
0001
1000
0001
,
1000
0001
0100
0001
0100
0001
0010
0100
0010
0100
0010
1000
0010
1000
0010
1000
,
0010
1000
0100
1000
0100
1000
0001
1000
0001
1000
0001
1000
0100
0001
0100
0001
,
0010
0100
0010
0100
0010
0100
1000
0010
1000
0010
0100
0001
0100
0001
0100
0001
,
1000
0001
1000
0001
1000
0010
0100
0010
0100
0010
0100
0010
1000
0001
1000
0001
,
0100
1000
0100
1000
0100
0011
0000
0011
0000
0000
0000
1001
0000
1001
0000
0000
,
0000
0100
0001
0100
0001
1010
0000
1010
0000
0000
0000
0100
0010
0100
0010
0100
,
0000
0000
0000
1001
0000
0000
0110
0000
0000
0000
0110
0000
0110
0000
0000
0000
,
1010
0000
0000
0000
0000
0000
1001
0000
0000
1001
0010
0100
0000
0010
0100
0000
,
0010
0100
0000
0000
0000
0000
1001
0000
0000
0000
1001
0000
1001
0000
0000
0000
,
0011
0000
0000
0000
0000
0000
1010
0000
0000
1010
0000
0000
1001
0000
1001
0000
,
1001
0110
0110
0110
0110
0100
1001
1001
,
0010
0010
0011
0100
1100
0100
1100
1100
,
0100
0011
0011
0011
0011
0010
1100
1100
,
0001
0001
0011
0001
0101
0100
1010
1010
,
0100
0110
0110
0110
0110
0100
1100
1100
,
0010
0010
1001
0010
1001
0010
0101
0101
,
0010
1001
1001
1001
1001
0010
0110
0110
,
0001
0001
0101
0001
0101
2001
0000
3102
,
0000
0000
0013
0100
0010
0100
0010
0100
2002
0000
3003
0000
0000
0000
0000
0000
;
