#TITLE:jelly;
#SUBTITLE:;
#ARTIST:asphyxzero;
#TITLETRANSLIT:;
#SUBTITLETRANSLIT:;
#ARTISTTRANSLIT:;
#CREDIT:;
#BANNER:jellybn.png;
#BACKGROUND:jellybg.png;
#LYRICSPATH:;
#CDTITLE:!asphyxzero.png;
#MUSIC:jelly.mp3;
#OFFSET:-0.038;
#SAMPLESTART:19.930;
#SAMPLELENGTH:12.340;
#SELECTABLE:YES;
#BPMS:0.000=100.000,32.000=200.000,65.000=195.000,66.000=190.000,67.000=185.000,68.000=180.000,69.000=175.000,70.000=170.000,71.000=165.000,72.000=160.000,73.000=155.000,74.000=150.000,75.000=145.000,76.000=140.000,77.000=135.000,78.000=130.000,79.000=125.000,80.000=120.000,81.000=118.000,82.000=116.000,83.000=114.000,84.000=113.000,85.000=112.000,86.000=111.000,87.000=110.000,88.000=109.000,89.000=108.000,90.000=107.000,91.000=106.000,92.000=104.000,93.000=103.000,94.000=102.000,95.000=101.000,96.000=100.000;
#STOPS:;
#BGCHANGES:;
// cache tags:
#FIRSTBEAT:0.000;
#LASTBEAT:160.000;
#SONGFILENAME:Songs/Fog's StupidStream Pack/[Torrent] Jelly/jelly.sm;
#HASMUSIC:1;
#HASBANNER:1;
#MUSICLENGTH:101.302;
// end cache tags

//---------------dance-single - ----------------
#NOTES:
     dance-single:
     :
     Hard:
     9:
     1.000,1.000,1.000,0.000,1.000,585.000,151.000,0.000,0.000,0.000:
0001
0010
1000
0100
0001
1000
0010
1000
,
0001
0010
1000
0100
0001
0010
0001
1000
,
0001
0010
1000
0100
0001
1000
0010
1000
,
0001
0010
1000
0100
0001
0010
0001
1000
,
0001
0000
0010
0000
1100
0000
0010
0000
0100
0000
0010
0000
1001
0000
0010
0000
0100
0000
1000
0000
0011
0000
0100
0000
0010
1000
0001
0000
0110
0000
1000
0000
,
0001
0000
0010
0000
1100
0000
0010
0000
0100
0000
1000
0000
0011
0000
0100
0000
1000
0000
0001
0000
0110
0000
1000
0000
0001
0100
0010
0000
1100
0000
0001
0010
,
1000
0000
0010
0000
0101
0000
0010
0000
0100
0000
1000
0000
0110
0000
0001
0000
1000
0000
0001
0000
1100
0000
0010
0000
0100
1000
0010
0000
0101
0000
0010
0000
,
1000
0000
0000
0000
0100
0000
0000
0000
0011
0000
0000
0000
0100
0000
0000
0000
1000
0000
0000
0000
0001
0000
0000
0000
0110
0000
0000
0000
1000
0000
0000
0000
0010
0000
0000
0000
0001
0000
0000
0000
0110
0000
0000
0000
1000
0000
0000
0000
0001
0000
0010
0100
1000
0000
0000
0000
0001
0000
0010
0100
0001
0000
1000
0000
,
0010
0000
0001
0000
0010
0000
0100
0000
1010
0000
0000
0000
0001
0000
0010
0000
0100
0000
1000
0000
0010
0000
0001
0000
0110
0000
0000
0000
1000
0000
0100
0010
,
0001
0000
1000
0000
0010
0000
0100
0000
0011
0000
0000
0000
0010
0000
0100
0000
1000
0000
0100
0000
0010
0000
0001
0000
1100
0000
0000
0000
0010
0000
0001
1000
,
0100
0000
0010
0000
0001
0000
1000
0000
0011
0000
0000
0000
0100
0000
1000
0000
0001
0000
0010
0000
0100
0000
1000
0000
0011
0000
0000
0000
0100
0000
0010
1000
,
0001
0000
0100
0000
1000
0000
0010
0000
0101
0000
0000
0000
0010
0000
0100
0000
1000
0000
0100
0000
0010
0000
0001
0000
1100
0000
0000
0000
0010
0000
0001
0100
,
1000
0000
0010
0000
0100
0000
0001
0000
1010
0000
0000
0000
0100
0000
1000
0000
0100
0000
0010
0000
0001
0000
1000
0000
0110
0000
0000
0000
0001
0000
0010
0100
,
1000
0000
0001
0000
0010
0000
0100
0000
1010
0000
0000
0000
0100
0000
1000
0000
0100
0000
0010
0000
0001
0000
0100
0000
1010
0000
0000
0000
0100
0000
0010
0001
,
1000
0000
0010
0000
0100
0000
0001
0000
0110
0000
0000
0000
1000
0000
0100
0000
0010
0000
0001
0000
0010
0000
0100
0000
1010
0000
0000
0000
0100
0000
1000
0010
,
0001
0000
0100
0000
1000
0000
0010
0000
0101
0000
0000
0000
0010
0000
0100
0000
1000
0000
0100
0000
0010
0000
1000
0000
0011
0000
0000
0000
0001
0010
0100
1000
,
0001
0000
0100
0000
0001
0000
1000
0000
0011
0000
0000
0000
0100
0000
0001
0000
1000
0000
0010
0000
0001
0000
0100
0000
1001
0000
0000
0000
0010
0000
1000
0001
,
0100
0000
0010
0000
0001
0000
1000
0000
0101
0000
0000
0000
0001
0000
1000
0000
0010
0000
1000
0000
0001
0000
0100
0000
1010
0000
0000
0000
0001
0000
0100
0010
,
1000
0000
0001
0000
0100
0000
0010
0000
0101
0000
0000
0000
1000
0000
0010
0000
0100
0000
0001
0000
1000
0000
0010
0000
0101
0000
0000
0000
1000
0000
0001
0010
,
0100
0000
1000
0000
0010
0000
0001
0000
1100
0000
0000
0000
0001
0000
1000
0000
0010
0000
1000
0000
0001
0000
0100
0000
1010
0000
0000
0000
0001
0000
0100
1000
,
0010
0000
0001
0000
1000
0000
0100
0000
0011
0000
0000
0000
1000
0000
0010
0000
1000
0000
0001
0000
0100
0000
0010
0000
1001
0000
0000
0000
0100
0000
0001
1000
,
0010
0000
0100
0000
0001
0000
1000
0000
0011
0000
0000
0000
1000
0000
0010
0000
1000
0000
0001
0000
0100
0000
1000
0000
0011
0000
0000
0000
1000
0000
0001
0100
,
0010
0000
0001
0000
1000
0000
0100
0000
1001
0000
0000
0000
0010
0000
1000
0000
0001
0000
0100
0000
0001
0000
1000
0000
0011
0000
0000
0000
1000
0000
0100
0010
,
0001
0000
0000
0000
0000
0000
0000
0000
0010
0000
0000
0000
0000
0000
0000
0000
0100
0000
0000
0000
0000
0000
0000
0000
1000
0000
0000
0000
0000
0000
0000
0000
0100
0000
0000
0000
0000
0000
0000
0000
0010
0000
0000
0000
0000
0000
0000
0000
1001
0000
0000
0000
0000
0000
0000
0000
0001
0010
0100
1000
0001
0010
0100
1000
,
0001
0000
0100
0000
0010
0000
0101
0000
1010
0000
0000
0000
0101
0000
0010
0000
0100
0000
1000
0000
0010
0000
1001
0000
0110
0000
0000
0000
1001
0000
0100
0010
,
0001
0000
1000
0000
0010
0000
1100
0000
0011
0000
0000
0000
0011
0000
0100
0000
1000
0000
0100
0000
0010
0000
0101
0000
1010
0000
0000
0000
0110
0000
0001
1000
,
0100
0000
0010
0000
0001
0000
1100
0000
0011
0000
0000
0000
0110
0000
1000
0000
0001
0000
0010
0000
0100
0000
1010
0000
0101
0000
0000
0000
0101
0000
0010
1000
,
0001
0000
0100
0000
1000
0000
0110
0000
1001
0000
0000
0000
0011
0000
0100
0000
1000
0000
0100
0000
0010
0000
0101
0000
1010
0000
0000
0000
1010
0000
0001
0100
,
1000
0000
0010
0000
0100
0000
1010
0000
0101
0000
0000
0000
1010
0000
0100
0000
0010
0000
0001
0000
0100
0000
1001
0000
0110
0000
0000
0000
1001
0000
0010
0100
,
1000
0000
0001
0000
0100
0000
0011
0000
1100
0000
0000
0000
1100
0000
0010
0000
0001
0000
0010
0000
0100
0000
1010
0000
0101
0000
0000
0000
0110
0000
1000
0001
,
0010
0000
0100
0000
1000
0000
0011
0000
1100
0000
0000
0000
0110
0000
0001
0000
1000
0000
0100
0000
0010
0000
0101
0000
1010
0000
0000
0000
1010
0000
0100
0001
,
1000
0010
0001
0110
1001
0000
1100
0010
0001
0010
0100
1010
0000
0000
0001
0000
,
1001
0000
0100
0000
0010
0000
0101
0000
1010
0000
0000
0000
0101
0000
0010
0000
0101
0000
1000
0000
0010
0000
1001
0000
0110
0000
0000
0000
1001
0000
0100
0010
,
0101
0000
1000
0000
0010
0000
1100
0000
0011
0000
0000
0000
0011
0000
0100
0000
1001
0000
0100
0000
0010
0000
0101
0000
1010
0000
0000
0000
0110
0000
0001
1000
,
0110
0000
1000
0000
0001
0000
1100
0000
0011
0000
0000
0000
0110
0000
1000
0000
0101
0000
0010
0000
0100
0000
1010
0000
0101
0000
0000
0000
0101
0000
0010
1000
,
0011
0000
0000
0000
0100
0000
0000
0000
1000
0000
0000
0000
0110
0000
0000
0000
1001
0000
0000
0000
0000
0000
0000
0000
0011
0000
0000
0000
0100
0000
0000
0000
1001
0000
0000
0000
0100
0000
0000
0000
0010
0000
0000
0000
0101
0000
0000
0000
1010
0000
0000
0000
0000
0000
0000
0000
1000
0100
0010
0001
1000
0100
0010
0001
,
1000
0000
0001
0000
0100
0000
1010
0000
0101
0000
0000
0000
1010
0000
0100
0000
1010
0000
0001
0000
0100
0000
1001
0000
0110
0000
0000
0000
1001
0000
0010
0100
,
1010
0000
0001
0000
0100
0000
0011
0000
1100
0000
0000
0000
1100
0000
0010
0000
0101
0000
0010
0000
0100
0000
1010
0000
0101
0000
0000
0000
0110
0000
1000
0001
,
0110
0000
1000
0000
0100
0000
0011
0000
1100
0000
0000
0000
0110
0000
0001
0000
1010
0000
0100
0000
0010
0000
0101
0000
1010
0000
0000
0000
1010
0000
0100
0001
,
1010
0100
0001
0100
1001
0000
1100
0010
0001
0010
0101
1000
0000
0000
0000
0000
,
1001
0000
0000
0000
;

//---------------dance-single - ----------------
#NOTES:
     dance-single:
     :
     Challenge:
     12:
     1.000,1.000,1.000,0.000,1.000,616.000,293.000,0.000,0.000,59.000:
0011
0100
1010
0100
1010
0001
0110
1000
0101
0010
1001
0100
0011
0100
1010
0100
,
1001
0100
0011
0100
1010
0001
0110
1000
0101
1000
0110
1000
0011
0100
1010
0100
,
0011
1000
0110
0001
1010
0001
0110
1000
0101
0010
1100
0001
0110
0001
1010
0100
,
1001
0100
0011
0100
1010
0001
0110
1000
0101
1000
0110
1000
0101
0010
1001
0100
,
1001
0000
0010
0000
1101
0000
0010
0000
1100
0000
0010
0000
1101
0000
0010
0000
0101
0000
1000
0000
1011
0000
0100
0000
0011
1000
0001
0000
0111
0000
1000
0000
,
0101
0000
0010
0000
1101
0000
0010
0000
0101
0000
1000
0000
0111
0000
0100
0000
1010
0000
0001
0000
1110
0000
1000
0000
1001
0100
0010
0000
1101
0000
0001
0010
,
1100
0000
0010
0000
1101
0000
0010
0000
0101
0000
1000
0000
0111
0000
0001
0000
1010
0000
0001
0000
1101
0000
0010
0000
0101
1000
0010
0000
1101
0000
0010
0000
,
1001
0000
0000
0000
0100
0000
0000
0000
1011
0000
0000
0000
0100
0000
0000
0000
1010
0000
0000
0000
0001
0000
0000
0000
0111
0000
0000
0000
1000
0000
0000
0000
0110
0000
0000
0000
0001
0000
0000
0000
0111
0000
0000
0000
1000
0000
0000
0000
1001
0000
0010
0100
1000
0000
0000
0000
1001
0000
0010
0100
1001
0000
0100
0000
,
1010
0000
0001
0000
1010
0000
0100
0000
1010
0000
0000
0000
0101
0000
0010
0000
0100
0000
1000
0000
0110
0000
0001
0000
0110
0000
0000
0000
1001
0000
0100
0010
,
0001
0000
1000
0000
0011
0000
0100
0000
0011
0000
0000
0000
0011
0000
0100
0000
1000
0000
0100
0000
1010
0000
0001
0000
1100
0000
0000
0000
0110
0000
0001
1000
,
0100
0000
0010
0000
0101
0000
1000
0000
0011
0000
0000
0000
0110
0000
1000
0000
0001
0000
0010
0000
0101
0000
1000
0000
0011
0000
0000
0000
0101
0000
0010
1000
,
0001
0000
0100
0000
1001
0000
0010
0000
0101
0000
0000
0000
1010
0000
0100
0000
1000
0000
0100
0000
1010
0000
0001
0000
1100
0000
0000
0000
1010
0000
0001
0100
,
1000
0000
0010
0000
1100
0000
0001
0000
1010
0000
0000
0000
0101
0000
1000
0000
0100
0000
0010
0000
0101
0000
1000
0000
0110
0000
0000
0000
1001
0000
0010
0100
,
1000
0000
0001
0000
1010
0000
0100
0000
1010
0000
0000
0000
0101
0000
1000
0000
0100
0000
0010
0000
1001
0000
0100
0000
1010
0000
0000
0000
1100
0000
0010
0001
,
1000
0000
0010
0000
1100
0000
0001
0000
0110
0000
0000
0000
1010
0000
0100
0000
0010
0000
0001
0000
1010
0000
0100
0000
1010
0000
0000
0000
0101
0000
1000
0010
,
0001
0000
0000
0000
0100
0000
0000
0000
1001
0000
0000
0000
0010
0000
0000
0000
0101
0000
0000
0000
0000
0000
0000
0000
1010
0000
0000
0000
0100
0000
0000
0000
1000
0000
0000
0000
0100
0000
0000
0000
0011
0000
0000
0000
1000
0000
0000
0000
0011
0000
0000
0000
0000
0000
0000
0000
0001
0010
0100
1000
0001
0010
0100
1000
,
0001
0000
0100
0000
0011
0000
1000
0000
0011
0000
0000
0000
0110
0000
0001
0000
1000
0000
0010
0000
1001
0000
0100
0000
1001
0000
0000
0000
0110
0000
1000
0001
,
0100
0000
0010
0000
0101
0000
1000
0000
0101
0000
0000
0000
0011
0000
1000
0000
0010
0000
1000
0000
0011
0000
0100
0000
1010
0000
0000
0000
1001
0000
0100
0010
,
1000
0000
0001
0000
1100
0000
0010
0000
0101
0000
0000
0000
1100
0000
0010
0000
0100
0000
0001
0000
1100
0000
0010
0000
0101
0000
0000
0000
1100
0000
0001
0010
,
0100
0000
1000
0000
0110
0000
0001
0000
1100
0000
0000
0000
0011
0000
1000
0000
0010
0000
1000
0000
0011
0000
0100
0000
1010
0000
0000
0000
0011
0000
0100
1000
,
0010
0000
0001
0000
1010
0000
0100
0000
0011
0000
0000
0000
1100
0000
0010
0000
1000
0000
0001
0000
1100
0000
0010
0000
1001
0000
0000
0000
0110
0000
0001
1000
,
0010
0000
0100
0000
0011
0000
1000
0000
0011
0000
0000
0000
1100
0000
0010
0000
1000
0000
0001
0000
0110
0000
1000
0000
0011
0000
0000
0000
1010
0000
0001
0100
,
0010
0000
0001
0000
1010
0000
0100
0000
1001
0000
0000
0000
0110
0000
1000
0000
0001
0000
0100
0000
0011
0000
1000
0000
0011
0000
0000
0000
1001
0000
0100
0010
,
0001
0000
0000
0000
0000
0000
0000
0000
0010
0000
0000
0000
0000
0000
0000
0000
0100
0000
0000
0000
0000
0000
0000
0000
1000
0000
0000
0000
0000
0000
0000
0000
0100
0000
0000
0000
0000
0000
0000
0000
0010
0000
0000
0000
0000
0000
0000
0000
1001
0000
0000
0000
0000
0000
0000
0000
0001
0010
0100
1000
0001
0010
0100
1000
,
0011
0000
0100
0000
0010
0000
0101
0000
1110
0000
0000
0000
0101
0000
0010
0000
0101
0000
1000
0000
0010
0000
1001
0000
0111
0000
0000
0000
1001
0000
0100
0010
,
0101
0000
1000
0000
0010
0000
1100
0000
1011
0000
0000
0000
0011
0000
0100
0000
1010
0000
0100
0000
0010
0000
0101
0000
1011
0000
0000
0000
0110
0000
0001
1000
,
0101
0000
0010
0000
0001
0000
1100
0000
0111
0000
0000
0000
0110
0000
1000
0000
0101
0000
0010
0000
0100
0000
1010
0000
1101
0000
0000
0000
0101
0000
0010
1000
,
0101
0000
0010
0000
1000
0000
0110
0000
1101
0000
0000
0000
0011
0000
0100
0000
1010
0000
0100
0000
0010
0000
0101
0000
1011
0000
0000
0000
1010
0000
0001
0100
,
1010
0000
0001
0000
0100
0000
1010
0000
1101
0000
0000
0000
1010
0000
0100
0000
1010
0000
0001
0000
0100
0000
1001
0000
1110
0000
0000
0000
1001
0000
0010
0100
,
1010
0000
0001
0000
0100
0000
0011
0000
1101
0000
0000
0000
1100
0000
0010
0000
0101
0000
0010
0000
0100
0000
1010
0000
1101
0000
0000
0000
0110
0000
1000
0001
,
0110
0000
1000
0000
0100
0000
0011
0000
1101
0000
0000
0000
0110
0000
0001
0000
1010
0000
0100
0000
0010
0000
0101
0000
1110
0000
0000
0000
1010
0000
0100
0001
,
1010
0100
0001
0110
1011
0000
1100
0010
0001
0010
0100
1010
0000
0000
0001
0000
,
0011
0000
0100
0000
1010
0000
0101
0000
1110
0000
0000
0000
1101
0000
0010
0000
0101
0000
1000
0000
0110
0000
1001
0000
0111
0000
0000
0000
1011
0000
0100
0010
,
0101
0000
1000
0000
0011
0000
1100
0000
1011
0000
0000
0000
1011
0000
0100
0000
1010
0000
0100
0000
1010
0000
0101
0000
1011
0000
0000
0000
1110
0000
0001
1000
,
0101
0000
0010
0000
0011
0000
1100
0000
0111
0000
0000
0000
0111
0000
1000
0000
0101
0000
0010
0000
0101
0000
1010
0000
1101
0000
0000
0000
0111
0000
0010
1000
,
0101
0000
0010
0000
1001
0000
0110
0000
1101
0000
0000
0000
1011
0000
0100
0000
1010
0000
0100
0000
1010
0000
0101
0000
1011
0000
0000
0000
1110
0000
0001
0100
,
1010
0000
0001
0000
0110
0000
1010
0000
1101
0000
0000
0000
1011
0000
0100
0000
1010
0000
0001
0000
0110
0000
1001
0000
1110
0000
0000
0000
1101
0000
0010
0100
,
1010
0000
0001
0000
0110
0000
0011
0000
1101
0000
0000
0000
1110
0000
0010
0000
0101
0000
0010
0000
0101
0000
1010
0000
1101
0000
0000
0000
0111
0000
1000
0001
,
0110
0000
1000
0000
0110
0000
0011
0000
1101
0000
0000
0000
1110
0000
0001
0000
1010
0000
0100
0000
1010
0000
0101
0000
1110
0000
0000
0000
1011
0000
0100
0001
,
1010
0100
1001
0100
1011
0000
1100
0010
0001
0010
0101
1000
0000
0000
0000
0000
,
1001
0000
0000
0000
;

//---------------dance-single - ----------------
#NOTES:
     dance-single:
     :
     Edit:
     13:
     1.000,1.000,1.000,0.000,1.000,616.000,368.000,0.000,0.000,88.000:
0011
0100
1010
0100
1010
0001
0110
1000
0101
0010
1001
0100
0011
0100
1010
0100
,
1001
0100
0011
0100
1010
0001
0110
1000
0101
1000
0110
1000
0011
0100
1010
0100
,
0011
1000
0110
0001
1010
0001
0110
1000
0101
0010
1100
0001
0110
0001
1010
0100
,
1001
0100
0011
0100
1010
0001
0110
1000
0101
1000
0110
1000
0101
0010
1001
0100
,
1001
0000
0110
0000
1101
0000
0011
0000
1100
0000
0110
0000
1101
0000
1010
0000
0101
0000
1010
0000
1011
0000
1100
0000
0011
1000
0101
0000
0111
0000
1010
0000
,
0101
0000
0011
0000
1101
0000
1010
0000
0101
0000
1010
0000
0111
0000
0101
0000
1010
0000
0101
0000
1110
0000
1010
0000
1001
0100
1010
0000
1101
0000
1001
0010
,
1100
0000
0011
0000
1101
0000
1010
0000
0101
0000
1010
0000
0111
0000
0101
0000
1010
0000
0011
0000
1101
0000
0011
0000
0101
1000
0011
0000
1101
0000
0110
0000
,
1001
0000
0000
0000
0110
0000
0000
0000
1011
0000
0000
0000
0101
0000
0000
0000
1010
0000
0000
0000
0101
0000
0000
0000
0111
0000
0000
0000
1010
0000
0000
0000
0110
0000
0000
0000
1001
0000
0000
0000
0111
0000
0000
0000
1010
0000
0000
0000
1001
0000
0010
0100
1000
0000
0000
0000
1001
0000
0010
0100
1001
0000
0100
0000
,
1010
0000
0001
0000
1010
0000
0100
0000
1010
0000
0000
0000
0101
0000
0010
0000
0101
0000
1000
0000
0110
0000
0001
0000
0110
0000
0000
0000
1001
0000
0100
0010
,
1001
0000
0100
0000
0011
0000
0100
0000
0011
0000
0000
0000
0011
0000
0100
0000
1001
0000
0100
0000
1010
0000
0001
0000
1100
0000
0000
0000
0110
0000
0001
0010
,
1100
0000
0010
0000
0101
0000
1000
0000
0011
0000
0000
0000
0110
0000
1000
0000
0101
0000
0010
0000
0101
0000
1000
0000
0011
0000
0000
0000
0101
0000
0010
1000
,
0101
0000
0010
0000
1001
0000
0010
0000
0101
0000
0000
0000
1010
0000
0100
0000
1001
0000
0100
0000
1010
0000
0001
0000
1100
0000
0000
0000
1010
0000
0001
0100
,
1010
0000
0001
0000
1100
0000
0001
0000
1010
0000
0000
0000
0101
0000
1000
0000
0101
0000
0010
0000
0101
0000
1000
0000
0110
0000
0000
0000
1001
0000
0010
0100
,
1001
0000
0100
0000
1010
0000
0100
0000
1010
0000
0000
0000
0101
0000
1000
0000
0101
0000
0010
0000
1001
0000
0100
0000
1010
0000
0000
0000
1100
0000
0010
0001
,
1100
0000
0010
0000
1100
0000
0001
0000
0110
0000
0000
0000
1010
0000
0100
0000
1010
0000
0001
0000
1010
0000
0100
0000
1010
0000
0000
0000
0101
0000
1000
0010
,
0101
0000
0000
0000
0010
0000
0000
0000
1001
0000
0000
0000
0010
0000
0000
0000
0101
0000
0000
0000
0000
0000
0000
0000
1010
0000
0000
0000
0100
0000
0000
0000
1001
0000
0000
0000
0100
0000
0000
0000
0011
0000
0000
0000
1000
0000
0000
0000
0011
0000
0000
0000
0000
0000
0000
0000
1001
0010
0100
1000
0001
0010
0100
1000
,
0011
0000
0100
0000
0011
0000
1000
0000
0011
0000
0000
0000
1100
0000
0001
0000
1100
0000
0010
0000
1001
0000
0100
0000
1001
0000
0000
0000
0110
0000
1000
0001
,
0110
0000
1000
0000
0101
0000
1000
0000
0101
0000
0000
0000
0101
0000
1000
0000
0110
0000
1000
0000
0011
0000
0100
0000
1010
0000
0000
0000
1001
0000
0100
0001
,
1010
0000
0001
0000
1100
0000
0010
0000
0101
0000
0000
0000
1001
0000
0010
0000
1100
0000
0001
0000
1100
0000
0010
0000
0101
0000
0000
0000
1100
0000
0001
0010
,
1100
0000
0001
0000
0110
0000
0001
0000
1100
0000
0000
0000
0011
0000
1000
0000
0110
0000
1000
0000
0011
0000
0100
0000
1010
0000
0000
0000
0011
0000
0100
1000
,
0011
0000
0100
0000
1010
0000
0100
0000
0011
0000
0000
0000
1100
0000
0010
0000
1100
0000
0001
0000
1100
0000
0010
0000
1001
0000
0000
0000
0110
0000
0001
1000
,
0110
0000
1000
0000
0011
0000
1000
0000
0011
0000
0000
0000
1100
0000
0010
0000
1100
0000
0001
0000
0110
0000
1000
0000
0011
0000
0000
0000
1010
0000
0001
0100
,
1010
0000
0001
0000
1010
0000
0100
0000
1001
0000
0000
0000
0011
0000
1000
0000
0011
0000
0100
0000
0011
0000
1000
0000
0011
0000
0000
0000
1100
0000
0010
0100
,
0001
0000
0000
0000
0000
0000
0000
0000
0010
0000
0000
0000
0000
0000
0000
0000
0100
0000
0000
0000
0000
0000
0000
0000
1000
0000
0000
0000
0000
0000
0000
0000
0100
0000
0000
0000
0000
0000
0000
0000
0010
0000
0000
0000
0000
0000
0000
0000
1001
0000
0000
0000
0000
0000
0000
0000
0001
0010
0100
1000
0001
0010
0100
1000
,
0011
0000
0100
0000
1010
0000
0101
0000
1110
0000
0000
0000
1101
0000
0010
0000
0101
0000
1000
0000
0110
0000
1001
0000
0111
0000
0000
0000
1011
0000
0100
0010
,
0101
0000
1000
0000
0011
0000
1100
0000
1011
0000
0000
0000
1011
0000
0100
0000
1010
0000
0100
0000
1010
0000
0101
0000
1011
0000
0000
0000
1110
0000
0001
1000
,
0101
0000
0010
0000
0011
0000
1100
0000
0111
0000
0000
0000
0111
0000
1000
0000
0101
0000
0010
0000
0101
0000
1010
0000
1101
0000
0000
0000
0111
0000
0010
1000
,
0101
0000
0010
0000
1001
0000
0110
0000
1101
0000
0000
0000
1011
0000
0100
0000
1010
0000
0100
0000
1010
0000
0101
0000
1011
0000
0000
0000
1110
0000
0001
0100
,
1010
0000
0001
0000
0110
0000
1010
0000
1101
0000
0000
0000
1011
0000
0100
0000
1010
0000
0001
0000
0110
0000
1001
0000
1110
0000
0000
0000
1101
0000
0010
0100
,
1010
0000
0001
0000
0110
0000
0011
0000
1101
0000
0000
0000
1110
0000
0010
0000
0101
0000
0010
0000
0101
0000
1010
0000
1101
0000
0000
0000
0111
0000
1000
0001
,
0110
0000
1000
0000
0110
0000
0011
0000
1101
0000
0000
0000
1110
0000
0001
0000
1010
0000
0100
0000
1010
0000
0101
0000
1110
0000
0000
0000
1011
0000
0100
0001
,
1010
0100
1001
0100
1011
0000
1100
0010
0001
0010
0100
1010
0000
0000
0001
0000
,
1011
0000
0100
0000
1010
0000
0101
0000
1111
0000
0000
0000
1101
0000
0010
0000
1101
0000
1000
0000
0110
0000
1001
0000
1111
0000
0000
0000
1011
0000
0100
0010
,
1101
0000
1000
0000
0011
0000
1100
0000
1111
0000
0000
0000
1011
0000
0100
0000
1011
0000
0100
0000
1010
0000
0101
0000
1111
0000
0000
0000
1110
0000
0001
1000
,
0111
0000
0010
0000
0011
0000
1100
0000
1111
0000
0000
0000
0111
0000
1000
0000
1101
0000
0010
0000
0101
0000
1010
0000
1111
0000
0000
0000
0111
0000
0010
1000
,
1101
0000
0010
0000
1001
0000
0110
0000
1111
0000
0000
0000
1011
0000
0100
0000
1011
0000
0100
0000
1010
0000
0101
0000
1111
0000
0000
0000
1110
0000
0001
0100
,
1011
0000
0001
0000
0110
0000
1010
0000
1111
0000
0000
0000
1011
0000
0100
0000
1110
0000
0001
0000
0110
0000
1001
0000
1111
0000
0000
0000
1101
0000
0010
0100
,
1011
0000
0001
0000
0110
0000
0011
0000
1111
0000
0000
0000
1110
0000
0010
0000
1101
0000
0010
0000
0101
0000
1010
0000
1111
0000
0000
0000
0111
0000
1000
0001
,
1110
0000
1000
0000
0110
0000
0011
0000
1111
0000
0000
0000
1110
0000
0001
0000
1011
0000
0100
0000
1010
0000
0101
0000
1111
0000
0000
0000
1011
0000
0100
0001
,
1110
0100
1001
0100
1111
0000
1100
0010
1001
0010
0101
1000
0000
0000
0000
0000
,
1001
0000
0000
0000
;
